#VERSION:0.82;
#TITLE:Amaretto Pudding;
#SUBTITLE:;
#ARTIST:YAGCHEN;
#TITLETRANSLIT:;
#SUBTITLETRANSLIT:;
#ARTISTTRANSLIT:;
#GENRE:;
#ORIGIN:;
#CREDIT:;
#BANNER:[Round 2] - Amaretto Pudding.png;
#BACKGROUND:[Round 2] - Amaretto Pudding-bg.png;
#PREVIEWVID:;
#JACKET:[Round 2] - Amaretto Pudding-jacket.png;
#CDIMAGE:;
#DISCIMAGE:;
#LYRICSPATH:;
#CDTITLE:;
#MUSIC:[Round 2] - Amaretto Pudding.ogg;
#OFFSET:-1.320000;
#SAMPLESTART:31.657467;
#SAMPLELENGTH:13.186813;
#SELECTABLE:YES;
#BPMS:0.000=182.000;
#STOPS:;
#DELAYS:;
#WARPS:;
#TIMESIGNATURES:0.000=4=4;
#TICKCOUNTS:0.000=4;
#COMBOS:0.000=1;
#SPEEDS:0.000=1.000=0.000=0;
#SCROLLS:0.000=1.000;
#FAKES:;
#LABELS:0.000=Song Start;
#BGCHANGES:;
#KEYSOUNDS:;
#ATTACKS:
;

//---------------dance-single - S-CHALLENGE----------------
#NOTEDATA:;
#CHARTNAME:xRGTMx-CSP;
#STEPSTYPE:dance-single;
#DESCRIPTION:S-CHALLENGE;
#CHARTSTYLE:;
#DIFFICULTY:Challenge;
#METER:12;
#RADARVALUES:0.983322,1.000000,0.383891,0.008928,0.865986,727.000000,43.000000,1.000000,0.000000,0.000000,0.000000,0.000000,0.000000,0.983322,1.000000,0.383891,0.008928,0.865986,727.000000,43.000000,1.000000,0.000000,0.000000,0.000000,0.000000,0.000000;
#CREDIT:xRGTMx;
#NOTES:
0000
0000
0000
0000
,
0000
0000
0000
0000
,
0000
0000
0000
0000
,
0000
0000
0000
0000
,
0010
0000
0010
0000
0100
0010
1001
0000
,
1000
0000
0100
0010
0100
0000
0010
0000
0001
0000
1000
0000
0001
0100
0001
0100
,
0010
0000
1000
0100
0000
1000
0000
0010
0000
0000
0000
0000
1001
0000
0000
0000
,
0001
0000
0100
0010
0100
0000
0010
0000
1000
0000
0001
0000
1000
0100
1000
0100
,
0010
0000
0001
0100
0000
0001
0000
0010
0000
0000
0001
0000
0100
0000
0100
0000
,
0010
0000
1000
0100
1000
0000
0001
0000
0010
0000
0001
0000
0100
0010
0100
0010
,
1000
0000
0100
0010
0000
0001
0000
0100
0000
0000
0010
0100
0010
0000
1001
0000
,
1000
0000
0010
1000
0010
0000
0100
0000
0001
0000
0010
0000
0100
1000
0100
1000
,
0010
0000
1010
1000
0100
0000
0011
0000
,
0001
0000
0001
0100
0000
0000
1010
0000
0000
0000
1100
0000
0000
0000
0000
0000
,
0010
0000
0001
1000
0000
1000
0010
0000
0100
0000
0010
0000
1001
0000
0000
0000
,
1000
0000
1000
0100
0000
0000
0011
0000
0000
0000
0101
0000
0000
0000
0000
0000
,
0010
0000
1000
0001
0000
0001
0010
0000
0100
0000
0010
0000
1001
0000
0000
0000
,
1000
0000
0001
0100
0000
0000
0010
0000
1000
0000
1000
0000
0100
0010
0100
0010
,
0001
0000
0010
0100
0000
0100
1000
0000
0010
0000
0100
0000
1001
0000
0000
0000
,
0001
0000
1000
0100
0000
0000
0010
0000
0001
0000
0001
0000
0100
0010
0100
0010
,
1000
0000
0011
1100
0000
0110
0000
1001
,
0000
1100
0101
0000
0101
1100
0000
1010
,
0011
0000
0000
0000
1100
0000
0000
0000
1001
0000
0001
1000
0010
0000
0000
0000
,
1000
0100
1000
0100
0010
0100
0010
0100
1000
0100
0010
0000
0001
0000
0001
1000
,
0001
0100
0001
0100
0010
0100
0010
0100
0001
0100
0010
0000
1000
0000
1000
0100
,
0010
0001
0010
0001
1000
0010
1000
0010
0100
0001
1000
0000
0100
0000
0010
0001
,
1000
0000
0010
0000
0100
0000
0010
0000
1000
0000
0001
1000
0001
0000
0010
0000
,
0001
0010
0001
0010
0100
0010
0100
0010
0001
0010
0100
0000
1000
0000
1000
0001
,
1000
0010
1000
0010
0100
0010
0100
0010
1000
0010
0100
0000
0001
0000
0001
0010
,
0100
1000
0100
1000
0001
0100
0001
0100
0010
1000
0001
0000
0100
0000
0001
0000
,
1000
0100
0010
0000
0010
0100
1000
0000
0001
0100
1000
0100
0001
0000
0010
0000
,
0001
0010
0001
0010
0100
1000
0100
1000
0001
0100
0001
0000
1000
0000
1000
0001
,
1000
0100
1000
0100
0010
0001
0010
0001
1000
0010
1000
0000
0001
0000
0001
1000
,
0001
0010
0100
0010
0001
1000
0100
0010
0100
1000
0001
0000
0100
0000
0010
1000
,
0001
0000
0010
0000
1000
0000
0010
0000
0001
0000
0100
0010
1000
0000
0001
0000
,
1000
0010
1000
0010
0001
0010
0001
0010
1000
0010
1000
0000
0010
0000
0010
0100
,
0001
0100
0001
0100
1000
0100
1000
0100
0001
0100
0001
0000
0100
0000
0010
1000
,
0100
1000
0100
1000
0100
0001
0100
0001
0100
1000
0100
0000
0010
0000
0001
1000
,
0001
0010
0001
0000
0010
1000
0010
0000
1000
0010
0001
0010
0100
0000
1000
0000
,
0001
0100
0100
0010
1010
0000
1000
0001
,
1000
0000
0100
0000
0100
0000
0010
0000
0011
0000
0001
1000
0010
0000
0100
0000
,
0010
0100
0100
0010
1001
0000
1000
0001
,
0010
0100
0100
0010
1001
0100
1001
0000
,
1000
0010
0001
0100
1010
0000
0001
1000
,
0001
0000
0010
0000
1000
0000
0100
0000
0011
0000
0001
1000
0010
0000
1000
0000
,
0100
0010
0001
1000
0110
0001
1000
0010
,
0100
0001
0010
0100
1001
0100
0010
0000
,
0001
0000
0001
1000
0000
0000
1000
0000
0010
0000
0100
0000
0010
1000
0100
1000
,
0001
0010
0100
1000
0010
0100
0100
0100
,
0010
0000
1000
0001
0000
0000
0001
0000
0010
0000
0100
0000
0010
0001
1000
0010
,
0100
0001
1000
0100
0010
0100
1001
0000
,
0001
0000
0001
1000
0000
0000
1000
0000
0100
0000
0010
0000
0100
1000
0010
1000
,
0000
0000
1000
0100
0000
0000
0010
0000
0001
0000
1000
0000
0001
0100
0010
0100
,
0000
0000
0001
0010
0000
0000
0100
0000
1000
0000
0001
0000
1000
0010
0100
0001
,
1000
0100
1000
0000
0010
0000
0100
0000
1000
0100
0001
0000
0010
0000
0100
0000
,
1000
0000
1000
0001
0000
0000
0100
0000
0001
0010
0001
0010
0100
1000
0100
1000
,
0001
0100
0010
0100
0010
1000
0100
0000
0000
1001
0000
0000
,
1000
0100
1000
0100
0010
0001
0010
0001
1000
0100
0010
0100
1000
0001
0010
0001
,
0100
0010
0100
0010
0100
0000
0010
0000
1000
0010
0100
0001
1000
0010
0100
0001
,
1000
0000
0100
0010
0000
0000
0010
0000
0001
0010
0100
1000
0001
0010
0100
1000
,
0001
0010
0100
1000
0001
0100
0010
0000
0000
1001
0000
0000
,
1000
0010
1000
0010
0100
0001
0100
0001
1000
0100
0010
0001
0010
0100
1000
0001
,
0100
0010
0100
0010
0100
0000
0010
0000
1000
0010
0100
0001
0100
0010
1000
0001
,
1000
0100
0010
0000
0001
0000
1000
0000
1000
0100
0010
0000
0001
0000
1000
0000
,
0001
0010
0001
0000
0100
0000
0000
0000
0010
0000
1000
0001
0000
0000
1000
0000
,
0010
0010
0100
0100
0001
0010
1000
0010
,
0001
0100
1000
0010
1000
0100
0001
0010
,
0100
0010
0110
1001
,
1000
0010
0100
0000
0010
0000
1000
0000
0100
0000
0010
0001
0000
0000
1000
0000
,
0010
0010
0100
0100
1000
0100
0001
0100
,
0010
1000
0100
0001
0010
0001
0100
1000
,
0010
1010
0011
1001
,
1000
0100
0010
0000
1000
0000
0010
0000
0001
0000
0100
0010
0000
0000
0100
0000
,
0001
0010
1000
0001
0100
1000
0010
0001
,
1000
0100
0001
1000
0100
0001
0010
1000
,
0001
0010
0010
0010
0010
0000
1001
0000
,
0001
0010
0100
0000
0001
0000
0100
0000
1000
0000
0010
0100
0000
0000
0010
0000
,
1000
0100
0001
1000
0010
0001
0100
1000
,
0001
0010
1000
0001
0010
1000
0100
0001
,
1000
0100
0100
0100
0100
0000
1001
0000
,
0010
0000
0000
0000
0000
0000
1000
0001
0010
0000
0001
0000
1000
0000
0010
0000
,
0200
0000
0000
0000
,
0000
0000
0000
0000
,
0300
0000
0000
0000
;

//---------------dance-single - S-EXPERT----------------
#NOTEDATA:;
#CHARTNAME:xRGTMx-ESP;
#STEPSTYPE:dance-single;
#DESCRIPTION:S-EXPERT;
#CHARTSTYLE:;
#DIFFICULTY:Hard;
#METER:9;
#RADARVALUES:0.697636,0.666899,0.285686,0.017855,0.249975,513.000000,32.000000,2.000000,0.000000,0.000000,0.000000,0.000000,0.000000,0.697636,0.666899,0.285686,0.017855,0.249975,513.000000,32.000000,2.000000,0.000000,0.000000,0.000000,0.000000,0.000000;
#CREDIT:xRGTMx;
#NOTES:
0000
0000
0000
0000
,
0000
0000
0000
0000
,
0000
0000
0000
0000
,
0000
0000
0000
0000
,
0010
0000
0010
0000
0100
0010
1001
0000
,
1000
0000
0000
0100
0000
0000
0100
0000
0010
0000
0001
0000
0010
0000
0100
0000
,
1000
0000
0001
0100
0000
0100
0000
0010
0000
0000
0000
0000
1001
0000
0000
0000
,
0001
0000
0000
0010
0000
0000
0010
0000
0100
0000
1000
0000
0100
0000
0010
0000
,
0001
0000
1000
0010
0000
0010
0000
0100
0000
0000
0010
0000
1000
0000
0001
0000
,
1000
0000
0000
0100
0000
0000
0100
0000
0001
0000
0100
0000
1000
0000
0001
0000
,
0100
0000
0010
1000
0000
1000
0000
0100
0000
0000
0010
0100
0010
0000
0001
0000
,
0001
0000
0000
0100
0000
0000
0100
0000
1000
0000
0100
0000
0001
0000
1000
0000
,
0100
0000
0011
0001
0100
0000
1010
0000
,
1001
0000
0000
0001
0000
0000
0010
0000
0000
0000
0100
0000
0000
0000
0000
0000
,
0010
0000
0000
0001
0000
0000
1000
0000
1000
0000
0010
0000
0100
0000
0000
0000
,
0010
0000
0000
1000
0000
0000
0001
0000
0000
0000
0010
0000
0000
0000
0000
0000
,
0100
0000
0100
0010
0000
0000
0001
0000
0010
0000
0100
0000
1000
0000
0000
0000
,
1001
0000
0000
0001
0000
0000
0100
0000
0000
0000
0010
0000
0000
0000
0000
0000
,
0100
0000
0000
0001
0000
0000
1000
0000
1000
0000
0100
0000
0010
0000
0000
0000
,
0100
0000
0000
1000
0000
0000
0001
0000
0000
0000
0100
0000
0000
0000
0000
0000
,
0010
0000
1000
0100
0000
0010
0000
0001
,
0000
1000
1100
0000
0001
0101
0000
1000
,
1010
0000
0000
0000
0011
0000
0000
0000
1001
0000
0001
1000
0010
0000
0000
0000
,
1000
0000
0100
0000
0001
0000
0100
0000
1000
0000
0000
0100
0000
0000
0010
0000
,
0001
0100
1000
0100
0001
0100
0000
0000
,
0001
0000
0010
0000
1000
0000
0100
0000
1000
0000
0000
0010
0000
0000
0001
0000
,
1000
0000
0000
0010
0000
0000
0001
0000
1000
0000
0000
0000
0100
0000
0000
0100
,
0001
0000
0010
0000
1000
0000
0010
0000
0001
0000
0000
0010
0000
0000
0100
0000
,
1000
0010
0001
0010
1000
0010
0000
0000
,
1000
0000
0100
0000
0001
0000
0010
0000
0001
0000
0000
0100
0000
0000
1000
0000
,
0001
0000
0000
0100
0000
0000
1000
0000
0001
0000
0000
0000
0110
0000
0000
0000
,
1000
0000
0100
0000
0001
0000
0100
0000
0010
0000
0010
0100
0000
0000
1000
0000
,
0001
0000
0100
0000
1000
0000
0100
0000
0010
0000
0100
0000
0000
0000
0000
0001
,
1000
0000
0100
0000
0001
0000
1000
0000
0010
0000
0010
0001
0000
0000
1000
0000
,
0010
0000
0010
0100
0000
0000
0001
0000
1000
0000
0000
0000
1001
0000
0000
0000
,
0001
0000
0010
0000
1000
0000
0010
0000
0100
0000
0100
0010
0000
0000
0001
0000
,
1000
0000
0010
0000
0001
0000
0010
0000
0100
0000
0010
0000
0000
0000
0000
1000
,
0001
0000
0010
0000
1000
0000
0001
0000
0100
0000
0100
1000
0000
0000
0001
0000
,
0100
0000
0100
0010
0000
0000
1000
0000
0001
0000
0010
0000
0100
0000
1000
0000
,
0001
0100
0001
0100
0000
0100
0010
0100
,
0001
0000
0100
0000
0010
0000
1000
0000
0000
0000
1000
0100
0010
0000
0100
0000
,
1000
0100
1000
0100
0000
0100
0010
0100
,
1000
0000
0100
0000
0010
0000
0001
0000
0000
0000
0001
1000
0001
0000
0000
0000
,
1000
0010
1000
0010
0000
0010
0100
0010
,
1000
0000
0010
0000
0100
0000
0001
0000
0000
0000
0001
0010
0100
0000
0010
0000
,
0001
0010
0001
0010
0000
0010
0100
0010
,
0001
0010
0100
1000
0000
1100
0000
0101
,
0001
0000
0000
0010
0000
0000
0010
0000
0100
0000
1000
0000
0001
0000
1000
0000
,
0010
1000
0100
0010
0001
0100
0100
0100
,
0001
0000
0000
0010
0000
0000
0010
0000
0100
0000
1000
0000
0001
0000
1000
0000
,
0010
0100
0001
0010
0100
0010
1001
0000
,
1000
0000
0000
0010
0000
0000
0010
0000
0100
0000
0001
0000
1000
0000
0001
0000
,
1000
0000
0000
0100
0000
0000
0100
0000
0010
0000
0001
0000
1000
0000
0001
0000
,
1000
0000
0000
0100
0000
0000
0001
0000
1000
0000
0010
0000
0001
0000
1000
0000
,
0010
0100
0010
0000
0100
0000
0010
0000
1000
0000
0010
0000
0100
0000
0001
0000
,
1000
0100
0000
0100
0010
0100
0000
0010
,
0001
0100
1000
0100
0001
0000
1001
0000
,
0000
1000
0000
1000
0100
0010
0000
0010
,
0001
0100
1000
0010
0001
0000
1001
0000
,
0010
0010
0010
0010
0000
0100
0100
0100
,
0000
0000
0010
0100
0010
0000
0100
0000
0100
0000
0010
0000
0010
0000
0100
0000
,
0010
0011
1010
1001
,
0001
0000
1000
0000
0001
0000
1000
0000
0010
0100
0010
0100
0010
0100
0010
0100
,
0001
1000
0110
1001
,
1000
0000
0100
0000
0010
0000
0100
0000
1000
0000
0000
0100
0000
0000
0010
0000
,
0001
0010
0100
1000
0001
0100
0010
1000
,
0100
1000
0001
0010
0001
0100
0010
1000
,
0010
0100
0110
1001
,
0001
0000
0010
0000
0001
0000
0100
0000
0010
0000
0000
0100
0000
0000
0100
0000
,
0010
1000
0001
0010
0100
1000
0100
0010
,
0001
0100
1000
0100
0001
0010
1000
0010
,
0001
1000
0110
1001
,
1000
0000
0010
0000
0100
0000
0010
0000
1000
0000
0000
0010
0000
0000
0100
0000
,
0001
0100
0010
1000
0001
0010
0100
1000
,
0010
1000
0001
0100
0001
0010
0100
1000
,
0100
0010
0110
1001
,
0001
0000
0100
0000
0001
0000
0010
0000
0100
0000
0000
0010
0000
0000
0010
0000
,
0100
1000
0001
0100
0010
1000
0010
0100
,
0001
0010
1000
0010
0001
0100
1000
0100
,
0001
1000
0110
1001
,
0010
0000
0000
0000
0000
0000
1000
0001
0010
0000
0001
0000
1000
0000
0010
0000
,
0220
0000
0000
0000
,
0000
0000
0000
0000
,
0330
0000
0000
0000
;

//---------------dance-single - S-DIFFICULT----------------
#NOTEDATA:;
#CHARTNAME:xRGTMx-DSP;
#STEPSTYPE:dance-single;
#DESCRIPTION:S-DIFFICULT;
#CHARTSTYLE:;
#DIFFICULTY:Medium;
#METER:7;
#RADARVALUES:0.447660,0.407549,0.267831,0.017855,0.000000,319.000000,30.000000,2.000000,0.000000,0.000000,0.000000,0.000000,0.000000,0.447660,0.407549,0.267831,0.017855,0.000000,319.000000,30.000000,2.000000,0.000000,0.000000,0.000000,0.000000,0.000000;
#CREDIT:xRGTMx;
#NOTES:
0000
0000
0000
0000
,
0000
0000
0000
0000
,
0000
0000
0000
0000
,
0000
0000
0000
0000
,
0010
0000
0010
0000
0010
0100
0010
0000
,
1001
1000
0100
0100
,
0010
0000
0001
1000
0001
0000
0110
0000
,
1001
0001
0100
0100
,
0010
0000
1000
0001
1000
0000
0110
0000
,
1001
1000
0100
0010
,
0001
0000
0100
0010
0100
0000
0110
0000
,
1001
0001
0010
0100
,
1000
0000
0010
0100
0010
0100
0010
0000
,
1001
1000
0100
0000
,
0010
0001
1000
0000
,
0001
0100
1000
0100
,
0001
0000
0010
0000
0100
0010
0100
0000
,
1001
0001
0100
0000
,
0010
1000
0001
0000
,
1000
0100
0001
0100
,
1000
0000
0010
0100
0000
0100
0000
0010
,
0000
1000
0001
0000
0001
1000
0000
0100
,
0010
0100
0110
1001
,
1000
0001
0000
0001
0000
0100
0000
0010
,
0000
1000
0000
1000
0000
0100
0000
0010
,
0000
0001
0000
0010
0000
1000
0000
0010
,
0001
1000
0010
1001
,
0001
1000
0000
1000
0000
0100
0000
0010
,
0000
0001
0000
0001
0000
0100
0000
0010
,
0000
1000
0000
0010
0000
0001
0000
0010
,
1000
0001
0110
1001
,
1000
0100
0000
0010
0000
0001
0000
0010
,
0000
0100
0000
1000
0000
0010
0000
0100
,
0000
0001
0000
1000
0000
0001
0000
0010
,
0100
0010
0100
1001
,
1000
0010
0000
0001
0000
0010
0000
1000
,
0000
0100
0000
0001
0000
0100
0000
1000
,
0000
0010
0000
0001
0000
0100
0000
1000
,
0001
0100
0110
1001
,
0001
0000
0000
0001
0100
0000
0000
0100
,
0010
0000
1000
0000
0001
1000
0001
0000
,
1000
0000
0000
1000
0100
0000
0000
0100
,
0010
0000
0001
0000
0100
0010
1000
0000
,
0001
0000
0000
0001
0010
0000
0000
0010
,
0100
0000
1000
0000
0001
1000
0001
0000
,
1000
0000
0000
1000
0010
0000
0000
0010
,
0100
0000
0001
0000
0010
0100
1000
0000
,
0001
0100
0010
0100
,
0001
0010
0100
1000
0010
0000
0000
0000
,
1000
0100
0010
0100
,
1000
0010
0100
0001
0010
0000
0000
0000
,
0001
0000
1000
0000
0010
0100
0010
0000
,
1000
0000
0001
0000
0010
0100
0010
0000
,
0001
1000
0001
1000
,
0010
0100
0010
0100
0010
0100
0010
0100
,
0010
0000
0000
0000
,
0100
0001
1001
0000
,
0000
1000
0000
0100
0000
0010
0000
0001
,
0000
0100
0010
0100
0010
0000
0000
0000
,
1001
1000
0100
0000
,
0010
0001
1000
0000
,
0001
0010
1000
0100
,
0001
0001
1000
1000
,
0010
1000
0100
0000
0010
0001
0100
0000
,
1001
1000
0100
0000
,
0010
0001
1000
0000
,
0001
0100
1000
0100
,
0001
0000
0010
0000
0100
0010
0100
0000
,
1001
0001
0100
0000
,
0010
1000
0001
0000
,
1000
0100
0001
0100
,
1000
0010
1001
0110
,
1001
0001
0010
0000
,
0100
1000
0001
0000
,
1000
0010
0001
0010
,
1000
0000
0100
0000
0010
0100
0010
0000
,
1001
1000
0010
0000
,
0100
0001
1000
0000
,
0001
0010
1000
0010
,
0001
0100
0110
1001
,
0010
0000
1001
0110
,
2002
0000
0000
0000
,
0000
0000
0000
0000
,
3003
0000
0000
0000
;

//---------------dance-single - S-BASIC----------------
#NOTEDATA:;
#CHARTNAME:xRGTMx-BSP;
#STEPSTYPE:dance-single;
#DESCRIPTION:S-BASIC;
#CHARTSTYLE:;
#DIFFICULTY:Easy;
#METER:4;
#RADARVALUES:0.297165,0.370499,0.160699,0.017855,0.000000,213.000000,18.000000,2.000000,0.000000,0.000000,0.000000,0.000000,0.000000,0.297165,0.370499,0.160699,0.017855,0.000000,213.000000,18.000000,2.000000,0.000000,0.000000,0.000000,0.000000,0.000000;
#CREDIT:xRGTMx;
#NOTES:
// measure 0
0000
0000
0000
0000
,  // measure 1
0000
0000
0000
0000
,  // measure 2
0000
0000
0000
0000
,  // measure 3
0000
0000
0000
0000
,  // measure 4
0010
0010
0010
1001
,  // measure 5
1000
0000
0100
0000
,  // measure 6
0010
0100
0010
0000
,  // measure 7
0001
0000
0100
0000
,  // measure 8
0010
0100
0010
0000
,  // measure 9
1000
0000
0100
0000
,  // measure 10
0001
0100
1000
0000
,  // measure 11
0001
0000
0100
0000
,  // measure 12
0010
0010
0010
1001
,  // measure 13
1000
0000
0100
0000
,  // measure 14
0010
0000
0100
0000
,  // measure 15
1000
0000
0010
0000
,  // measure 16
0100
0000
0001
1000
,  // measure 17
0001
0000
0100
0000
,  // measure 18
0010
0000
0100
0000
,  // measure 19
0001
0000
0010
0000
,  // measure 20
0100
0000
1000
0000
,  // measure 21
0000
0001
0000
0000
0001
0000
0000
1000
,  // measure 22
0000
0010
0100
0010
,  // measure 23
1001
1000
0100
0000
,  // measure 24
1000
0100
0010
0000
,  // measure 25
0100
0010
0001
0000
,  // measure 26
1000
0001
1000
0000
,  // measure 27
0001
0100
0010
0000
,  // measure 28
0100
0010
1000
0000
,  // measure 29
0001
1000
0001
0000
,  // measure 30
0110
1001
0110
0000
,  // measure 31
1001
1000
0010
0000
,  // measure 32
1000
0010
0100
0000
,  // measure 33
0010
0100
0001
0000
,  // measure 34
1000
0001
1000
0000
,  // measure 35
0001
0010
0100
0000
,  // measure 36
0010
0100
1000
0000
,  // measure 37
0001
1000
0001
0000
,  // measure 38
0110
1001
0110
0000
,  // measure 39
1001
0000
1000
0000
,  // measure 40
0100
0000
0100
0000
,  // measure 41
0010
0000
0010
0000
,  // measure 42
0001
1000
0010
0000
,  // measure 43
1001
0000
0001
0000
,  // measure 44
0100
0000
0100
0000
,  // measure 45
0010
0000
0010
0000
,  // measure 46
1000
0001
0010
0000
,  // measure 47
0001
0001
0010
0100
,  // measure 48
0010
0100
1000
0000
,  // measure 49
1000
1000
0010
0100
,  // measure 50
0010
0100
0001
0000
,  // measure 51
1000
1000
0100
0010
,  // measure 52
0001
0001
0010
0100
,  // measure 53
1000
1000
0010
0100
,  // measure 54
0001
0001
0100
0010
,  // measure 55
1000
0000
0000
0000
,  // measure 56
0100
0000
0000
0000
,  // measure 57
0001
0000
0000
0000
,  // measure 58
0010
0000
0000
0000
,  // measure 59
1000
0000
1000
0000
,  // measure 60
0001
0000
0001
0000
,  // measure 61
0100
0100
0010
0010
,  // measure 62
0100
0010
0100
0010
,  // measure 63
1001
0000
0110
0000
,  // measure 64
1001
1000
0100
0000
,  // measure 65
1000
0100
0010
0000
,  // measure 66
0100
0010
0001
0000
,  // measure 67
0001
0010
0100
0000
,  // measure 68
1000
0010
0100
0000
,  // measure 69
0010
0100
0001
0000
,  // measure 70
0001
0100
0010
0000
,  // measure 71
0100
0010
1000
0000
,  // measure 72
1000
0100
0001
0000
,  // measure 73
0001
0100
1000
0000
,  // measure 74
1000
0010
0001
0000
,  // measure 75
0001
0010
1000
0000
,  // measure 76
0001
0100
1000
0000
,  // measure 77
1000
0100
0001
0000
,  // measure 78
0001
0010
1000
0000
,  // measure 79
1000
0010
0001
0000
,  // measure 80
1001
0000
0110
0000
,  // measure 81
2002
0000
0000
0000
,  // measure 82
0000
0000
0000
0000
,  // measure 83
3003
0000
0000
0000
;

//---------------dance-single - BEGINNER----------------
#NOTEDATA:;
#CHARTNAME:xRGTMx-BEG;
#STEPSTYPE:dance-single;
#DESCRIPTION:BEGINNER;
#CHARTSTYLE:;
#DIFFICULTY:Beginner;
#METER:1;
#RADARVALUES:0.090552,0.148200,0.017855,0.008928,0.000000,68.000000,2.000000,1.000000,0.000000,0.000000,0.000000,0.000000,0.000000,0.090552,0.148200,0.017855,0.008928,0.000000,68.000000,2.000000,1.000000,0.000000,0.000000,0.000000,0.000000,0.000000;
#CREDIT:xRGTMx;
#NOTES:
// measure 0
0000
0000
0000
0000
,  // measure 1
0000
0000
0000
0000
,  // measure 2
0000
0000
0000
0000
,  // measure 3
0000
0000
0000
0000
,  // measure 4
0010
0010
0010
0000
,  // measure 5
1000
0000
0000
0000
,  // measure 6
0000
0000
0000
0000
,  // measure 7
1000
0000
0000
0000
,  // measure 8
0000
0000
0000
0000
,  // measure 9
0001
0000
0000
0000
,  // measure 10
0000
0000
0000
0000
,  // measure 11
0001
0000
0000
0000
,  // measure 12
0010
0000
0000
0000
,  // measure 13
0001
0000
0000
0000
,  // measure 14
0000
0000
0000
0000
,  // measure 15
0100
0000
0000
0000
,  // measure 16
0000
0000
0000
0000
,  // measure 17
0010
0000
0000
0000
,  // measure 18
0000
0000
0000
0000
,  // measure 19
1000
0000
0000
0000
,  // measure 20
0000
0000
0000
0000
,  // measure 21
0000
0001
0000
0000
0001
0000
0000
0001
,  // measure 22
0000
0001
0001
0000
,  // measure 23
1000
0000
0000
0000
,  // measure 24
0100
0000
0000
0000
,  // measure 25
0010
0000
0000
0000
,  // measure 26
0001
0000
0000
0000
,  // measure 27
1000
0000
0000
0000
,  // measure 28
0100
0000
0000
0000
,  // measure 29
0010
0000
0000
0000
,  // measure 30
0001
0000
0000
0000
,  // measure 31
1000
0000
0000
0000
,  // measure 32
0010
0000
0000
0000
,  // measure 33
0100
0000
0000
0000
,  // measure 34
0001
0000
0000
0000
,  // measure 35
1000
0000
0000
0000
,  // measure 36
0010
0000
0000
0000
,  // measure 37
0100
0000
0000
0000
,  // measure 38
0001
0000
0000
0000
,  // measure 39
1000
0000
0000
0000
,  // measure 40
0000
0000
0000
0000
,  // measure 41
0100
0000
0000
0000
,  // measure 42
0000
0000
0000
0000
,  // measure 43
0001
0000
0000
0000
,  // measure 44
0000
0000
0000
0000
,  // measure 45
0010
0000
0000
0000
,  // measure 46
0000
0000
0000
0000
,  // measure 47
1000
0000
0000
0000
,  // measure 48
1000
0000
0000
0000
,  // measure 49
0001
0000
0000
0000
,  // measure 50
0001
0000
0000
0000
,  // measure 51
1000
0000
1000
0000
,  // measure 52
1000
0000
0000
0000
,  // measure 53
0001
0000
0001
0000
,  // measure 54
0001
0000
0000
0000
,  // measure 55
0100
0000
0000
0000
,  // measure 56
0000
0000
0000
0000
,  // measure 57
0010
0000
0000
0000
,  // measure 58
0000
0000
0000
0000
,  // measure 59
0100
0000
0000
0000
,  // measure 60
0000
0000
0000
0000
,  // measure 61
0010
0000
0000
0000
,  // measure 62
0000
0000
0000
0000
,  // measure 63
1001
0000
1001
0000
,  // measure 64
1000
0000
0000
0000
,  // measure 65
0000
0000
0000
0000
,  // measure 66
0100
0000
0000
0000
,  // measure 67
0000
0000
0000
0000
,  // measure 68
0010
0000
0000
0000
,  // measure 69
0000
0000
0000
0000
,  // measure 70
0001
0000
0000
0000
,  // measure 71
0000
0000
0000
0000
,  // measure 72
1000
0000
0000
0000
,  // measure 73
1000
0000
0000
0000
,  // measure 74
0010
0000
0000
0000
,  // measure 75
0010
0000
0000
0000
,  // measure 76
0100
0000
0000
0000
,  // measure 77
0100
0000
0000
0000
,  // measure 78
0001
0000
0000
0000
,  // measure 79
0001
0000
0000
0000
,  // measure 80
1000
0000
0001
0000
,  // measure 81
0200
0000
0000
0000
,  // measure 82
0000
0000
0000
0000
,  // measure 83
0300
0000
0000
0000
;
