#TITLE:gigadelic;
#SUBTITLE:-stance xxxx-;
#ARTIST:Hate;
#TITLETRANSLIT:;
#SUBTITLETRANSLIT:;
#ARTISTTRANSLIT:;
#GENRE:;
#CREDIT:;
#BANNER:[Round 12] - gigadelic -stance xxxx-.png;
#BACKGROUND:[Round 12] - gigadelic -stance xxxx--bg.png;
#LYRICSPATH:;
#CDTITLE:;
#MUSIC:[Round 12] - gigadelic -stance xxxx-.mp3;
#OFFSET:-0.746000;
#SAMPLESTART:40.524979;
#SAMPLELENGTH:19.296486;
#SELECTABLE:YES;
#BPMS:0.000000=199.000000
;
#STOPS:98.000000=0.302000
;
#BGCHANGES:;
#KEYSOUNDS:;
#ATTACKS:;

//---------------dance-single - ----------------
#NOTES:
     dance-single:
     :
     Challenge:
     11:
     0.924261,0.999709,0.546619,0.322595,0.985707,625.000000,61.000000,36.000000,16.000000,0.000000,0.000000,0.924261,0.999709,0.546619,0.322595,0.985707,625.000000,61.000000,36.000000,16.000000,0.000000,0.000000:
0000
0000
0000
0000
,
0000
0000
0000
0000
,
0000
0000
0000
0000
,
0000
0000
0001
0100
0010
0000
1000
0000
0001
0000
0010
0000
0100
0000
1000
0000
,
1001
0000
0002
0000
0103
0001
0010
0000
,
0011
0000
2000
0000
3100
1000
0010
0000
,
1010
0000
0002
0000
0013
0001
0100
0000
,
0101
0000
2000
0000
3010
1000
0100
0000
,
1001
0000
2000
0000
3100
1000
0010
0000
,
0101
0000
0002
0000
0103
0001
0010
0000
,
1100
0000
2000
0000
3010
0100
0001
0000
,
1001
0000
0000
0000
1000
0000
0100
0010
0001
0000
0100
0000
0010
0000
1000
0000
,
2002
0000
0000
3003
,
0110
0220
0000
0000
0000
0000
0330
0000
,
1001
1001
2002
0000
0000
0000
3003
0000
,
0101
0000
0000
0000
0001
0000
1010
0000
0000
0000
1000
0000
0001
1000
0001
1000
,
0001
0100
0001
0010
M00M
0010
1000
0100
,
M00M
0000
0100
0000
0001
0000
0010
0001
0010
0000
0001
0000
0100
0000
0010
0000
,
1000
0001
0100
1000
0MM0
1000
0010
0100
,
0001
0000
0010
0000
0001
0000
1000
0010
1000
0000
0001
0000
0010
0000
0100
0000
,
1001
0000
0001
0010
M00M
0010
1000
0100
,
M00M
0000
0100
0000
0001
0000
0010
0100
0010
0000
0001
0000
1000
0000
0010
0000
,
0100
0001
0010
1000
0MM0
1000
0100
0010
,
0001
0000
0100
0000
0010
0000
1000
0000
0001
0000
1000
0001
0100
0001
0100
0001
,
1000
1001
0000
0100
0110
0000
1001
0000
,
0011
0000
0100
1000
1001
0000
0001
0100
,
0110
0010
1000
0001
1001
0000
0100
0000
,
1001
0000
1000
0100
0110
0000
0100
1000
,
1001
0001
1000
0010
0100
0000
1001
0000
,
1100
0000
0010
0001
0101
0000
0010
1000
,
1100
0100
0010
0001
1001
0000
0100
0000
,
1001
0000
0000
0000
1000
0000
0010
0000
1010
0000
0100
0001
0100
0000
0001
0000
,
2000
0000
3100
0010
0100
0000
0110
0000
0000
0000
0010
0100
1000
0000
0000
0000
,
2001
0000
3100
1000
0010
0000
0100
0001
,
1002
0000
0103
0001
0010
0000
1100
0000
,
1000
0001
1000
0001
0100
0010
1000
0100
,
0110
0000
0000
0000
0001
0000
0100
0010
1000
0000
0001
0000
1000
0010
1000
0000
,
0001
0100
0001
0000
1000
0010
1000
0000
0001
0100
0001
0000
1000
0100
1000
0000
,
0001
0010
0001
0000
1000
0100
1000
0000
0001
0010
0001
0000
0100
0010
0100
0000
,
0001
1000
0001
0000
0010
0100
0010
0000
0001
1000
0001
0000
0100
0000
0010
0000
,
0110
0000
0000
0000
1001
0000
1000
0000
0001
0100
0001
0100
0010
0000
0000
0000
,
1020
0000
0130
0001
0010
0000
0100
1000
,
1002
0000
0000
0000
0103
0001
0100
0001
1000
0000
0000
0000
0100
1000
0100
0000
,
0010
0001
0010
0000
0001
0100
0001
0000
1000
0010
1000
0000
0100
0000
0010
0000
,
0011
0000
0000
0000
0001
0000
1000
0001
1000
0001
0100
0001
2000
0000
0000
0000
,
3100
1000
1001
0000
0001
1000
0000
0001
,
0100
0010
2010
0000
3100
0000
0012
0000
,
0103
0000
0000
0001
0000
0000
1001
0000
0000
0000
0000
0000
1000
0000
0000
0000
0000
0000
0001
0000
0010
0000
0001
0000
,
1000
0000
0100
0000
1000
0000
0001
0000
0000
0100
0000
0000
0010
0000
0000
1000
0000
0000
2001
0000
0000
0000
0000
0000
,
0000
0000
0000
3200
,
0000
0000
0300
1002
,
0000
0000
0000
0203
,
0000
0000
0010
0320
,
0000
0000
0000
2030
,
0000
0000
0000
3001
,
0000
0000
1000
0001
0000
0000
1000
0000
,
0000
0000
0000
0200
0000
0000
0300
0000
0000
1000
0001
1000
,
0001
1000
0001
0100
0010
0100
0010
0100
0010
1000
0001
1000
,
0001
1000
0001
0010
0100
0010
0100
0010
0100
1000
0100
1000
,
0100
1000
0100
0010
0001
0010
0001
0010
0001
0100
0001
0100
,
0001
0100
0001
1000
0010
1000
0010
1000
0010
0100
0001
0100
,
0010
1000
0010
0100
0001
0100
0010
1000
0010
1000
0001
1000
,
0100
0010
0100
1000
0001
1000
0010
0100
0010
1000
0100
1000
,
0001
0010
0001
1000
0010
1000
0001
0100
0001
2002
0000
0000
,
0000
0000
0000
0000
0000
0000
0000
0000
0000
0000
0000
0000
3003
0000
0000
MMMM
0000
0000
1001
0000
0000
0000
1000
0000
,
0010
0000
0010
0100
0000
0100
0001
0000
0001
0010
0000
0010
,
0100
1000
0001
0100
0000
0100
0001
0000
1000
0100
0000
0100
,
1000
0000
1000
0010
0100
0001
0010
0000
0010
0001
0000
0001
,
0100
0010
1000
0001
0000
0000
0110
0000
0000
1001
0000
0001
,
0100
0000
0100
0010
0000
0010
1000
0000
1000
0100
0000
0100
,
0010
0001
1000
0010
0000
0010
1000
0000
1000
0001
0000
0001
,
1000
0000
1000
0100
0010
0001
0100
0000
0000
0110
0000
1001
,
0000
0001
0000
1000
0100
0010
0001
0010
0100
1000
0000
0001
,
0100
0000
0100
1000
0000
1000
0100
0000
0100
0001
0000
0001
,
0010
0100
1000
0010
0000
0010
1000
0000
0001
1000
0000
0001
,
1000
0000
0100
1000
0100
0001
0100
0000
1000
0001
0000
0100
,
0001
0100
1000
0100
0000
0100
0001
0000
1000
0100
0000
1000
,
0010
0000
0010
0001
0000
0001
0010
0000
0010
1000
0000
1000
,
0100
0010
0001
0100
0000
0100
0001
0000
1000
0001
0000
1000
,
0001
0000
0010
1000
0010
0001
0010
0000
0100
1000
0000
0010
,
0001
0010
1000
0010
0100
0001
0100
0010
1000
2002
0000
0000
,
0000
0000
0000
0000
0000
0000
3003
0000
0000
0001
0100
0001
,
1000
0001
1000
0100
0010
0001
1000
0010
0100
0220
0000
0000
,
0000
0000
0000
0000
0000
0000
0330
0000
0000
0010
0100
0001
,
1001
0000
1001
0000
1000
0100
0010
0001
0100
0001
1000
0001
,
1000
0100
1000
0100
0010
0100
0010
0001
0010
0001
0100
0001
,
0100
0010
0100
0010
1000
0010
1000
0001
1000
0001
0010
0001
,
1000
0100
1000
0100
0001
0100
1000
0001
0100
0010
1000
0010
,
0001
0010
1000
0100
0010
0001
0100
0010
1000
2002
0000
0000
,
0000
3003
0000
0000
;

//---------------dance-single - ----------------
#NOTES:
     dance-single:
     :
     Hard:
     9:
     0.739920,0.719790,0.457010,0.367400,0.416685,486.000000,51.000000,41.000000,0.000000,0.000000,0.000000,0.739920,0.719790,0.457010,0.367400,0.416685,486.000000,51.000000,41.000000,0.000000,0.000000,0.000000:
0000
0000
0000
0000
,
0000
0000
0000
0000
,
0000
0000
0000
0000
,
0000
1000
0001
0010
0100
1000
0001
0100
,
1001
0000
0002
0000
0103
0020
0000
0130
,
0001
0000
2000
0000
3100
0020
0000
0130
,
1000
0000
0002
0000
0013
0002
0000
0103
,
0001
0000
2000
0000
3010
2000
0000
3001
,
1001
0000
2000
0000
3100
0020
0000
0031
,
0100
0000
0002
0000
0103
0020
0000
1030
,
0100
0000
2000
0000
3001
0200
0000
0310
,
1000
0000
0001
1000
0100
0010
0001
1000
,
2002
0000
0000
3003
,
0002
0200
0000
0000
0000
0000
0303
0000
,
0001
2000
0200
0000
0000
0000
3300
0000
,
0011
0000
0000
1100
0000
0010
0001
1000
,
0001
0100
0010
1000
0000
0010
1000
0100
,
0000
1000
0100
0010
0001
0100
1000
0100
,
0001
0000
1000
0100
0000
0010
0001
1000
,
0100
0001
0100
1000
0000
0001
0100
0010
,
1010
0000
1000
0001
0000
0010
0001
0100
,
0000
0010
1000
0100
0001
0100
1000
0010
,
0100
0001
1000
0100
0000
0010
0001
0100
,
0001
0010
1000
0010
0001
0100
0010
1000
,
0001
0001
0000
1000
1000
0000
1001
0000
,
0101
0000
0010
1000
0100
0000
0010
0001
,
0100
0000
0010
1000
0100
0000
0011
0000
,
1100
0000
0010
0001
0100
0000
0010
1000
,
0100
0000
0001
0100
1000
0000
1001
0000
,
1010
0000
0100
0001
0010
0000
0100
1000
,
0010
0000
0100
0001
0010
0000
1100
0000
,
0011
0000
0100
1000
0010
1000
0100
0010
,
0001
0000
0100
0100
0000
0001
1001
0000
,
1100
0000
0010
0002
1000
0000
0103
0000
,
0101
0000
0010
2000
0001
0000
3100
0000
,
0011
0000
0100
1000
0010
0000
0100
0001
,
0010
0000
0100
1000
1001
0000
0001
0100
,
0010
0100
0001
0100
0010
0100
1000
0100
,
0010
0100
1000
0100
0010
1000
0100
0001
,
0100
0010
0100
0001
0100
1000
0001
0100
,
0101
0000
0001
0001
1000
0100
0110
0000
,
1001
0000
1000
0010
0100
0001
1000
0000
,
1001
0000
0001
0010
0100
0010
0001
0100
,
1000
0100
0001
0100
1000
0100
0001
0010
,
0110
0000
1000
0100
0010
0001
2000
0000
,
3001
0001
1000
0000
0001
0100
0000
0100
,
0001
1000
0200
0000
0310
0000
0002
0000
,
1003
0000
0000
1000
0000
0000
0001
0000
0000
0000
0000
0000
1000
0000
0000
0000
0000
0000
0001
0000
1000
0000
0001
0000
,
1000
0001
1000
0001
0000
0000
0100
0000
0000
2001
0000
0000
,
0000
0000
0000
3200
,
0000
0000
0300
1002
,
0000
0000
0000
0203
,
0000
0000
0010
0320
,
0000
0000
0000
2030
,
0000
0000
0000
3001
,
0000
0000
1000
0001
0000
0000
1000
0000
,
0000
0200
0300
1001
,
1000
1100
1000
1001
,
0001
0101
0001
1001
,
1000
1010
1000
1001
,
0001
0011
0001
1100
,
0010
0101
0010
1001
,
0100
1001
0010
0101
,
0011
1100
1010
2002
,
0000
0000
0000
0000
0000
0000
3003
0000
0000
1001
0000
0001
,
0100
0000
0100
0010
0000
0010
1000
0000
1000
0001
0000
0001
,
1000
0000
1000
0100
0000
0100
0010
0000
0001
1000
0000
1000
,
0001
0000
0001
0100
0000
0100
0010
0000
0010
1000
0000
1000
,
0001
0000
0001
0010
0000
0000
0110
0000
0000
1001
0000
1000
,
0010
0000
0010
0100
0000
0100
0001
0000
0001
1000
0000
1000
,
0100
0000
0100
0010
0000
0010
0001
0000
1000
0010
0000
0010
,
1000
0000
1000
0100
0000
0100
0010
0000
0000
1001
0000
1001
,
0000
0001
0000
1000
0001
1000
0001
0100
0010
1000
0000
0010
,
0100
0000
0010
0100
0000
0010
1000
0000
0001
1000
0000
0001
,
0010
0000
0001
1000
0000
0100
1000
0000
0001
0100
0000
0001
,
0100
0000
0010
1000
0000
0001
0010
0000
0100
1000
0000
0001
,
0010
0000
0001
0100
0000
0010
1000
0000
1000
0001
0000
0010
,
0100
0000
0010
0100
0000
0010
0001
0000
0100
0001
0000
1000
,
0010
0000
1000
0100
0000
0010
0001
0000
0100
0010
0000
0100
,
0010
0000
1000
0010
0000
0100
0001
0000
0010
0001
0000
1000
,
0100
0000
0010
0001
1000
0001
1000
0001
2000
0002
0000
0000
,
0000
0000
0000
0000
0000
0000
3003
0000
0000
1000
0100
1000
,
0100
0000
0000
1000
0010
0100
0001
0000
0000
2002
0000
0000
,
0000
0000
3003
0100
,
1001
0000
1001
0000
1000
0100
0020
0000
0000
0031
0000
0001
,
0100
0000
0100
0010
0000
0010
1000
0000
1000
0100
0000
0100
,
0010
0000
0010
0001
0000
0001
1000
0000
1000
0001
0000
0001
,
0100
0000
0100
1000
0000
1000
0100
0000
0100
0001
0000
0001
,
0010
0000
0010
0100
0000
0100
1000
0001
2000
0002
0000
0000
,
0000
3003
0000
0000
;

//---------------dance-single - ----------------
#NOTES:
     dance-single:
     :
     Medium:
     7:
     0.602946,0.559837,0.555580,0.331556,0.112012,372.000000,62.000000,37.000000,0.000000,0.000000,0.000000,0.602946,0.559837,0.555580,0.331556,0.112012,372.000000,62.000000,37.000000,0.000000,0.000000,0.000000:
0000
0000
0000
0000
,
0000
0000
0000
0000
,
0000
0000
0000
0000
,
0000
0001
0010
0100
1000
0001
1000
0000
,
1001
0000
0002
0000
0103
0020
0000
0000
,
1030
0000
2000
0000
3100
0020
0000
0000
,
0031
0000
0002
0000
0013
0200
0000
0000
,
1300
0000
2000
0000
3010
0200
0000
0300
,
0101
0000
0002
0000
1003
0200
0000
0000
,
1300
0000
0002
0000
1003
0020
0000
0000
,
1030
0000
0200
0000
1300
0020
0000
0000
,
1030
0000
0001
0100
0010
1000
0001
0000
,
2002
0000
0000
3003
,
0002
2000
0000
0000
0000
0000
3003
0000
,
0100
0020
0200
0000
0000
0000
0330
0000
,
1001
0000
0000
0110
0000
0000
0001
1000
,
0001
0000
1000
0010
0000
0100
0000
0001
,
0000
1000
0100
0010
0001
0000
1000
0001
,
0100
0000
0010
1000
0000
0001
0010
0100
,
1000
0000
0001
0100
0000
0010
1000
0001
,
1000
0000
0100
0010
0000
0100
0000
1000
,
0000
0001
0100
0010
1000
0000
0001
1000
,
0100
0000
0010
0001
0000
1000
0010
0100
,
0001
0000
1001
0000
1000
0100
0010
0001
,
1000
0100
0000
0001
0100
0000
1001
0000
,
0101
0000
0001
0100
0010
0000
0010
1000
,
0001
0000
0001
1000
0100
0000
0110
0000
,
1100
0000
1000
0100
0010
0000
0010
0001
,
1000
0000
0010
0100
0010
0000
1001
0000
,
1010
0000
0010
1000
0001
0000
0001
1000
,
0100
0000
0100
0010
0001
0000
1001
0000
,
0011
0000
0010
0001
1000
0000
0010
0100
,
0010
0000
1000
0001
0000
0001
1000
0000
,
1100
0000
0010
0001
0000
0001
0100
0000
,
0101
0000
0010
1000
0000
1000
0100
0000
,
1001
0000
0001
1000
0001
0000
0100
0010
,
0100
0000
0001
1000
0100
0000
0010
0001
,
0100
0000
0100
0001
0010
0000
0100
1000
,
0010
0000
0010
1000
0100
0000
1000
0001
,
0100
0000
0001
1000
0100
0000
0010
0000
,
1001
0000
0001
0100
0000
0010
1000
0000
,
1001
0000
0001
0010
0000
0010
0001
0000
,
1001
0000
1000
0010
0000
0010
1000
0100
,
0010
0000
0001
0010
0100
0000
1000
0000
,
1001
0000
0001
0010
0100
1000
0002
0000
,
1003
0000
1001
0000
0001
0100
0000
0100
,
0001
1001
0010
1001
,
1000
0110
0001
2000
,
0001
0001
3001
2001
,
0000
0000
0000
3200
,
0000
0000
0300
1002
,
0000
0000
0000
0203
,
0000
0000
0010
0320
,
0000
0000
0000
2030
,
0000
0000
0000
3001
,
0000
1000
0000
0001
,
0000
0200
0300
1001
,
0000
0101
0000
1010
,
0000
1001
0000
1100
,
0000
0110
0000
0011
,
0000
0110
0000
1100
,
1000
1001
0001
0101
,
0100
0110
0010
1001
,
0100
1001
0010
2002
,
0000
0000
3003
1001
,
0001
0100
0100
0010
,
0010
0000
1000
0001
0000
1000
0001
0000
0000
1000
0000
0000
,
0100
0010
0001
0100
,
0100
0000
0001
1000
0000
1000
0001
0000
0000
1001
0000
0000
,
1000
0100
0100
0010
,
0010
0000
0001
1000
0000
0001
1000
0000
0000
0001
0000
0000
,
0100
0000
0000
0010
0000
0000
1000
0000
0000
1001
0000
1001
,
0000
0000
0000
1000
0000
0100
0000
0010
0000
0001
0000
0000
,
0100
1000
0100
0001
,
0010
0000
0100
0010
0000
0010
0100
0000
0000
1000
0000
0000
,
0010
0001
0010
1000
,
0100
0000
0010
0001
0000
0001
1000
0000
0000
1001
0000
0000
,
0001
0100
1000
0100
,
0010
0000
1000
0001
0000
0001
1000
0000
0000
0100
0000
0000
,
0001
0100
1000
0010
,
0100
0000
0001
1000
0000
1000
0001
0000
0000
2002
0000
0000
,
0000
0000
3003
0100
,
1001
0000
0000
0001
1000
0001
1000
0000
0000
2002
0000
0000
,
0000
0000
3003
0010
,
1001
0000
1001
0000
1000
0000
0001
0000
0000
1001
0000
0000
,
0001
1100
1000
0101
,
0001
1100
1000
1010
,
0101
0011
1100
0101
,
1001
0000
0000
1000
0001
1000
0001
1000
0002
2000
0000
0000
,
0000
3003
0000
0000
;

//---------------dance-single - ----------------
#NOTES:
     dance-single:
     :
     Easy:
     5:
     0.451889,0.439872,0.421166,0.224024,0.000000,281.000000,47.000000,25.000000,0.000000,0.000000,0.000000,0.451889,0.439872,0.421166,0.224024,0.000000,281.000000,47.000000,25.000000,0.000000,0.000000,0.000000:
0000
0000
0000
0000
,
0000
0000
0000
0000
,
0000
0000
0000
0000
,
0000
1000
0100
0010
,
1001
0001
0100
0000
,
0001
1000
0100
0000
,
1000
0001
0010
0000
,
0001
1000
0010
0000
,
1001
1000
0100
0000
,
0010
0001
0100
0000
,
0010
1000
0100
0000
,
1001
0001
1000
0100
,
2002
0000
0000
3003
,
0220
0000
0000
0330
,
1001
2002
0000
3003
,
1001
0000
0000
1001
0000
0000
0001
0000
,
1000
0100
0010
0001
,
0100
0010
0100
0001
,
1000
0100
0001
0100
,
1000
0010
0100
0001
,
1000
0001
0010
0001
,
0100
0010
1000
0001
,
0100
1000
0100
0001
,
0010
0100
1000
0001
,
1001
0000
0000
1001
0000
0000
1001
0000
,
0001
0100
0100
0010
,
0010
1000
1000
0100
,
0100
0010
0010
0001
,
0001
1000
0001
0100
,
0100
0010
0010
1000
,
1000
0001
0001
1000
,
1000
0100
0100
0010
,
0001
0110
0000
1000
,
1001
1000
1010
1000
,
1001
0001
0011
0001
,
1000
0001
1000
0010
,
1001
0100
0010
0001
,
0001
1000
1000
0010
,
0010
1000
1000
0100
,
0100
0010
0010
0001
,
1001
0100
0100
0010
,
1001
0001
0101
0010
,
1001
1000
1100
1000
,
1000
0001
0001
0100
,
0110
0010
1000
0002
,
0000
1000
0000
1003
,
0001
0020
0000
0230
,
0000
0310
0000
0002
,
1000
1000
1003
2001
,
0000
0000
0000
3200
,
0000
0000
0300
1002
,
0000
0000
0000
0203
,
0000
0000
0010
0320
,
0000
0000
0000
2030
,
0000
0000
0000
3001
,
0000
1000
0000
0001
,
0000
0200
0300
1001
,
0000
0101
0000
0110
,
0000
1010
0000
1001
,
0000
1100
0000
0110
,
0000
0011
0000
1001
,
0001
0100
0100
1000
,
1000
0010
0010
0001
,
0100
0010
1000
2002
,
0000
0000
3003
1001
,
0001
0100
0100
0010
,
0010
1000
1000
0100
,
0010
0001
0010
0100
,
1000
0001
0100
1001
,
1000
0010
0010
1000
,
1000
0001
0001
0100
,
0010
1000
0001
1001
,
0000
0100
0100
1001
,
0001
0100
0010
1000
,
0100
0010
0001
0100
,
1000
0100
0001
0010
,
0100
1000
0010
1000
,
0100
0010
0001
1000
,
0010
0100
0001
1000
,
0010
0001
0010
1000
,
0100
0010
0001
2002
,
0000
0000
3003
1000
,
0010
0100
0001
2002
,
0000
0000
3003
0001
,
0010
0100
1000
0001
,
0001
1000
1000
0010
,
0010
0100
0100
0001
,
0010
0100
1000
1001
,
0110
1001
0110
2002
,
0000
3003
0000
0000
;

//---------------dance-single - ----------------
#NOTES:
     dance-single:
     :
     Beginner:
     2:
     0.236826,0.319907,0.134415,0.053766,0.000000,164.000000,15.000000,6.000000,0.000000,0.000000,0.000000,0.236826,0.319907,0.134415,0.053766,0.000000,164.000000,15.000000,6.000000,0.000000,0.000000,0.000000:
// measure 0
0000
0000
0000
0000
,  // measure 1
0000
0000
0000
0000
,  // measure 2
0000
0000
0000
0000
,  // measure 3
0000
0000
0000
0000
,  // measure 4
1000
0000
1000
0000
,  // measure 5
0001
0000
0001
0000
,  // measure 6
1000
0000
1000
0000
,  // measure 7
0001
0000
0001
0000
,  // measure 8
0100
0000
0100
0000
,  // measure 9
0010
0000
0010
0000
,  // measure 10
0100
0000
0100
0000
,  // measure 11
0001
0000
1000
0000
,  // measure 12
1001
0000
0000
0000
,  // measure 13
1001
0000
0000
0000
,  // measure 14
1001
1001
0000
0000
,  // measure 15
1001
0000
1001
0000
,  // measure 16
0001
0000
0100
0000
,  // measure 17
0010
0000
1000
0000
,  // measure 18
0100
0000
0010
0000
,  // measure 19
0001
0000
1000
0000
,  // measure 20
0001
0000
0100
0000
,  // measure 21
0010
0000
1000
0000
,  // measure 22
0001
0000
0010
0000
,  // measure 23
0100
0000
1000
0000
,  // measure 24
1001
0000
1001
0000
,  // measure 25
0001
0000
0001
0000
,  // measure 26
1000
0000
1000
0000
,  // measure 27
0010
0000
0010
0000
,  // measure 28
0100
0000
0001
0000
,  // measure 29
1000
0000
1000
0000
,  // measure 30
0100
0000
0100
0000
,  // measure 31
0010
0000
0010
0000
,  // measure 32
0001
0001
0000
1000
,  // measure 33
0000
1000
0000
0001
,  // measure 34
0000
0001
0000
0010
,  // measure 35
0000
0010
0000
0100
,  // measure 36
0000
1000
0000
0001
,  // measure 37
0001
0001
0000
0100
,  // measure 38
0100
0100
0000
0010
,  // measure 39
0010
0010
0000
1000
,  // measure 40
0000
0001
0000
1000
,  // measure 41
0000
1000
0000
0100
,  // measure 42
0000
0100
0000
0010
,  // measure 43
0010
0010
0000
0001
,  // measure 44
0000
1000
0000
0002
,  // measure 45
0000
0000
0000
0000
,  // measure 46
0000
0023
0000
0230
,  // measure 47
0000
0000
0000
2300
,  // measure 48
0000
0000
0000
3001
,  // measure 49
0000
0000
0000
0100
,  // measure 50
0000
0000
0000
0010
,  // measure 51
0000
0000
0000
1000
,  // measure 52
0000
0000
0000
0001
,  // measure 53
0000
0000
0000
1000
,  // measure 54
0000
0000
0000
0100
,  // measure 55
0000
0100
0000
0100
,  // measure 56
0000
0100
0000
1000
,  // measure 57
0000
1000
0000
0001
,  // measure 58
0000
0001
0000
1000
,  // measure 59
0000
1000
0000
0001
,  // measure 60
0000
0001
0000
0100
,  // measure 61
0000
0010
0000
0100
,  // measure 62
0000
0010
0000
0100
,  // measure 63
0000
0010
0000
1001
,  // measure 64
0000
0000
0000
1001
,  // measure 65
0000
1000
0000
0100
,  // measure 66
0000
0100
0000
0010
,  // measure 67
0010
0010
0000
0001
,  // measure 68
0000
0100
0000
0001
,  // measure 69
0000
0001
0000
0010
,  // measure 70
0000
0010
0000
0100
,  // measure 71
0100
0100
0000
1001
,  // measure 72
0000
0100
0000
1001
,  // measure 73
0000
1000
0000
0010
,  // measure 74
0000
0100
0000
0001
,  // measure 75
0001
0001
0000
0010
,  // measure 76
0000
0100
0000
0010
,  // measure 77
0000
0001
0000
0100
,  // measure 78
0000
0010
0000
1000
,  // measure 79
1000
1000
0000
0100
,  // measure 80
0000
0010
0000
1001
,  // measure 81
0000
0000
0000
1000
,  // measure 82
0000
0001
0000
1001
,  // measure 83
0000
0000
0000
0001
,  // measure 84
0000
1000
0000
0001
,  // measure 85
0000
0100
0000
0010
,  // measure 86
0000
1000
0000
0100
,  // measure 87
0000
0010
0000
0001
,  // measure 88
0000
0100
0000
2002
,  // measure 89
0000
3003
0000
0000
;
