#TITLE:For UltraPlayers;
#SUBTITLE:;
#ARTIST:cosMo@暴走P;
#TITLETRANSLIT:;
#SUBTITLETRANSLIT:;
#ARTISTTRANSLIT:cosMo@BousouP;
#CREDIT:;
#BANNER:[Round 12] - For UltraPlayers (brunobg24).png;
#JACKET:[Round 12] - For UltraPlayers (brunobg24)-jacket.png;
#BACKGROUND:[Round 12] - For UltraPlayers (brunobg24)-bg.png;
#LYRICSPATH:;
#CDTITLE:cdtitle.png;
#MUSIC:[Round 12] - For UltraPlayers (brunobg24).ogg;
#OFFSET:-0.012;
#SAMPLESTART:52.955;
#SAMPLELENGTH:10.179;
#SELECTABLE:YES;
#BPMS:0.000=201.000;
#STOPS:;
#BGCHANGES:;

//---------------dance-single - ----------------
#NOTES:
     dance-single:
     :
     Challenge:
     13:
     1.000,1.000,0.383,0.275,1.000:
0000
0000
0000
0000
,
0000
0000
0000
0000
,
0000
0000
0000
0000
,
0000
0000
0000
0000
,
0000
0000
0000
0000
,
1000
0000
1000
0000
0001
0010
0100
0010
0001
0000
0001
0000
1000
0010
0100
0010
,
1000
0000
1000
0000
0001
0100
0010
0100
0001
0000
0001
0000
1000
0100
0010
0100
,
1000
0000
1000
0000
0001
0010
0100
1000
0010
0000
0010
0000
1000
0010
0100
0001
,
0010
0000
0010
0000
0001
0100
0010
1000
0100
0000
0100
0000
1000
0100
0010
0001
,
0200
0000
0000
0000
,
0300
0000
0001
0000
1000
0000
0100
0000
0010
0000
0001
0100
0001
0100
0010
1000
,
0010
0100
1000
0100
0001
1000
0100
0010
,
0001
0010
1000
0010
0001
0100
0010
1000
,
0001
0000
0000
0000
0000
0000
1000
0000
0000
0010
0000
0000
1000
0000
0000
0000
0000
0000
0001
0000
0000
0000
0000
0000
0010
0000
0000
0000
0000
0000
0001
0000
0000
1000
0000
0000
0001
0000
0000
0000
0100
0000
0000
0000
0010
0000
0000
0000
,
1000
0100
1000
0001
0100
0001
1000
0010
1000
0001
0010
0001
,
0000
1000
0100
1000
0100
0010
0001
0100
,
0010
0000
0000
0000
0220
0000
0000
0000
0330
0000
0001
1000
0001
0000
0100
0000
,
0001
0010
0100
1000
0001
0100
0010
1000
,
0100
0000
0000
0010
0000
0000
0100
0000
0000
0010
0000
0000
0001
0000
0000
1000
0000
0000
0001
0000
0000
1000
0000
0000
0001
0000
0000
0000
0010
0000
0000
0000
0100
0000
0000
0000
1000
0000
0000
0000
0100
0000
0000
0000
0010
0000
0000
0000
,
0001
0100
1000
0100
0010
1000
0100
0010
,
0100
1000
0001
0010
0100
0001
0100
1000
,
0010
0000
0000
0000
0000
0000
1000
0000
0000
0010
0000
0000
1000
0000
0000
0000
0000
0000
0001
0000
0000
0000
0000
0000
0010
0000
0000
0000
0000
0000
0001
0000
0000
1000
0000
0000
0001
0000
0000
0000
0010
0000
0000
0000
0100
0000
0000
0000
,
1000
0010
1000
0001
0100
0001
1000
0100
1000
0001
0010
0001
,
0000
1000
0100
0010
0100
0001
0100
1000
,
0010
0000
0000
0000
0202
0000
0000
0000
0303
0000
0001
0010
0001
0000
0100
0000
,
0010
0000
1000
0100
1000
0000
0010
0000
0001
0000
0010
0000
0100
0000
0010
0000
,
1000
0010
1000
0010
0100
0001
0100
0001
0010
0100
0010
0100
1000
0001
1000
0001
,
0100
0000
0100
0000
0001
0100
1000
0100
0010
0000
0010
0000
1000
0100
0001
0100
,
0010
0000
0010
0000
0001
0100
0010
1000
0100
0000
0100
0000
1000
0100
0010
0001
,
0100
0000
0100
0000
0001
1000
0010
1000
0001
0000
0001
0000
1000
0001
0100
0001
,
1000
0000
1000
0000
0001
0010
0100
1000
0001
0000
0001
0000
1000
0010
1000
0010
,
1000
0100
1000
0100
0010
0001
0010
0001
0000
0100
0000
0010
1000
0010
1000
0001
,
0100
0000
0001
0010
0001
0010
0100
1000
0100
0010
0100
0010
0001
0100
0001
0100
,
0010
1000
0010
1000
0001
0100
0001
0100
0001
0010
0100
1000
0010
0100
0001
1000
,
0001
0000
0000
1001
0000
0000
1010
0000
0011
0000
0000
0000
1000
0100
0010
0001
,
0100
0001
1000
0100
0010
0001
1000
0010
,
0100
1000
0100
0001
0010
1000
0010
0001
,
1000
0100
0010
0001
0100
0010
1000
0001
,
1000
0000
0000
0001
0010
0100
1000
0000
0000
0001
0000
0000
,
0110
0000
0000
1000
0010
0100
0001
0000
0000
0100
0000
0000
,
0110
0000
0000
0010
0000
1000
0001
0000
0000
0010
0000
0100
,
1000
0000
0001
0100
0001
0100
0010
1000
0010
0000
0100
0000
1000
0000
0100
0000
,
0001
0000
0000
0000
1000
0010
1000
0010
0100
0000
0000
0000
0001
0000
0000
0000
,
1000
0100
1000
0100
1000
0100
1000
0100
1000
0100
1000
0100
,
2000
0000
0000
0000
0000
0000
3001
0010
0001
0000
0100
0000
1000
0000
0100
0000
,
0001
0000
0000
1100
0000
0000
1002
0000
0000
0000
0003
0000
1000
0100
0010
0001
,
0100
0000
0000
1010
0000
0000
0120
0000
0000
0000
1030
0000
0010
0000
0100
0000
,
0010
0000
0000
1001
0000
0000
0001
0000
0010
0000
0000
0110
0000
0000
1000
0000
,
0002
0000
1003
1010
,
0100
0000
0000
0101
0000
0000
2010
0000
0000
0000
3001
0000
0010
0000
0100
0000
,
1000
0000
0010
0100
0001
0000
0000
0000
0100
0000
0001
0000
1000
0000
0010
0000
,
1000
0000
0000
0100
0000
0000
0001
0000
1000
0000
0000
0010
0000
0000
0001
0000
,
1000
0000
0000
0001
0000
0000
0100
0000
0020
0000
0000
0230
0000
0000
0301
0000
,
1000
0000
0000
0001
0000
0000
2001
0000
0000
0000
3000
0000
0001
0010
0100
1000
,
0010
0000
0000
0100
0000
0000
0120
0000
0000
0000
1030
0000
0100
0000
0010
0000
,
0001
0000
0000
0100
0000
0000
1000
0000
0001
0000
0000
0010
0000
0000
1000
0000
,
0020
0000
0130
0001
,
1010
0000
0000
0101
0000
0000
0000
0000
0001
0100
0001
0100
0010
1000
0010
1000
,
0100
0000
0000
1001
0000
0000
0000
0000
1000
0100
1000
0100
0010
0001
0010
0001
,
0010
0100
0010
0100
1000
0001
1000
0001
0010
0100
0010
0001
1000
0010
0100
0010
,
1000
0100
1000
0010
0100
0001
0010
0001
0010
0100
1000
0010
0100
0001
0100
0001
,
2000
0000
0100
0000
,
0010
0000
0001
0000
,
0010
0000
0100
0000
,
0010
0000
0001
3000
,
1002
0000
0010
0000
,
0100
0000
1000
0003
,
0210
0000
0001
0300
,
0120
0000
1000
0030
,
1000
0100
0010
0100
1000
0001
0100
0010
0100
0001
1000
0100
,
0010
0001
0010
0100
1000
0010
1000
0001
0010
0001
0100
0010
,
1000
0010
0100
0001
0010
0100
1000
0001
0010
0100
0001
0100
,
1000
0010
0100
1000
0100
0001
1000
0010
1000
0001
0010
0001
,
0200
0000
0000
0000
0301
0010
0001
1000
0001
0100
0001
0100
0010
1000
0010
1000
,
0100
0010
0100
0010
0001
1000
0001
1000
0010
1000
0010
1000
0100
0010
0100
1000
,
0001
0100
0010
1000
0100
0010
0001
1000
0001
0100
0010
0100
0001
0010
0100
1000
,
0020
0000
0000
0000
0000
0000
1030
0100
1000
0000
0001
0000
0010
0000
0100
0000
,
2000
0002
0000
0000
0000
0000
3003
0000
1000
0010
1000
0010
1000
0100
0010
0001
,
0100
0000
0000
0110
0000
0000
2010
0000
0000
0000
3000
0000
0001
0100
0010
1000
,
0100
0000
0000
0110
0000
0000
0012
0000
0000
0000
1003
0000
0100
0000
0010
0000
,
0001
0000
0000
1001
0000
0000
1000
0000
0010
0000
0000
0110
0000
0000
0010
0000
,
2000
0000
3001
0101
,
1000
0000
0000
1100
0000
0000
1010
0000
0000
0000
0001
0000
0100
0000
0010
0000
,
1000
0000
0100
0010
0001
0000
0000
0000
1000
0000
0010
0000
0001
0000
0010
0000
,
1000
0000
0000
1001
0000
0000
0001
0000
0100
0000
0000
0110
0000
0000
1000
0000
,
0100
0000
0000
0011
0000
0000
0001
0000
0100
0000
0000
0000
0001
0010
0100
1000
,
0010
0000
0000
1010
0000
0000
1002
0000
0000
0000
0003
0000
1000
0100
0010
0001
,
0100
0000
0000
0110
0000
0000
0201
0000
0000
0000
0310
0000
1000
0000
0001
0000
,
0100
0000
0000
0101
0000
0000
0010
0000
0001
0000
0000
1001
0000
0000
0010
0000
,
2000
0000
3010
0110
,
1000
0000
0000
1001
0000
0000
0000
0000
0001
0010
0001
0010
0100
1000
0100
1000
,
0001
0000
0000
1001
0000
0000
0000
0000
1000
0010
1000
0010
0100
0001
0100
0001
,
1000
0100
0010
0001
0100
0010
1000
0001
0010
1000
0010
0001
1000
0100
0001
0100
,
1000
0100
0010
1000
0010
0001
1000
0010
0100
1000
0100
0001
,
0020
0000
0001
0000
,
0000
0000
1000
0030
,
0200
0000
1000
0000
,
0000
0000
0001
0300
,
2002
0000
3003
0000
;

//---------------dance-single - ----------------
#NOTES:
     dance-single:
     :
     Hard:
     10:
     0.818,0.944,0.183,0.258,0.633:
0000
0000
0000
0000
,
0000
0000
0000
0000
,
0000
0000
0000
0000
,
0000
0000
0000
0000
,
0000
0000
0000
0000
,
1000
0000
1000
0000
0001
0100
0001
0000
0010
0000
0010
0000
0100
1000
0100
1000
,
0001
0000
0001
0000
1000
0100
1000
0000
0010
0000
0010
0000
0100
0001
0100
0001
,
1000
0000
1000
0000
0010
0100
0010
0000
0100
0000
0100
0000
0010
1000
0010
1000
,
0001
0000
0001
0000
0010
0100
0010
0000
0100
0000
0100
0000
0010
0001
0010
0001
,
2000
0000
0000
0000
,
3000
0000
0001
0000
0010
0000
0100
0000
1000
0000
0010
0100
0010
0100
0010
0100
,
0010
1000
0100
0010
0001
0100
0010
1000
,
0001
0010
0100
0010
0001
0100
1000
0100
,
0001
0000
0000
0000
0000
0000
1000
0000
0000
0010
0000
0000
1000
0000
0000
0000
0000
0000
0100
0000
0000
0000
0000
0000
0010
0000
0000
0000
0000
0000
0001
0000
0000
0100
0000
0000
0001
0000
0000
0000
1000
0000
0000
0000
0001
0000
0000
0000
,
1000
0100
1000
0001
0010
0001
1000
0010
1000
0001
0100
0001
,
0000
1000
0100
0010
0001
0100
0010
1000
,
0001
0000
0000
0000
2002
0000
0000
0000
3003
0000
0100
0010
0100
0000
0001
0000
,
1000
0010
0100
0010
1000
0100
0001
0100
,
1000
0000
0000
0001
0000
0000
1000
0000
0000
0001
0000
0000
1000
0000
0100
0000
0010
0000
0001
0000
0100
0000
0010
0000
,
1000
0001
0010
0100
1000
0010
0001
0010
,
0100
0001
1000
0100
0010
0100
1000
0001
,
1000
0000
0000
0000
0000
0000
0010
0000
0000
0100
0000
0000
0010
0000
0000
0000
0000
0000
1000
0000
0000
0000
0000
0000
0001
0000
0000
0000
0000
0000
0010
0000
0000
0100
0000
0000
0010
0000
0000
0000
0001
0000
0000
0000
1000
0000
0000
0000
,
0001
0100
0001
1000
0010
1000
0001
0010
0001
1000
0100
1000
,
0000
0001
0100
0010
1000
0100
0010
0001
,
1000
0000
0000
0000
2002
0000
0000
0000
3003
0000
1000
0100
1000
0000
0010
0000
,
0100
0000
0001
0010
0001
0000
0010
0000
0100
0000
1000
0000
0001
0000
0100
0000
,
0001
0000
0010
0000
0001
0000
0010
0000
0100
0000
1000
0000
0010
0100
0010
0100
,
0010
0000
0010
0000
1000
0100
1000
0000
0001
0000
0001
0000
0010
0100
0010
0100
,
0010
0000
0010
0000
0001
0100
0001
0000
1000
0000
1000
0000
0010
0100
0010
0100
,
0001
0000
0001
0000
1000
0100
1000
0000
0100
0000
0100
0000
0010
0001
0010
0001
,
1000
0000
1000
0000
0001
0100
0001
0000
0100
0000
0100
0000
0010
1000
0010
1000
,
0010
0100
1000
0100
0001
1000
0100
0001
,
0100
0000
1000
0100
0010
0001
0100
0010
,
1000
0100
0010
0100
0001
0100
0010
0100
,
1000
0000
0000
1001
0000
0000
0011
0000
0101
0000
0000
0000
1000
0100
1000
0100
,
1000
0010
0001
0010
0100
0010
0001
0010
,
1000
0100
0010
0100
1000
0100
0001
0100
,
1000
0001
0010
0100
1000
0010
0100
0001
,
0010
0000
0000
0001
1000
0001
1000
0000
0000
0001
0000
0000
,
0110
0000
0000
1000
0100
0010
0001
0000
0000
1000
0000
0000
,
1100
0000
0000
0001
0000
0100
0010
0000
0000
0100
0000
0001
,
0010
0000
0000
0000
0100
1000
0100
1000
0100
0000
0010
0000
0001
0000
0010
0000
,
0100
0000
0000
0000
1000
0010
1000
0010
1000
0000
0000
0000
0001
0000
0000
0000
,
0220
0000
0000
0000
,
0330
0000
0000
0000
0000
0000
1000
0001
1000
0000
0010
0000
0100
0000
0001
0000
,
1000
0000
0000
0010
0000
0000
0120
0000
0000
0000
0030
0000
0100
0001
0100
0001
,
0100
0000
0000
0010
0000
0000
2010
0000
0000
0000
3001
0000
0010
0000
0100
0000
,
1000
0000
0000
0100
0000
0000
0001
0000
1000
0000
0000
0010
0000
0000
0001
0000
,
0200
0000
0310
1001
,
0001
0000
0000
0100
0000
0000
0110
0000
0000
0000
0010
0000
1000
0000
0010
0000
,
0100
0000
0001
1000
0001
0000
0000
0000
0010
0000
0001
0000
1000
0000
0100
0000
,
0010
0000
0000
0100
0000
0000
0001
0000
0100
0000
0000
0010
0000
0000
0001
0000
,
1000
0000
0000
0010
0000
0000
0001
0000
0020
0000
0000
2030
0000
0000
3001
0000
,
0100
0000
0000
0010
0000
0000
0120
0000
0000
0000
0030
0000
1000
0001
1000
0001
,
1000
0000
0000
0001
0000
0000
0201
0000
0000
0000
0310
0000
1000
0000
0001
0000
,
1000
0000
0000
0010
0000
0000
0001
0000
1000
0000
0000
0100
0000
0000
0001
0000
,
0020
0000
0130
1100
,
0001
0000
0000
1000
0000
0000
0000
0000
0001
0000
0010
0000
0100
1000
0100
0000
,
1000
0000
0000
0001
0000
0000
0000
0000
1000
0000
0010
0000
0100
0001
0100
0000
,
0010
1000
0010
0001
0010
0100
0001
0010
,
0100
1000
0100
0001
0100
1000
0010
0001
,
0020
0000
1000
0000
,
0001
0000
0100
0000
,
1000
0000
0100
0000
,
0001
0000
0100
0000
,
2030
0000
0001
0000
,
0010
0000
0100
0000
,
3002
0000
1000
0000
,
0203
0000
0010
0300
,
0001
0010
0001
0010
0000
0010
0100
0000
0100
1000
0000
1000
,
0010
0000
0010
0100
0000
0100
0001
0010
0001
1000
0010
1000
,
0100
0010
0100
0010
0000
0010
0001
0000
0001
0100
0000
0100
,
0010
0000
0010
1000
0000
1000
0001
0100
0001
1000
0100
1000
,
0020
0000
1030
0100
0010
1000
0010
0001
,
1000
0010
0100
1000
0100
0001
0010
0100
,
0001
0100
1000
0001
0100
0010
0001
0010
,
2000
0000
0000
0000
0000
0000
3001
0100
0001
0000
0010
0000
0100
0000
1000
0000
,
0020
0000
0000
0000
0000
0000
0000
0000
0000
0000
0000
0000
1030
0100
1000
0100
,
1000
0000
0000
0001
0000
0000
0201
0000
0000
0000
0300
0000
0010
1000
0010
1000
,
0010
0000
0000
0100
0000
0000
1002
0000
0000
0000
1003
0000
0100
0000
0010
0000
,
0001
0000
0000
0010
0000
0000
1000
0000
0001
0000
0000
0100
0000
0000
1000
0000
,
0020
0000
1030
1100
,
0010
0000
0000
0001
0000
0000
0101
0000
0000
0000
1000
0000
0100
0000
0010
0000
,
0001
0000
0100
0001
0100
0000
0000
0000
0001
0000
0100
0000
0010
0000
1000
0000
,
0001
0000
0000
0100
0000
0000
1000
0000
0001
0000
0000
0010
0000
0000
1000
0000
,
0100
0000
0000
0010
0000
0000
0001
0000
1000
0000
0000
0000
0001
0100
0001
0100
,
0001
0000
0000
1000
0000
0000
1020
0000
0000
0000
0030
0000
1000
0100
1000
0100
,
1000
0000
0000
0001
0000
0000
0201
0000
0000
0000
0310
0000
1000
0000
0100
0000
,
0010
0000
0000
0001
0000
0000
0010
0000
1000
0000
0000
0010
0000
0000
0100
0000
,
0020
0000
0031
1001
,
1000
0000
0000
0001
0000
0000
0000
0000
1000
0000
0010
0000
0100
0001
0100
0000
,
0001
0000
0000
1000
0000
0000
0000
0000
0001
0000
0010
0000
0100
1000
0100
0000
,
1000
0010
0001
1000
0100
0010
1000
0100
,
0010
0001
0100
0010
1000
0001
1000
0100
1000
0001
0100
0001
,
0020
0000
0000
0000
,
0000
0000
0000
0000
,
0230
0000
0000
0000
,
0000
0000
0000
0000
,
2300
0000
3000
0000
;

//---------------dance-single - ----------------
#NOTES:
     dance-single:
     :
     Medium:
     8:
     0.595,0.698,0.092,0.333,0.200:
0000
0000
0000
0000
,
0000
0000
0000
0000
,
0000
0000
0000
0000
,
0000
0000
0000
0000
,
0000
0000
0000
0000
,
1000
1000
0000
0000
0001
0001
0000
0000
,
0100
0100
0000
0000
0010
0010
0000
0000
,
1000
1000
0000
0000
0100
0100
0000
0000
,
0010
0010
0000
0000
0001
0001
0000
0000
,
2002
0000
0000
0000
,
3003
0001
0010
0100
1000
0010
0100
0001
,
0010
0000
0001
0000
1000
0010
1000
0001
,
0100
0000
0010
0000
1000
0100
0010
0100
,
1000
0000
0000
1000
0001
0000
0000
0000
0001
0000
0000
0001
0100
0000
0010
0000
,
1000
0000
0000
0000
1000
0000
0100
0000
0000
0000
0100
0000
0010
0000
0000
0000
0010
0000
0001
0000
0000
1000
0000
0000
,
0000
0001
0010
0100
1000
0100
0010
0001
,
0100
0000
0110
0000
0000
1000
0100
1000
,
0001
0000
0100
0000
0001
0010
0100
1000
,
0001
0000
0000
0001
0000
0000
1000
0000
1000
0010
0000
0010
,
0100
0001
0100
0000
0010
0000
1000
0100
,
0010
0000
0100
0000
1000
0001
0010
0001
,
0100
0000
0000
0100
0010
0000
0000
0000
0010
0000
0000
0010
0100
0000
0001
0000
,
1000
0000
0000
0000
1000
0000
0010
0000
0000
0000
0010
0000
0100
0000
0000
0000
0100
0000
0001
0000
0000
0010
0000
0000
,
0000
0001
0100
0010
1000
0010
0100
0001
,
1000
0000
1001
0000
0000
1000
0010
1000
,
0001
0000
0001
0000
1000
0100
0010
0100
,
1000
0001
1000
0001
0100
0010
0100
0010
,
0100
0100
0000
0000
0001
0001
0000
0000
,
0010
0010
0000
0000
0100
0100
0000
0000
,
1000
1000
0000
0000
0010
0010
0000
0000
,
0100
0100
0000
0000
0001
0001
0000
0000
,
1000
1000
0000
0000
0010
0010
0000
0000
,
0001
0001
0000
0000
0010
0010
0000
0000
,
0100
0100
0000
0000
0001
0001
0000
0000
,
1000
0000
0000
0010
0000
0000
0100
0000
0110
0000
0000
0000
0001
0000
1000
0000
,
0001
0010
1000
0010
,
0001
0100
1000
0100
,
0001
0010
0100
0010
0001
0000
1000
0010
,
1000
0000
0001
1000
0001
0000
0100
0000
,
0110
0000
1000
0100
0010
0000
0001
0000
,
0101
0000
0000
0100
0000
0010
1000
0000
0000
0001
0000
0100
,
0020
0000
0000
1030
0100
0000
0010
0000
,
0002
0000
0000
1003
0010
0000
0100
0000
,
0220
0000
0000
0000
,
0330
0000
0000
1000
0001
1000
0100
0010
,
0001
0000
0000
0001
0000
0000
2000
0000
0000
0000
3000
0000
0010
0000
1000
0000
,
0100
0000
0000
0100
0000
0000
0020
0000
0000
0000
0031
0000
1000
0000
0010
0000
,
0100
0000
0000
0001
0000
0000
0010
0000
0100
0000
0000
1000
0000
0000
0010
0000
,
0200
0000
0301
1001
,
1000
0000
0000
0010
0000
0000
0100
0000
0000
0000
0001
0000
1000
0000
0001
0000
,
1000
0100
0010
0000
0100
1000
0010
0100
,
0001
0000
0000
0010
0000
0000
0100
0000
0010
0000
0000
0001
0000
0000
1000
0000
,
0010
0000
0000
0100
0000
0000
0010
0000
2000
0000
0000
3200
0000
0000
0310
0000
,
0001
0000
0000
0001
0000
0000
2000
0000
0000
0000
3000
0000
0100
0000
0001
0000
,
0100
0000
0000
0100
0000
0000
0020
0000
0000
0000
0031
0000
0100
0000
0010
0000
,
1000
0000
0000
0100
0000
0000
0001
0000
0100
0000
0000
1000
0000
0000
0010
0000
,
2000
0000
3100
0110
,
1000
0000
0000
0001
0000
0000
0000
0000
0001
0000
0010
0000
0001
0000
0010
0000
,
0100
0000
0000
1000
0000
0000
0000
0000
1000
0000
0010
0000
1000
0000
0010
0000
,
1000
0100
0010
0001
,
1000
0010
1000
0010
0100
0001
0100
0001
,
0020
0000
0000
0000
,
0001
0000
0000
0000
,
0100
0000
0000
0000
,
1000
0000
0000
0000
,
0230
0000
0000
0000
,
0001
0000
0000
0000
,
2300
0000
0000
0000
,
3020
0000
0000
0000
,
1030
0100
0010
0000
0001
0100
0010
0000
,
1000
0010
0100
0000
0001
0010
0100
1000
,
0001
0100
0010
0000
1000
0100
0010
0000
,
0001
0010
0100
1000
0010
0100
0001
1000
,
0002
0000
1003
0010
0100
0010
0100
0010
,
2000
3200
0320
0032
,
0203
0320
2030
3002
,
0203
0000
0000
0310
1000
0010
1000
0100
,
0020
0000
0000
0000
0000
0000
0031
1000
,
0001
0000
0000
0001
0000
0000
0200
0000
0000
0000
0300
0000
0010
0000
1000
0000
,
0100
0000
0000
0100
0000
0000
0020
0000
0000
0000
0031
0000
1000
0000
0100
0000
,
0010
0000
0000
0001
0000
0000
0100
0000
1000
0000
0000
0100
0000
0000
0001
0000
,
0020
0000
0130
1100
,
1000
0000
0000
0010
0000
0000
0100
0000
0000
0000
0001
0000
0010
0000
0100
0000
,
0010
0001
1000
0000
0001
0100
0001
0100
,
0001
0000
0000
0010
0000
0000
0001
0000
1000
0000
0000
0010
0000
0000
1000
0000
,
0001
0000
0000
0100
0000
0000
0001
0000
1000
0000
0000
0000
0010
0000
0100
0000
,
0010
0000
0000
0010
0000
0000
2000
0000
0000
0000
3000
0000
0100
0000
1000
0000
,
0001
0000
0000
0001
0000
0000
0200
0000
0000
0000
0301
0000
0010
0000
0100
0000
,
1000
0000
0000
0010
0000
0000
0100
0000
0001
0000
0000
0100
0000
0000
0010
0000
,
2000
0000
3001
0101
,
0010
0000
0000
0001
0000
0000
0000
0000
0001
0000
1000
0000
0001
0000
1000
0000
,
0010
0000
0000
0100
0000
0000
0000
0000
0100
0000
0001
0000
0100
0000
0001
0000
,
0020
0000
0230
0000
1300
0010
0100
0001
,
0010
0000
0010
0001
0000
0001
1000
0000
1000
0100
0000
0100
,
0020
0000
0000
0000
,
0000
0000
0000
0000
,
0230
0000
0000
0000
,
0000
0000
0000
0000
,
2300
0000
3000
0000
;

//---------------dance-single - ----------------
#NOTES:
     dance-single:
     :
     Easy:
     5:
     0.437,0.531,0.233,0.158,0.004:
0000
0000
0000
0000
,
0000
0000
0000
0000
,
0000
0000
0000
0000
,
0000
0000
0000
0000
,
0000
0000
0000
0000
,
1001
0000
0110
0000
,
1001
0000
0110
0000
,
1100
0000
0011
0000
,
1010
0000
0101
0000
,
2002
0000
0000
0000
,
3003
0000
0000
0000
,
1000
0100
0010
0100
,
1000
0010
0100
0010
,
1000
0001
0010
0100
,
1000
0001
1000
0001
0010
0100
0010
0100
,
0000
0010
0001
0010
,
0100
1001
0000
0001
,
1000
0010
0100
0001
,
1000
0010
1000
0010
1000
0001
1000
0001
,
1000
0001
0100
0001
,
1000
0001
0010
0001
,
1000
0100
0010
0001
,
1000
0001
1000
0001
0010
0100
0010
0100
,
0000
1000
0001
0010
,
0100
1001
0000
0001
,
1000
0100
0010
0100
,
1000
0010
1000
0010
1000
0001
1000
0001
,
0100
0000
1001
0000
,
0110
0000
1001
0000
,
0101
0000
1010
0000
,
1100
0000
0011
0000
,
1000
0100
0010
0100
,
1000
0001
0010
0100
,
1000
0001
0100
0010
,
0100
0000
0000
0100
0000
0000
0100
0000
0100
0000
0000
0000
0001
0000
0000
0000
,
1000
0100
0001
0100
,
1000
0010
0001
0010
,
1000
0100
0010
0001
,
0100
0000
0010
1000
0010
0000
1000
0000
,
1001
0000
0100
0010
0100
0000
0010
0000
,
0110
0001
0010
0100
,
2000
0000
3001
0100
,
0002
0000
1003
0100
,
0020
0000
0000
0000
,
0031
0000
0000
0000
1000
0001
1000
0001
,
1000
0000
0100
0000
0010
0000
0100
1000
,
0100
0000
0010
0000
0001
0000
1000
0001
,
1000
0010
0100
0001
,
0020
0000
0130
1000
,
0001
0100
0001
1000
,
0010
1000
0010
0000
0100
0000
0001
0000
,
0010
0100
1000
0100
,
0010
0001
2000
0000
,
3000
0000
0000
0001
0000
0000
1000
0010
,
1000
0000
0001
0000
0100
0000
0010
1000
,
0010
1000
0100
0010
,
0002
0000
0103
0010
,
1000
0000
1001
0000
0001
1000
0001
0000
,
1000
0000
1001
0000
1000
0001
1000
0000
,
1000
0010
0001
0010
,
1000
0100
0001
0100
,
2000
0000
0000
0000
,
0000
0000
0000
0000
,
0000
0000
3000
0000
,
0000
0000
0000
0000
,
0002
0000
0000
0000
,
0000
0000
0000
0000
,
0203
0000
0000
0000
,
0320
0000
2030
0000
,
3001
0000
0101
0000
,
1000
0000
1100
0000
,
0001
0000
0011
0000
,
1000
0000
1010
0001
,
1000
0001
0010
0100
,
0010
0001
1000
0010
,
0100
0010
1000
0001
,
2000
0000
0000
0000
3001
0100
0001
0100
,
0002
0000
0000
0000
0000
0000
1003
0100
,
1000
0000
0010
0000
0100
0000
0001
1000
,
0001
0000
0100
0000
0010
0000
1000
0010
,
1000
0100
0010
0001
,
0200
0000
0310
1000
,
0001
0100
0010
1000
,
0100
0010
0100
0000
0010
0000
0001
0000
,
1000
0001
0100
0010
,
1000
0000
0010
0000
0100
0000
0001
1000
,
0001
0000
0010
0000
0100
0000
1000
0001
,
1000
0000
0010
0000
0100
0000
0001
0010
,
0001
0010
0100
1000
,
0020
0000
1030
0001
,
0100
0000
0110
0000
0010
0100
0010
0000
,
0100
0000
0110
0000
0010
0100
0010
0000
,
1000
0100
0010
0001
,
1000
0010
0100
0001
,
2000
0000
0000
0000
,
0000
0000
0000
0000
,
3002
0000
0000
0000
,
0000
0000
0000
0000
,
0003
0000
0000
0000
;

//---------------dance-single - ----------------
#NOTES:
     dance-single:
     :
     Beginner:
     2:
     0.229,0.286,0.025,0.117,0.000: // measure 1
0000
0000
0000
0000
,  // measure 2
0000
0000
0000
0000
,  // measure 3
0000
0000
0000
0000
,  // measure 4
0000
0000
0000
0000
,  // measure 5
0000
0000
0000
0000
,  // measure 6
1000
0000
1000
0000
,  // measure 7
0001
0000
0001
0000
,  // measure 8
0100
0000
0100
0000
,  // measure 9
0010
0000
0010
0000
,  // measure 10
0000
0000
0000
0000
,  // measure 11
0000
0000
0000
0000
,  // measure 12
1000
0000
0001
0000
,  // measure 13
1000
0000
0010
0000
,  // measure 14
1000
0000
0100
0000
,  // measure 15
1000
0001
1000
0001
,  // measure 16
1000
0000
0010
0000
,  // measure 17
0100
0000
0001
0000
,  // measure 18
0010
0000
0100
0000
,  // measure 19
1000
0010
1000
0010
,  // measure 20
1000
0000
0001
0000
,  // measure 21
0100
0000
0010
0000
,  // measure 22
1000
0000
0100
0000
,  // measure 23
0010
0001
0010
0001
,  // measure 24
1000
0000
0010
0000
,  // measure 25
0100
0000
0010
0000
,  // measure 26
1000
0000
0001
0000
,  // measure 27
1000
0001
1000
0001
,  // measure 28
1000
0000
1000
0000
,  // measure 29
0010
0000
0010
0000
,  // measure 30
0100
0000
0100
0000
,  // measure 31
0001
0000
0001
0000
,  // measure 32
0010
0000
0010
0000
,  // measure 33
0100
0000
0100
0000
,  // measure 34
1000
0000
1000
0000
,  // measure 35
1001
0000
1001
0000
,  // measure 36
0100
0000
0001
0000
,  // measure 37
0010
0000
0100
0000
,  // measure 38
1000
0000
0001
0100
,  // measure 39
0002
0000
1003
0000
,  // measure 40
0010
0000
0010
0000
,  // measure 41
0100
0000
0100
0000
,  // measure 42
0002
0000
1003
0001
,  // measure 43
2000
0000
3001
1000
,  // measure 44
0002
0000
0000
0000
,  // measure 45
0003
0000
0000
0000
,  // measure 46
0100
0000
0100
0000
,  // measure 47
0010
0000
0010
0000
,  // measure 48
1000
0000
1000
0000
,  // measure 49
0001
0000
0001
0000
,  // measure 50
1000
0000
0010
0000
,  // measure 51
0100
0000
0001
0000
,  // measure 52
1000
0000
0100
0000
,  // measure 53
0010
0000
0002
0000
,  // measure 54
0003
1000
0000
0000
,  // measure 55
0010
0000
0010
0000
,  // measure 56
0100
0000
0100
0000
,  // measure 57
0001
0000
0001
0000
,  // measure 58
1000
1000
0000
0000
,  // measure 59
0010
0010
0000
0000
,  // measure 60
1000
0000
0001
0000
,  // measure 61
1000
0100
0010
0001
,  // measure 62
2000
0000
0000
0000
,  // measure 63
0000
0000
0000
0000
,  // measure 64
0000
0000
3000
0000
,  // measure 65
0000
0000
0000
0000
,  // measure 66
0020
0000
0000
0000
,  // measure 67
0000
0000
0000
0000
,  // measure 68
0230
0000
0000
0000
,  // measure 69
0302
0000
2003
0000
,  // measure 70
3001
0000
0001
0000
,  // measure 71
0100
0000
0100
0000
,  // measure 72
0010
0000
0010
0000
,  // measure 73
1000
0000
1000
0000
,  // measure 74
0001
0000
0100
0000
,  // measure 75
0010
0000
1000
0000
,  // measure 76
0100
0000
0010
0001
,  // measure 77
1000
0000
0000
0000
,  // measure 78
2002
0000
0000
3003
,  // measure 79
1000
0000
1000
0000
,  // measure 80
0010
0000
0010
0000
,  // measure 81
0100
0000
0100
0000
,  // measure 82
0001
0000
0001
0000
,  // measure 83
0010
0000
0100
0000
,  // measure 84
1000
0000
0010
0000
,  // measure 85
0100
0000
0001
0000
,  // measure 86
0000
0000
0100
0000
,  // measure 87
1000
0000
1000
0000
,  // measure 88
0100
0000
0100
0000
,  // measure 89
0010
0000
0010
0000
,  // measure 90
0001
0000
1000
0001
,  // measure 91
0100
0010
0000
0000
,  // measure 92
0010
0100
0000
0000
,  // measure 93
0001
0000
1000
0000
,  // measure 94
0001
0100
0010
1000
,  // measure 95
0002
0000
0000
0000
,  // measure 96
0000
0000
0000
0000
,  // measure 97
2000
0000
0000
0000
,  // measure 98
0000
0000
0000
0000
,  // measure 99
3003
0000
0000
0000
;
