#TITLE:Exogenesis;
#SUBTITLE:;
#ARTIST:Rogue;
#TITLETRANSLIT:;
#SUBTITLETRANSLIT:;
#ARTISTTRANSLIT:;
#GENRE:That's indeed a bad kitty;
#CREDIT:;
#BANNER:Exogenesis-bn.png;
#BACKGROUND:Exogenesis-bg.png;
#LYRICSPATH:;
#CDTITLE:loodeecdtitle.png;
#MUSIC:Exogenesis.ogg;
#OFFSET:-0.047;
#SAMPLESTART:30.886;
#SAMPLELENGTH:13.714;
#SELECTABLE:YES;
#DISPLAYBPM:140.000;
#BPMS:0.000=140.000,71.000=280.000,71.500=140.000,71.750=70.000,72.000=210.000,72.375=70.000,72.500=140.000,73.000=210.000,73.375=70.000,73.500=140.000,74.000=210.000,74.750=70.000,75.000=210.000,75.500=210.000,76.000=70.000,76.250=140.000,76.500=280.000,77.000=210.000,79.000=140.000,80.000=210.000,80.375=70.000,80.500=140.000,81.000=210.000,81.375=70.000,81.500=140.000,83.000=210.000,84.000=280.000,84.500=140.000,84.750=70.000,85.000=280.000,85.500=140.000,85.750=70.000,86.000=210.000,87.000=280.000,87.500=140.000,87.750=70.000,88.000=210.000,88.750=70.000,89.000=210.000,91.875=70.000,92.000=140.000,93.000=210.000,94.000=280.000,95.000=140.000,95.500=70.000,96.000=140.000,97.000=210.000,99.000=140.000,100.000=420.000,100.375=46.667,100.500=140.000,101.000=420.000,101.375=46.667,101.500=140.000,102.000=420.000,102.375=46.667,102.500=140.000,103.000=280.000,104.000=210.000,104.375=70.000,104.500=140.000,105.000=210.000,105.375=70.000,105.500=140.000,107.000=210.000,107.375=70.000,107.500=210.000,107.875=70.000,108.250=140.000,108.500=280.000,109.000=210.000,111.000=140.000,112.000=210.000,112.375=70.000,112.500=140.000,113.000=210.000,113.375=70.000,113.500=140.000,115.000=210.000,115.375=70.000,115.500=210.000,115.875=70.000,116.250=140.000,116.500=280.000,117.000=70.000,117.250=140.000,117.500=280.000,118.000=210.000,120.000=280.000,120.500=140.000,120.750=70.000,121.000=210.000,124.000=140.000,125.000=210.000,126.000=280.000,127.000=140.000,127.500=70.000,128.000=140.000,137.000=140.000,140.000=280.000,140.500=140.000,140.750=70.000,141.000=280.000,141.500=140.000,141.750=70.000,142.000=140.000,148.000=280.000,148.500=140.000,148.750=70.000,149.000=280.000,149.500=140.000,149.750=70.000,150.000=210.000,150.750=70.000,151.000=210.000,151.750=70.000,152.000=280.000,152.500=140.000,152.750=70.000,153.000=140.000,156.000=280.000,156.500=140.000,156.750=70.000,157.000=280.000,157.500=140.000,157.750=70.000,158.000=140.000,161.000=210.000,161.750=70.000,162.000=140.000,164.000=280.000,164.500=140.000,164.750=70.000,165.000=280.000,165.500=140.000,165.750=70.000,166.000=210.000,166.750=70.000,167.000=140.000,172.000=280.000,172.500=140.000,172.750=70.000,173.000=210.000,173.375=70.000,173.500=210.000,173.875=70.000,174.000=210.000,174.375=70.000,174.500=210.000,174.875=70.000,175.000=140.000,180.000=280.000,180.500=140.000,180.750=70.000,181.000=280.000,181.500=140.000,181.750=70.000,182.000=210.000,182.375=70.000,182.500=210.000,182.875=70.000,183.000=210.000,183.375=70.000,183.500=210.000,183.875=70.000,184.000=280.000,184.500=140.000,184.750=70.000,185.000=210.000,185.375=70.000,185.500=210.000,185.875=70.000,186.000=210.000,186.375=70.000,186.500=210.000,186.875=70.000,187.000=210.000,187.375=70.000,187.500=210.000,187.875=70.000,188.250=140.000,188.500=280.000,189.000=210.000,189.375=70.000,189.500=210.000,189.875=70.000,190.000=280.000,190.500=140.000,190.750=70.000,191.000=280.000,191.500=140.000,191.750=70.000,192.250=140.000,192.500=280.000,193.000=210.000,193.375=70.000,193.500=210.000,193.875=70.000,194.000=210.000,194.375=70.000,194.500=210.000,194.875=70.000,195.000=210.000,195.375=70.000,195.500=210.000,195.875=70.000,198.000=140.000,200.000=210.000,200.375=70.000,200.500=210.000,200.875=70.000,201.000=175.000,202.500=140.000,209.000=175.000,210.500=140.000,212.000=210.000,212.750=70.000,213.000=140.000,216.000=210.000,216.375=70.000,216.500=210.000,216.875=70.000,217.000=175.000,218.500=140.000,225.000=175.000,226.500=140.000,262.000=210.000,262.375=70.000,262.500=210.000,262.875=70.000,263.000=140.000;
#STOPS:75.000=0.071
,75.500=0.072
,77.000=0.072
,77.500=0.071
,78.000=0.071
,78.500=0.072
,83.000=0.071
,83.500=0.072
,86.000=0.071
,86.500=0.072
,89.000=0.071
,89.500=0.036
,89.750=0.035
,90.000=0.072
,90.500=0.071
,91.000=0.071
,93.000=0.071
,93.500=0.072
,97.000=0.036
,97.250=0.035
,97.500=0.036
,97.750=0.035
,98.000=0.071
,98.500=0.072
,103.000=0.215
,109.000=0.071
,109.500=0.072
,110.000=0.071
,110.500=0.072
,118.000=0.071
,118.500=0.072
,119.000=0.071
,119.500=0.071
,121.000=0.071
,121.500=0.072
,122.000=0.071
,122.500=0.072
,123.000=0.071
,123.500=0.072
,125.000=0.071
,125.500=0.072
,201.000=0.043
,201.500=0.043
,202.000=0.043
,209.000=0.043
,209.500=0.043
,210.000=0.043
,217.000=0.043
,217.500=0.042
,218.000=0.043
,225.000=0.043
,225.500=0.043
,226.000=0.043
;
#BGCHANGES:;
#KEYSOUNDS:;

//---------------dance-single - Loodee----------------
#NOTES:
     dance-single:
     Loodee:
     Challenge:
     11:
     0.823,0.927,0.211,1.000,0.440:
0000
0000
0000
0000
,
0000
0000
0000
0000
,
0000
0000
0000
0000
,
0000
0000
0000
0000
,
0001
0000
0001
0000
0100
0000
0000
0001
0000
1000
0001
0000
1000
0000
0000
0000
,
0100
0000
0100
0000
0010
0000
0000
0100
0000
1000
0010
0000
0100
0000
0000
0000
,
0001
0000
0001
0000
1000
0000
0000
0100
0000
0010
0100
0000
1000
0000
0000
0000
,
0010
0000
0010
0000
0100
0000
0000
0001
0000
1000
0001
0000
1000
0000
1000
0010
,
1000
0001
0010
0100
0020
0000
0000
0031
1000
0001
1000
0000
0101
0000
0100
0001
,
1000
0000
0002
0000
0023
0000
0230
0320
0000
0000
0032
0000
2003
0000
3020
0000
,
0230
0000
0000
0000
0301
0000
0020
0000
0030
0000
2000
0000
3020
0000
0130
1000
,
0001
0000
0001
0000
0011
0000
0000
0001
0100
0010
1000
0000
0010
0000
1000
0100
,
0010
0001
1000
0001
,
0100
0010
1000
0100
,
1000
0100
0010
0001
0100
0010
1000
0100
0010
0001
1000
0010
0100
0001
0100
0010
,
1000
0100
1000
0001
0100
0001
0010
0100
1000
0100
0010
0001
0100
0010
0100
0001
,
2000
3000
0000
0002
0003
0000
0020
0030
,
0000
0000
0000
0000
0000
0000
0000
0000
0004
0000
1003
0010
2000
0000
0000
3000
,
1001
0000
0001
0100
0001
0000
1000
0100
2000
0000
0000
0000
3020
0000
0430
0000
,
0302
0000
0000
0000
0023
0000
2030
0000
3020
0000
0032
0000
1003
0000
0010
0100
,
0010
0000
0100
0001
0100
0000
0001
0010
0001
1000
0010
1000
0020
0000
0430
0000
,
2300
0000
0000
0000
0000
0000
0000
0000
3200
0000
0000
0000
0000
0000
0000
0000
0302
0000
0000
0003
0002
0000
0000
0003
2000
0000
0000
0000
0000
0000
3000
0000
,
1200
0000
0000
0000
0000
0000
0000
0000
0320
0000
0000
0030
0010
0000
0001
0000
0200
0000
0000
0300
0200
0000
0000
0300
0200
0000
0000
0300
4000
0000
0000
3000
,
1100
0000
0000
0000
0100
0000
0010
0000
2000
0000
0000
3000
2000
0000
0000
3000
1002
0000
0000
0000
0000
0000
0000
0000
0000
0000
0000
0000
0000
0000
0003
0000
,
0011
0000
0000
0000
0010
0000
0001
0000
1000
0000
0100
0000
1000
0000
0010
0000
0200
0000
0000
0300
0200
0000
0000
0300
0020
0000
0000
0000
2030
0000
0000
0000
,
3002
0000
0013
0100
0020
0000
0130
1000
0200
0000
1300
0001
0200
0000
0000
0300
,
1001
0000
1000
0001
1000
0000
0001
0100
0010
1000
0010
0100
0002
0000
4003
0000
,
3200
0000
0000
0000
0302
0000
0203
0000
2300
0000
3020
0000
0130
0000
0001
0100
,
0010
0000
1000
0010
1000
0000
0100
0010
0001
1000
0010
1000
0002
0000
0043
0000
,
2030
0000
0000
0000
0000
0000
0000
0000
3020
0000
0000
0000
0000
0000
0000
0000
0230
0000
0000
0300
0200
0000
0000
0300
4000
0000
0000
3000
4000
0000
0000
3000
,
1020
0000
0000
0000
0000
0000
0000
0000
0032
0000
0000
0000
2003
0000
0000
0000
3002
0000
0000
0000
0023
0000
0000
0000
2030
0000
0000
0000
3200
0000
0000
0300
,
0110
0000
0000
0000
0010
0000
0001
0000
2000
0000
0000
3000
0002
0000
0000
0003
0201
0000
0000
0000
0000
0000
0000
0000
0000
0000
0000
0000
0000
0000
0000
0000
,
0301
0000
1000
0000
0001
0000
1000
0000
0100
0000
0010
0000
0001
0000
0010
0001
,
1000
0010
0100
0001
1000
0100
0010
0100
1000
0001
0100
0010
0100
0001
1000
0010
,
1000
0000
0002
0000
1003
0010
0100
0001
0100
0000
0001
0010
0100
0000
0020
0000
,
4030
0000
0000
0000
3004
0000
0000
0000
0103
0000
1000
0100
2000
0000
3040
0000
,
0130
0000
0002
0000
1003
0010
0100
0010
0100
0000
0001
1000
0200
0000
4300
0000
,
3004
0403
2300
3002
,
0023
0000
1030
1000
0002
0000
0023
0230
,
0340
0000
0000
0000
4030
0000
0000
0000
3010
0000
0100
1000
0200
0000
4300
0000
,
3001
0200
0320
0000
0032
0000
0023
0230
,
0304
4003
3200
0310
,
0001
0000
1000
0100
0010
0000
0100
1000
0001
1000
0010
0100
0002
0000
0043
0000
,
0430
0000
0000
0000
1300
0000
0004
0000
1003
0000
0004
0000
0103
0000
0001
0010
,
0001
0000
1000
0010
0100
0000
0010
1000
0100
0010
0100
1000
0200
0000
0340
0000
,
0034
0000
0403
0000
0310
4000
3010
4000
,
3002
0000
0203
2300
3002
2003
3200
0302
,
0013
0000
0200
0302
0403
0000
4300
0000
,
3001
0000
0200
2300
3002
0023
2030
3002
,
0013
0000
0000
0M00
0000
0000
M000
0000
0001
0010
0100
1000
0200
0000
0000
0300
,
1020
0000
0000
0000
2030
0000
0000
0000
3004
0000
0000
0003
0400
0000
0000
0300
0004
0000
0000
0000
0023
0000
0000
0000
0230
0000
0000
0000
2300
0000
3200
0000
,
0000
2300
3020
0230
0302
1003
0000
0020
,
0030
0000
0000
0000
0200
0000
0000
0000
0304
0000
0000
0003
4000
0000
0000
3000
0400
0000
0000
0300
0010
0000
0000
0000
0001
0000
0000
0000
1000
0000
0000
0000
,
0002
0000
0000
0000
0103
0010
1000
0000
0001
0010
0100
0010
0002
0000
0000
0003
,
2001
0000
0000
0000
3020
0000
0000
0000
0430
0000
0000
0300
0004
0000
0000
0000
0403
0000
0000
0000
0320
0000
0000
0000
2030
0000
0000
0000
3200
0000
0320
0000
,
0000
0230
2300
3002
0203
0310
0000
2000
,
3000
0000
0000
0000
0020
0000
0000
0000
0430
0000
0000
0300
0004
0000
0000
0003
4000
0000
0000
3000
0100
0000
0000
0000
0010
0000
0000
0000
0100
0000
0000
0000
,
1000
0001
1000
0001
0102
1003
0000
0000
,
1200
0000
0000
0000
0310
0000
0010
0000
0004
0000
0000
0000
0000
0000
0000
0003
,
0101
0000
0100
0010
2000
0000
3010
0000
1002
0000
0013
0000
0000
0000
0000
0000
,
0210
0000
1300
1000
0040
0130
0001
0010
,
1000
0000
0000
0000
0010
0100
1000
0000
1200
0000
0000
0000
0310
0000
0001
0000
,
1001
0000
1000
0001
0400
0000
0340
0000
4030
0000
0000
0000
0000
0000
0000
3000
,
1100
0000
0100
1000
0002
0000
0103
0000
2010
0000
3001
0000
0010
0000
0100
0000
,
1100
0000
1000
0100
4000
0000
3004
0000
0403
0000
0310
0000
1000
0000
1000
0000
,
0001
0001
1000
0001
0200
1300
1100
0000
;

//---------------dance-single - Loodee----------------
#NOTES:
     dance-single:
     Loodee:
     Hard:
     8:
     0.673,0.695,0.220,1.000,0.035:
0000
0000
0000
0000
,
0000
0000
0000
0000
,
0000
0000
0000
0000
,
0000
0000
0000
0000
,
0001
0000
0010
0000
0001
0000
0000
1000
0000
0000
0000
0000
1010
0000
0000
0000
,
0001
0000
1000
0000
0100
0000
0000
1000
0000
0000
0000
0000
0101
0000
0000
0000
,
0001
0000
1000
0000
0010
0000
0000
0100
0000
0000
0000
0000
0110
0000
0000
0000
,
1000
0000
0100
0000
0010
0000
0000
0001
0000
0000
0000
0000
1000
0000
0001
0000
,
2000
3200
0320
0030
0001
1000
1100
0100
,
1000
0200
2300
3002
0000
0203
0320
2030
,
3200
0000
0310
0002
0003
0200
0320
2030
,
3010
0000
0100
0000
0001
0000
0000
1000
0100
0000
1000
0000
1100
0000
0000
0000
,
0001
0100
0010
1000
,
0001
1000
0001
0010
,
0001
0100
0010
1000
0001
0010
0100
1000
,
0001
0010
1000
0010
0001
0100
1000
0100
,
0002
0003
0000
2000
3000
0000
0200
0300
,
0000
0000
0000
0000
0000
0000
0000
0000
1000
0000
0001
0000
0200
0000
0000
0300
,
1001
1000
0020
0130
0020
0000
0130
0001
,
2000
0000
3200
0320
0230
0320
0031
1000
,
1010
0010
0200
0301
1000
0100
1000
0001
,
0200
0000
0000
0000
0320
0000
0000
0000
0031
0000
0010
0000
2000
0000
0000
3000
,
1002
0000
0023
0032
0203
0302
2003
3200
,
0310
0000
0000
0000
0001
0000
1000
0000
1020
0000
0000
0000
0000
0000
0000
0030
,
1001
0000
1000
0100
0001
0100
2000
3001
,
2002
3003
0202
0303
0220
0330
1010
0000
,
0101
0001
2000
3100
0010
0001
0020
0130
,
2100
0000
3002
0023
0032
0023
0130
1000
,
0001
0100
0020
0130
0001
0010
0200
0310
,
0002
0000
0203
0000
1300
0100
0002
2003
,
3200
0000
0320
2030
3020
0032
2003
3001
,
1001
0000
0002
0203
0320
0000
0000
0000
,
1030
0000
0100
0000
0010
0000
0001
0000
1000
0000
0010
0000
0100
0000
0001
1000
,
0001
0010
0001
0100
0010
1000
0100
1000
,
1100
0200
1300
0001
1000
0010
0100
0002
,
4003
0000
3004
0000
0013
0100
0010
0001
,
1000
0020
0130
0001
0100
0001
0010
0100
,
4000
3400
0302
0203
,
2300
0000
3001
0001
0200
0000
0310
0100
,
0004
0000
4003
0000
3100
0010
0001
0100
,
0010
2000
3020
0000
0032
0000
0013
0100
,
0004
0043
0230
1300
,
1000
0010
0001
0010
0100
0010
1000
0010
,
2000
0000
3001
0020
0031
0020
0031
1000
,
0100
0001
0100
0010
0001
1000
0001
1000
,
0400
0000
0340
0000
0031
2000
3001
2000
,
3020
0000
0130
0002
0103
0002
0013
0100
,
1001
0000
1000
0001
4000
0000
3040
0000
,
0130
0000
0001
0020
0130
0020
0031
2000
,
3001
0000
0000
0000
0002
0023
0230
0300
,
1000
0001
0200
0320
0230
0000
0000
0000
,
0301
1000
0100
0100
0010
0002
0003
0200
,
0310
0010
2000
3200
2300
0001
0001
0001
,
3001
0000
0000
0000
1000
0010
1000
0000
0002
0000
2003
0000
3200
0000
0300
0000
,
0010
0100
2000
3002
2003
0000
0000
0000
,
3001
0010
0100
0200
1300
0001
0000
0200
,
0310
0010
2000
3200
0320
0001
0001
0001
,
0031
0100
0010
1000
1002
0003
0000
0000
,
1200
0000
0310
0010
0002
0000
0000
0000
,
1003
0010
0100
0001
2001
3000
0000
0000
,
1020
0000
0130
0100
0001
0010
0100
1000
,
0001
0000
0000
0000
0001
0100
0001
0000
2000
0000
0000
0000
3100
0000
0010
0000
,
0001
0000
0010
0000
0002
0000
0203
0000
0320
0000
0000
0000
0000
0000
0000
0030
,
1001
1000
0010
0100
0002
0013
0100
1000
,
0001
1000
0020
0230
0301
1000
0001
1000
,
0100
0010
0001
0010
0200
1300
1100
0000
;

//---------------dance-single - Loodee----------------
#NOTES:
     dance-single:
     Loodee:
     Medium:
     6:
     0.534,0.579,0.097,0.775,0.009:
0000
0000
0000
0000
,
0000
0000
0000
0000
,
0000
0000
0000
0000
,
0000
0000
0000
0000
,
0002
0003
0000
0020
0030
0000
0200
0300
,
1000
0000
0001
0000
1000
0000
0000
0010
0000
0000
0000
0000
1000
0000
0000
0000
,
0200
0300
0000
0020
0030
0000
0002
0003
,
0100
0000
0010
0000
0100
0000
0000
0001
0000
0000
0000
0000
1000
0000
0100
0000
,
1000
0001
0200
0000
0310
1000
0001
0000
,
0010
0200
0000
2300
0000
3001
0100
0010
,
2000
0000
3000
0002
0003
0020
0032
2003
,
3001
0000
0100
0000
0010
1000
0001
0010
,
0001
0010
0001
1000
,
0001
1000
0010
1000
,
0001
0010
0001
0010
0100
1000
0100
1000
,
0001
1000
0001
1000
0001
0010
0100
1000
,
0200
0300
0000
0000
0000
0000
0000
0000
,
0000
0000
0002
1003
,
1001
0000
2000
3000
2000
0000
3010
0100
,
0020
0030
1000
0001
1000
0000
0100
0010
,
0001
0000
2000
3100
1000
0000
1000
0100
,
0020
0000
0032
0000
1003
0001
2000
0000
,
3020
0000
0130
0001
0100
0001
0100
0000
,
0001
0000
1000
0100
2000
0000
0000
0000
,
3001
0000
0010
0100
0010
0100
1000
0000
,
2002
3003
0220
0330
2002
3003
0110
0000
,
1001
0000
0002
0013
0100
0000
1000
0001
,
2000
0000
3001
0100
0001
0100
0001
0000
,
1000
0000
0200
1300
0001
0000
0100
0001
,
2000
0000
3200
0000
0310
0001
1000
0001
,
2000
0000
3010
0100
0010
0100
0001
1000
,
0001
0000
1000
0001
2000
0000
0000
0000
,
3001
0010
0001
0010
0100
1000
0100
1000
,
0001
1000
0001
1000
0010
0100
0010
0100
,
0002
0000
1003
0010
0100
0010
1000
0000
,
0002
0000
2003
0000
3100
0000
1000
0001
,
2000
0000
3010
0100
0001
0100
0010
0000
,
2000
3200
0320
0032
,
2003
0000
3001
0100
0002
0000
1003
0001
,
2000
0000
3020
0000
0130
0000
0001
1000
,
0002
0000
0023
0000
0230
0000
1300
0001
,
0200
0320
0230
0301
,
1000
0000
0100
0010
0001
0010
0100
0000
,
2000
0000
3001
1000
0001
1000
0010
0000
,
1000
0000
1000
0100
1000
0001
1000
0000
,
2000
0000
3020
0000
0130
0001
0100
0001
,
2000
0000
3100
0010
0100
0010
0001
0000
,
1000
0000
0010
0100
0020
0000
2030
0000
,
3001
0000
0010
0001
0010
0001
1000
0000
,
0010
0000
0200
0302
,
1003
0100
2000
0000
3002
0000
0000
0000
,
0103
0010
0100
0000
0002
2003
3000
0002
,
0003
0020
0230
0000
1300
0001
1000
0001
,
0200
0302
2003
3200
,
1300
0001
0020
0000
0032
0000
0000
0000
,
1003
0010
0100
0000
0002
2003
3000
0200
,
0300
2000
3020
0000
0130
0001
1000
0001
,
1000
0100
1000
0100
0020
0030
0000
0000
,
0002
0000
1003
0001
2000
0000
0000
0000
,
3010
0100
0001
0000
0200
0300
0000
0000
,
0002
0000
1003
0100
1000
0100
0010
0001
,
1000
1000
1001
0000
,
0011
0000
0001
1000
0002
0000
0000
0000
,
1003
0010
1000
0000
1100
0000
0000
0000
,
0101
0000
0001
0100
0001
1000
0001
1000
,
0001
0010
0001
1000
0001
0000
1001
0000
;

//---------------dance-single - Loodee----------------
#NOTES:
     dance-single:
     Loodee:
     Easy:
     4:
     0.391,0.405,0.062,0.528,0.000:
0000
0000
0000
0000
,
0000
0000
0000
0000
,
0000
0000
0000
0000
,
0000
0000
0000
0000
,
0001
0000
0000
0010
0000
0000
0100
0000
,
1000
0001
0000
0100
,
0010
0000
0000
0100
0000
0000
0001
0000
,
1000
0100
0000
0010
,
0001
0010
0002
0000
1003
0000
0100
0000
,
1000
0001
2000
0000
3020
0000
0230
0000
,
0302
0000
0003
0010
0000
0100
1000
0000
,
0010
0000
0100
0000
0001
1000
0001
0000
,
0010
0100
1000
0001
,
1000
0001
1000
0001
,
0020
0030
0000
0200
0300
2000
3002
2003
,
3000
0000
0000
0000
,
0001
0000
0000
1000
0000
0000
0010
0000
,
0000
0000
0000
0000
,
1001
0001
0002
0013
,
0200
1300
1000
0010
,
0100
0001
0001
0010
,
0020
0032
1003
0020
,
0230
0301
0001
0001
,
1000
0000
1000
0010
2000
0000
0000
0000
,
3100
0000
1000
0100
1000
0000
0001
0000
,
0100
0100
0010
0010
,
1001
0000
1000
0000
1000
0000
0100
1000
,
0002
0103
0100
0001
,
1000
0000
0100
0010
0100
0000
1000
0000
,
0002
0203
0302
2000
,
3003
0000
0001
1000
0001
1000
0001
1000
,
0001
0000
0100
0010
0200
0000
0000
0000
,
0301
1000
0100
1000
,
0001
0100
0001
0000
1000
0100
1000
0000
,
0001
0000
0010
0000
0100
0000
1000
0001
,
0200
0320
1030
0001
,
0001
0000
0100
0000
0010
0000
1000
0100
,
2000
3002
0023
0032
,
2003
0000
3001
0100
0002
0000
1003
0001
,
2000
3200
1300
0010
,
0100
0002
2003
3100
,
0020
0032
2003
3010
,
1000
0100
0010
0000
0001
1000
0001
0000
,
2000
3001
0002
1003
,
0100
1000
0001
0000
0100
0010
0100
0000
,
0002
2003
3100
0100
,
2000
3001
0100
0001
,
1000
0010
0200
0302
,
1003
0010
0010
0010
,
0100
0000
0002
2003
,
3010
0010
0200
0000
,
0302
2003
3100
0000
,
1000
0001
1000
0000
0020
0000
0000
0000
,
0130
0000
0001
1000
0002
0000
0023
0000
,
0031
1000
0001
0000
0200
0000
0000
0000
,
0301
1000
1000
0000
,
0001
0100
0001
0000
2000
0000
0000
0000
,
3100
0100
1001
0000
,
0002
0013
0020
0000
,
0130
1000
0110
0000
,
2000
3001
0200
0010
,
0310
0000
1000
0001
2000
0000
3000
0000
,
0101
0000
1000
0000
,
1100
0000
0001
0000
,
1001
0000
0001
0001
,
0001
0000
1000
0000
0001
1000
0001
0000
;
