#TITLE:End on a Hard Note;
#SUBTITLE:;
#ARTIST:Fracus;
#TITLETRANSLIT:;
#SUBTITLETRANSLIT:;
#ARTISTTRANSLIT:;
#GENRE:;
#CREDIT:;
#BANNER:End on a Hard Note - Fracusbn.png;
#BACKGROUND:End on a Hard Note - Fracusbg.png;
#LYRICSPATH:;
#CDTITLE:encorerebirth.png;
#MUSIC:End on a Hard Note - Fracus.ogg;
#OFFSET:-0.016;
#SAMPLESTART:36.176;
#SAMPLELENGTH:15.568;
#SELECTABLE:YES;
#BPMS:0.000=185.000
,92.000=92.500
,94.000=185.000
,222.000=92.500
,224.500=46.250
,225.000=195.000
,226.000=195.820
,228.000=196.641
,230.000=197.461
,232.000=198.281
,234.000=199.102
,236.000=199.922
,238.000=200.742
,240.000=201.563
,242.000=202.383
,244.000=203.203
,246.000=204.023
,248.000=204.844
,250.000=205.664
,252.000=206.484
,254.000=207.305
,256.000=208.125
,258.000=208.945
,260.000=209.766
,262.000=210.586
,264.000=211.406
,266.000=212.227
,268.000=213.047
,270.000=213.867
,272.000=214.688
,274.000=215.508
,276.000=216.328
,278.000=217.148
,280.000=217.969
,282.000=218.789
,284.000=219.609
,286.000=220.430
,288.000=221.250
,290.000=222.070
,292.000=222.891
,294.000=223.711
,296.000=224.531
,298.000=225.352
,300.000=226.172
,302.000=226.992
,304.000=227.813
,306.000=228.633
,308.000=229.453
,310.000=230.273
,312.000=231.094
,314.000=231.914
,316.000=232.734
,318.000=233.555
,320.000=234.375
,322.000=235.195
,324.000=236.016
,326.000=236.836
,328.000=237.656
,330.000=238.477
,332.000=239.297
,334.000=240.117
,336.000=240.938
,338.000=241.758
,340.000=242.578
,342.000=243.398
,344.000=244.219
,346.000=245.039
,348.000=245.859
,350.000=246.680
,352.000=247.500
,354.000=248.320
,356.000=249.141
,358.000=249.961
,360.000=250.782
,362.000=251.602
,364.000=252.422
,366.000=253.242
,368.000=254.063
,370.000=254.883
,372.000=255.703
,374.000=256.523
,376.000=257.344
,378.000=258.164
,380.000=258.984
,382.000=259.805
,384.000=260.625
,386.000=261.445
,388.000=262.266
,390.000=263.086
,392.000=263.906
,394.000=264.727
,396.000=265.547
,398.000=266.367
,400.000=267.188
,402.000=268.008
,404.000=268.828
,406.000=269.648
,408.000=270.469
,410.000=271.289
,412.000=272.109
,414.000=272.930
,416.000=273.750
,418.000=274.570
,420.000=275.391
,422.000=276.211
,424.000=277.031
,426.000=277.852
,428.000=278.672
,430.000=279.492
,432.000=280.313
,434.000=281.133
,436.000=281.953
,438.000=282.773
,440.000=283.594
,442.000=284.414
,444.000=285.234
,446.000=286.055
,448.000=286.875
,450.000=287.695
,452.000=288.516
,454.000=289.336
,456.000=290.156
,458.000=290.977
,460.000=291.797
,462.000=292.617
,464.000=293.438
,466.000=294.258
,468.000=295.078
,470.000=295.898
,472.000=296.719
,474.000=297.539
,476.000=298.359
,478.000=299.180
,480.000=300.000
;
#STOPS:
;
#BGCHANGES:;
#KEYSOUNDS:;
#ATTACKS:;

//---------------dance-single - Spork!----------------
#NOTES:
     dance-single:
     Spork! - Beginner:
     Beginner:
     3:
     0.191,0.263,0.149,0.178,0.000,142.000,21.000,25.000,0.000,0.000,0.000,0.191,0.263,0.149,0.178,0.000,142.000,21.000,25.000,0.000,0.000,0.000:
0000
0000
0000
0000
,
0000
0000
0000
0000
,
0000
0000
0000
0000
,
0000
0000
0000
0000
,
0000
0000
0000
0000
,
0000
0000
0000
0000
,
0000
0000
0000
0000
,
0000
0000
0000
0000
,
1000
0000
0000
0000
,
0000
0000
0000
0000
,
0001
0000
0000
0000
,
0000
0000
0000
0000
,
0100
0000
0000
0000
,
0100
0000
0000
0000
,
0010
0000
0010
0000
,
0010
0000
0000
0000
,
0020
0000
0000
0030
,
0100
0000
0001
0000
,
2000
0000
0000
3000
,
0010
0000
0100
0000
,
0200
0000
0000
0300
,
0010
0000
1000
0000
,
0002
0000
0000
0003
,
1001
0000
0100
0000
,
0000
0000
0100
0000
,
0000
0000
0100
0000
,
0000
0000
0010
0000
,
0000
0000
1000
0000
,
0000
0000
1000
0000
,
0000
0000
1000
0000
,
0000
0000
0001
0000
,
0000
0000
1000
0000
,
1000
0000
1000
0000
,
1000
0000
0001
0000
,
0001
0000
0001
0000
,
0001
0000
2000
0000
,
0001
0000
3002
0000
,
1000
0000
2003
0000
,
0001
0000
3002
0000
,
1000
0000
1003
0000
,
0000
0000
0000
0000
,
0000
0000
0100
0000
,
0000
0000
0000
0000
,
0000
0000
0010
0000
,
0000
0000
0010
0000
,
0000
0000
0001
0000
,
0000
0000
0001
0000
,
0000
0000
1001
0000
,
0000
0000
0100
0000
,
0000
0000
0010
0000
,
0000
0000
0010
0000
,
0000
0000
1000
0000
,
0000
0000
0001
0000
,
0000
0000
0100
0000
,
0000
0000
0110
0000
,
0000
0000
0020
0000
,
0000
0030
1000
0000
0000
0000
0000
0000
,
0000
0001
0000
0000
,
0000
1000
0000
0000
,
0000
0010
0000
0100
,
0000
0001
0000
0000
,
0000
1000
0000
0000
,
0000
0001
0000
0000
,
0000
0100
0000
0010
,
0000
1000
0000
1000
,
0000
0010
0000
0010
,
0000
1000
0000
1000
,
0000
0100
0000
0010
,
0000
0001
0000
0001
,
0000
0100
0000
0100
,
0000
0001
0000
0001
,
0000
0010
0000
0000
,
0000
0110
0000
0000
,
0000
1001
0000
0000
,
0000
0110
0000
0000
,
0000
1001
0000
0100
,
0000
1001
0000
0000
,
0000
0110
0000
0000
,
0000
1001
0000
0000
,
0000
0110
0000
1000
,
0000
1001
0000
0000
,
0000
0110
0000
0000
,
0000
1001
0000
0000
,
0000
0110
0000
0001
,
0000
0110
0000
0000
,
0000
1001
0000
0000
,
0000
0110
0000
0000
,
0000
1001
0000
0000
,
0000
0020
0000
0000
,
0030
0200
0000
0000
,
0300
0020
0000
0000
,
0030
1000
0000
0001
,
0000
0020
0000
0000
,
0030
0200
0000
0000
,
0300
0020
0000
0000
,
0030
0001
0000
1000
,
0000
0200
0000
0000
,
0300
0020
0000
0000
,
0030
0200
0000
0000
,
0300
1000
0000
0001
,
0000
0200
0000
0000
,
0300
0020
0000
0000
,
0030
0200
0000
0000
,
0300
0001
0000
0000
,
0000
1000
0000
1000
,
0000
1000
0000
1000
,
0000
1000
0000
1000
,
0000
1000
0000
1000
,
0000
0001
0000
0001
,
0000
0001
0000
0001
,
0000
0001
0000
0001
,
0000
0001
0000
0001
,
0000
2002
0000
0000
,
0000
0000
0000
0000
,
0000
0000
0000
0000
,
0000
3003
0000
0000
,
0000
1000
0000
0000
,
0000
0001
0000
0000
,
0000
1000
0000
0000
,
0000
0001
0000
0000
,
0000
0220
0000
0000
,
0000
0000
0000
0000
,
0000
0000
0000
0000
,
0000
0330
0000
0000
;

//---------------dance-single - Spork!----------------
#NOTES:
     dance-single:
     Spork! - Standard:
     Medium:
     8:
     0.528,0.569,0.469,0.448,0.000,391.000,66.000,63.000,0.000,0.000,0.000,0.528,0.569,0.469,0.448,0.000,391.000,66.000,63.000,0.000,0.000,0.000:
0000
0000
0000
0000
,
0000
0000
0000
0000
,
0000
0000
0000
0000
,
0000
0000
0000
0000
,
0000
0000
0000
0000
,
0000
0000
0000
0000
,
0000
0000
0000
0000
,
0000
0000
0000
0000
,
0001
0010
0100
1000
,
0010
0010
0010
0010
,
1000
0100
0010
0001
,
0100
0100
0100
0100
,
0001
0010
0110
1001
,
1000
0010
0110
1001
,
1000
0100
0010
0001
,
1000
0000
0000
0000
,
0102
0000
0013
0000
,
0200
0000
0310
0001
,
2000
0000
3100
0000
,
0020
0000
0130
1000
,
2001
0000
0100
0000
0010
3000
1000
0000
,
0200
0000
1000
0000
0010
0300
0001
0000
,
0002
0000
0010
0000
0100
0003
0001
0000
,
2002
3003
1200
1300
,
0001
0010
0021
0031
,
0100
0010
0210
0310
,
1000
0100
0120
0130
,
1000
0001
0201
0301
,
1000
0010
2010
3010
,
1000
0100
0210
0310
,
0001
0100
0210
0310
,
2000
0000
3001
0100
,
0001
0010
0100
1000
,
0001
1000
0001
1000
0001
0000
0010
0000
,
0001
0100
0010
1000
,
0001
0000
2010
3010
,
1000
0100
0210
0310
,
0001
0100
0201
0301
,
1000
0100
1200
1300
,
0010
0100
0002
0000
,
0010
0000
1000
0000
,
0103
0010
2000
0000
,
0100
0000
0001
0000
,
3010
0000
1000
0100
,
0001
0010
1000
0100
,
0001
0010
1000
1000
,
0001
0001
2002
0000
,
3003
0000
1001
0000
,
0000
0000
0100
0000
,
0000
0000
0010
0000
,
0000
0000
0010
0000
,
0000
0000
0001
0100
,
0010
0100
0010
0000
1000
0000
0100
0000
,
0010
0100
0010
0000
0001
0000
0100
0000
,
0001
1000
1001
0000
,
0000
0000
0020
0000
,
0000
0030
0001
0000
0010
0000
0200
0000
,
1300
1000
0010
0200
,
0301
0001
1000
0020
,
0130
0100
0001
0020
,
0130
1001
0010
2000
,
3100
0100
0010
0002
,
0103
0100
0001
0020
,
0130
0000
0100
0000
1000
0000
0010
0100
,
0010
1001
0100
0020
,
0031
0100
0010
2000
,
3001
1000
0100
0020
,
0031
1000
0010
0200
,
0310
1001
0100
0002
,
0013
0110
1000
0020
,
0130
0110
0010
1020
,
1030
0000
1001
0000
0000
1001
0000
0000
,
0000
0000
1000
0000
0000
1100
0000
0000
,
1000
0000
0001
0000
0000
0101
0000
0000
,
0010
0000
1000
0000
0000
1001
0000
0000
,
0010
0000
0100
0000
0000
0110
0000
0000
,
1000
0000
1001
0000
0000
0011
0000
0000
,
0001
0000
0100
0000
0000
0110
0000
0000
,
1000
0000
0001
0000
0000
1001
0000
0000
,
0001
0000
0100
0000
0010
0000
0010
0100
,
0010
0000
1010
0000
0000
1001
0000
0000
,
0100
0000
0010
0000
0000
1001
0000
0000
,
0100
0000
0010
0000
0000
1100
0000
0000
,
0001
0000
0010
0000
0000
0101
0000
0000
,
0010
0000
1001
0000
0000
0110
0000
0000
,
1000
0000
0110
0000
0000
1001
0000
0000
,
0100
0000
1001
0000
0000
1100
0000
0000
,
0001
0000
0110
0000
0000
2002
0000
3003
,
0000
1000
0100
2000
,
3010
0100
0001
0020
,
0031
0100
0010
2000
,
3001
0100
0001
0020
,
0130
1001
0010
0002
,
0103
0010
1000
0200
,
1300
0010
0100
0002
,
0013
0000
0001
0000
1000
0000
0001
1000
,
0001
1001
0010
0002
,
0103
0010
1000
0200
,
1300
0010
0100
0002
,
1003
0010
1000
0200
,
0310
1001
0100
2000
,
3010
0101
0001
0020
,
0130
0110
0010
0021
,
0031
0000
1001
0000
0000
1001
0000
0000
,
0000
0110
0100
1000
,
0100
0001
0100
1000
,
0100
0001
0100
1000
,
0100
0001
0100
1000
,
0100
0110
0010
0001
,
0010
1000
0010
0001
,
0010
1000
0010
0001
,
0010
0000
1000
0000
0010
0000
0100
0010
,
0100
0001
0001
0001
,
0001
1000
1000
1000
,
1000
0001
0010
0100
,
1000
0001
0010
0100
,
1000
1020
0000
0130
,
0000
0201
0000
0301
,
0000
0021
0000
0130
,
0000
1200
0000
1300
,
0000
0220
0000
0000
,
0000
0000
0000
0000
,
0000
0000
0000
0000
,
0000
0330
0000
0000
;

//---------------dance-single - Spork!----------------
#NOTES:
     dance-single:
     Spork! - Light:
     Easy:
     6:
     0.379,0.525,0.362,0.412,0.000,264.000,51.000,58.000,0.000,0.000,0.000,0.379,0.525,0.362,0.412,0.000,264.000,51.000,58.000,0.000,0.000,0.000:
0000
0000
0000
0000
,
0000
0000
0000
0000
,
0000
0000
0000
0000
,
0000
0000
0000
0000
,
0000
0000
0000
0000
,
0000
0000
0000
0000
,
0000
0000
0000
0000
,
0000
0000
0000
0000
,
0010
0000
0010
0000
,
0100
0000
0100
0000
,
0001
0000
0001
0000
,
1000
0000
1000
0000
,
1001
0000
0100
0000
,
1001
0000
0010
0000
,
1001
0000
1001
0000
,
2002
0000
3003
0000
,
1000
0010
0100
0000
,
0001
0010
0100
0000
,
1000
0001
0100
0000
,
0010
1000
0001
0001
,
1001
0100
0001
0000
,
1000
0010
0100
0000
,
0001
1000
0100
0000
,
0110
0000
0022
0000
,
0003
0030
2020
0000
,
3000
0030
0022
0000
,
0030
0003
2020
0000
,
0030
3000
1002
0010
,
0100
0003
0001
0000
2001
0000
0100
0000
,
0010
3000
1000
0000
1200
0000
1000
0000
,
0010
0300
0001
0000
0201
0000
0001
0000
,
0020
0300
0000
0030
1001
0000
0100
0000
,
0000
0100
0000
0100
,
0010
1000
1001
0010
,
0000
0010
0000
0010
,
0110
0000
2020
3000
,
0130
0001
0022
0003
,
0031
0100
0220
0300
,
0130
0010
2002
3000
,
1003
0001
0020
0000
,
0100
0030
2000
0000
,
3001
0100
0020
0000
,
0100
0030
0002
0000
,
2003
0000
3100
0010
,
0100
0100
1000
0001
,
0100
1001
0010
0100
,
0010
0000
0220
0000
,
0330
0000
1001
0000
,
0000
0000
0010
0000
,
0000
0000
0100
0000
,
0000
0000
0100
0000
,
0000
0000
1000
0000
,
0001
0000
0100
0000
,
0100
0000
0010
0000
,
0100
0000
1001
0000
,
0000
0000
0200
0000
,
0000
0300
1000
0000
0100
0000
1000
0000
,
0000
0001
0100
0001
,
0000
1000
0001
1000
,
0000
0001
0100
0001
,
1000
0001
0010
0001
,
0000
1000
0010
1000
,
0000
0001
1000
0001
,
0000
1000
0010
1000
,
0001
1000
0100
0010
,
0000
0001
0100
0010
,
0000
1000
0010
0100
,
0000
0001
0100
0001
,
1000
1001
0000
0000
,
0000
1100
0000
0000
,
0000
0101
0000
0110
,
0000
1010
0000
1001
,
0000
0000
0001
0000
0000
0001
0000
0000
,
0100
0000
0010
0000
0000
0010
0000
0000
,
1000
0000
0100
0000
0000
0100
0000
0000
,
1000
0000
0001
0000
0000
0001
0000
0000
,
0100
0000
0001
0000
0000
1000
0000
0000
,
0010
0000
0100
0000
0000
0100
0000
0000
,
0001
0000
0010
0000
0000
0010
0000
0000
,
0001
0000
1000
0000
0000
1000
0000
0000
,
0010
0000
1000
0000
0000
0001
0000
0000
,
0010
0000
0100
0000
0000
0100
0000
0000
,
0010
0000
0001
0000
0000
0001
0000
0000
,
0100
0000
0010
0000
0000
0010
0000
0000
,
1000
1001
0000
0000
,
0000
0101
0000
0000
,
0000
1100
0000
0110
,
0000
0011
0000
1001
,
0000
1000
0000
0100
,
0000
1000
0000
0010
,
0000
0100
0000
0001
,
0000
1000
0000
0100
,
0010
0110
0000
0010
,
0000
0001
0000
0100
,
0000
0010
0000
1000
,
0000
0001
0000
0010
,
0100
0110
0000
0100
,
0000
1000
0000
0010
,
0000
0100
0000
0001
,
0000
0010
0000
0001
,
1000
1001
0000
0000
,
0000
1010
0000
0000
,
0000
0011
0000
0110
,
0000
1100
0000
1001
,
0000
2000
0000
3200
,
0000
0302
0000
0203
,
0000
2300
0000
3020
,
0000
0230
0000
0301
,
1000
0002
0000
0023
,
0000
2030
0000
3020
,
0000
0032
0000
0203
,
0000
0320
0000
1030
,
0001
2000
0000
3200
,
0000
2300
0000
3020
,
0000
0230
0000
0302
,
0000
0023
0000
0031
,
0000
0201
0000
0300
,
0000
1020
0000
0030
,
0000
1200
0000
0300
,
0000
0021
0000
0030
,
0000
0220
0000
0000
,
0000
0000
0000
0000
,
0000
0000
0000
0000
,
0000
0330
0000
0000
;

//---------------dance-single - Spork!----------------
#NOTES:
     dance-single:
     Spork! - Expert:
     Challenge:
     14:
     1.000,1.000,0.675,0.668,0.664,934.000,95.000,94.000,170.000,2.000,14.000,1.000,1.000,0.675,0.668,0.664,934.000,95.000,94.000,170.000,2.000,14.000:
0000
00M0
0000
00M0
0000
00M0
0000
00M0
,
0000
00M0
0000
00M0
0000
00M0
0000
00M0
,
0000
0M00
0000
0M00
0000
0M00
0000
0M00
,
0000
0M00
0000
0M00
0000
0M00
0000
0M00
,
1000
00M0
0100
00M0
0001
00M0
0100
00M0
,
1000
0M00
0010
0M00
0001
0M00
0010
0M00
,
2000
00M0
0100
00M0
0001
00M0
0100
00M0
,
3002
0M00
0010
0M00
2000
0M00
0000
3M03
,
1010
0000
000M
0000
1100
0000
00M0
1000
0100
0001
M000
0000
0100
0010
000M
0000
,
1010
0000
0M00
0000
0011
0000
M000
0001
0100
1000
00M0
0000
0100
0010
M000
0000
,
0101
0000
M000
0000
0011
0000
0M00
0001
0010
1000
000M
0000
0010
0100
M000
0000
,
0101
0000
00M0
0000
1100
0000
000M
1000
0010
0001
0M00
0000
0010
0100
000M
0000
,
1010
0000
100M
0000
0100
0000
M010
0000
0001
0000
M100
0000
0010
0M00
0M10
0000
,
0011
0000
M001
0000
0100
0000
001M
0000
1000
0000
010M
0000
0010
0M00
0M10
0000
,
1000
0100
100M
0100
0010
0001
M010
0001
0100
0010
010M
0010
1000
0001
1M00
0001
,
0010
0100
100M
0000
0000
0000
00M0
0000
0000
0000
M000
0000
0000
0000
0M00
0000
,
1020
0000
1000
0000
0100
0000
0001
0000
0000
0000
0001
0030
0010
0000
0010
0000
,
0200
0001
0010
1000
0300
0100
0001
0001
,
0020
0000
0001
0000
0100
0000
1000
0000
0000
0000
1000
0030
0010
0000
0010
0000
,
0200
1000
0010
0001
0300
0100
1000
1000
,
0010
1000
0010
0000
0100
0000
0002
0010
0000
0000
0100
0003
0001
0000
0100
0000
,
0100
0001
0100
0000
0010
0000
2000
0100
0000
0000
0001
3000
0001
0000
0010
0000
,
0100
1000
0100
0000
0010
0000
0001
0100
0000
0001
1000
0000
0001
0000
0100
0000
,
0220
0000
0001
0330
M401
0000
0310
0010
,
1010
1000
1001
0010
140M
0000
0310
0010
,
0011
0001
1001
0100
104M
0000
0130
0100
,
0101
0001
1001
0100
M041
0000
0130
0100
,
1100
0000
1000
0000
1001
0000
0010
0000
1M04
0000
0000
0000
0100
0003
0010
0000
,
1000
0000
0100
00M0
0100
0000
0000
0000
0101
0000
0000
0000
0001
0000
0000
0000
41M0
0000
0000
0000
0000
0000
0000
0000
0010
0000
3000
0000
0100
0000
0000
0000
,
0001
0000
0010
0M00
0010
0000
0000
0000
1010
0000
0000
0000
0100
0000
0000
0000
40M1
0000
0000
0000
0000
0000
0000
0000
0100
0000
3000
0000
0010
0000
0000
0000
,
0001
0000
0100
00M0
0100
0000
0000
0000
1100
0000
0000
0000
1000
0000
0000
0000
01M4
0000
0000
0000
0000
0000
0000
0000
1003
0000
0010
0M00
0010
0000
0000
0000
,
0001
0000
0010
0000
0100
0000
1000
0000
0010
0000
0100
0000
0001
0000
0000
0000
2001
0000
0000
3000
0102
0000
0000
0000
1000
0000
0003
0000
0102
0000
0000
0000
,
1000
0000
0003
0000
0102
0000
0000
0000
1000
0000
0003
0000
0102
0000
0000
0000
1000
0000
0003
0000
0102
0000
0000
0000
1000
0000
0003
0000
0201
0000
0000
0300
,
1002
0000
0000
0003
2010
0000
0000
3000
0120
0000
0000
0030
0201
0000
0000
0300
1002
0000
0000
0003
2100
0000
0000
0000
0001
0000
3000
0000
2100
0000
0000
0000
,
0001
0000
3000
0000
2100
0000
0000
0000
0001
0000
3000
0000
2100
0000
0000
0000
0001
3000
0010
0000
0100
0000
0000
0000
1000
0000
0000
0000
0010
0000
1000
0000
,
0001
0000
0100
0000
0010
0000
0010
0000
4M01
0000
0000
0000
0010
3000
0100
0000
,
0001
0000
0010
0M00
0010
0000
0000
0000
1010
0000
0000
0000
1000
0000
0000
0000
0M14
0000
0000
0000
0000
0000
0000
0000
0100
0000
0003
0000
0010
0000
0000
0000
,
1000
0000
0100
00M0
0100
0000
0000
0000
0101
0000
0000
0000
0010
0000
0000
0000
1M04
0000
0000
0000
0000
0000
0000
0000
0010
0000
0003
0000
0100
0000
0000
0000
,
1000
0000
0010
0M00
0010
0000
0000
0000
0011
0000
0000
0000
0001
0000
0000
0000
4M10
0000
0000
0000
0000
0000
0000
0000
3001
0000
0000
0000
0100
0000
0000
0000
,
0001
0000
0010
0M00
0010
0000
1000
0000
0001
0000
0100
0000
0001
0000
1000
0000
02M0
0000
0000
0000
000M
0000
0300
0000
M200
0000
0000
0000
0000
0000
0300
0000
,
0M20
0000
2000
0030
000M
3000
0200
0000
00M0
0300
2000
0000
0M00
3000
0020
0000
,
M200
0030
0000
0300
00M2
0000
0000
0003
0M20
0000
M000
0030
002M
0000
0000
0030
,
02M0
0000
0002
0300
M000
0003
0020
0000
0M00
0030
0002
0000
00M0
0003
0200
0000
,
002M
0300
0000
0030
2M00
0000
0000
3000
0M01
0000
0020
0000
010M
0030
2000
0000
,
001M
3000
0200
0000
M001
0300
0020
0000
010M
0030
2000
0000
00M1
3000
0200
0000
,
M020
0300
0200
0030
M001
0300
0010
0000
110M
0000
0000
0000
01M1
0000
0000
0000
,
M011
0010
1M10
0000
0200
0000
0000
0000
,
0310
0000
0000
0000
1000
0001
1000
0001
2000
0000
0100
0000
0010
3000
1000
0100
,
0000
1000
0001
0000
0100
0000
0100
0000
0002
0000
0010
0000
0100
0003
0001
0010
,
0000
0001
1000
0000
0100
0000
0010
0000
0002
0000
0100
0000
0010
0003
0001
0100
,
0000
0001
1000
0000
0100
0000
0100
0000
2000
0000
0010
0000
0100
3000
1000
0010
,
0000
1000
0001
0000
0010
0000
0100
0000
1000
0000
0100
1000
0010
0000
0100
0000
,
0001
0000
0010
0M00
0010
0000
0000
0000
1010
0000
0000
0000
1000
0000
0000
0000
0001
0000
0000
0000
0010
0000
0001
0000
0100
0000
0000
0000
0010
0000
0000
0000
,
1000
0000
0100
00M0
0100
0000
0000
0000
0101
0000
0000
0000
0001
0000
0000
0000
1100
0000
0000
0000
0000
0000
0000
0000
0110
0000
0000
0000
0000
0000
0001
0000
,
0011
0000
0100
0000
0120
000M
0M00
000M
,
M000
0000
0M00
0000
0M00
000M
M000
0000
1101
0000
0000
0000
0000
0000
0000
0000
,
0000
0000
0030
0000
1000
0100
1000
0100
1000
0100
0010
0000
0M00
0000
0010
1000
,
0010
1000
0010
0100
0001
0010
0001
0010
0001
0010
0100
0000
M000
0000
0100
0010
,
0100
0010
0100
0001
1000
0010
1000
0010
1000
0010
0100
0000
000M
0000
0100
0010
,
0100
0010
0100
1000
0001
0100
0001
0100
0001
0100
0010
0000
M000
0000
0010
0001
,
1000
0000
1000
0010
1000
0001
1000
0001
1000
0001
0100
0000
00M0
0000
0100
1000
,
0100
1000
0100
0010
0001
1000
0001
1000
0001
1000
0010
0000
0M00
0000
0010
0001
,
0010
0001
0010
0100
1000
0010
1000
0010
1000
0001
0100
0000
M000
0000
0100
0010
,
0100
0010
0100
1000
0001
0100
0001
0100
0001
1000
0010
0000
0M00
0000
0010
0001
,
1000
0000
1000
0001
1000
0010
0100
0010
1000
0010
0100
0000
00M0
0000
0100
1000
,
0001
1000
0001
0010
0001
0100
0010
0100
0001
0100
0010
0000
M000
0000
0010
0100
,
1000
0100
1000
0010
1000
0100
0010
0100
1000
0100
0010
0000
M000
0000
0010
0100
,
0001
1000
0001
0100
0001
0010
0100
0010
0001
0010
0100
0000
000M
0000
0100
0010
,
1000
0000
1000
0001
0100
0010
0100
0001
0100
0010
0100
0000
000M
0000
0100
1000
,
0001
0010
0001
1000
0010
0100
0010
1000
0010
0100
0010
0000
M000
0000
0010
0001
,
0100
0010
0100
0001
1000
0010
1000
0001
1000
0100
0010
0000
0M00
0000
0010
1000
,
0100
1000
0001
0100
0010
0000
0000
0000
0000
0000
0101
0000
1100
0000
0000
0000
,
0001
0100
0010
1000
0200
0000
0010
0000
1000
0000
0010
0000
030M
0000
0010
1000
,
0001
0000
0100
0000
0020
0000
0100
0000
1000
0000
0100
0000
003M
0000
0100
1000
,
0001
0000
0001
0000
0020
0000
0100
0000
0001
0000
0100
0000
M030
0000
0100
0010
,
1000
0000
0001
0000
0200
0000
0010
0000
0001
0000
0010
0000
M300
0000
0010
0001
,
1000
0000
0100
0000
1002
0000
0010
0000
1000
0000
0100
0000
00M3
0000
0100
0010
,
0001
0000
0001
0000
2000
0000
0010
0000
0001
0000
0100
0000
30M0
0000
0100
0010
,
1000
0000
0001
0000
2000
0000
0100
0000
0001
0000
0010
0000
3M00
0000
0010
0100
,
1000
0000
1000
0000
0002
0000
0100
0000
1000
0000
0010
0000
0M03
0000
0010
1000
,
1001
0000
0001
0000
0020
0000
0001
0000
0100
0000
1000
0000
003M
0000
0010
0100
,
0001
0000
1000
0000
0020
0000
1000
0000
0100
0000
0001
0000
M030
0000
0010
0001
,
1000
0000
1000
0000
0200
0000
1000
0000
0010
0000
0001
0000
M300
0000
0100
0010
,
1000
0000
0001
0000
0200
0000
0001
0000
0010
0000
1000
0000
030M
0000
0100
1000
,
0010
0000
0010
0000
0210
0000
1000
0000
0010
0000
0001
0000
03M0
0000
0100
1000
,
0001
0000
1000
0000
0020
0000
0001
0000
0100
0000
1000
0000
0M30
0000
0010
0100
,
1000
0000
0001
0000
0020
0000
1000
0000
0100
0000
0001
0000
0M30
0000
0010
0100
,
0001
0000
1000
0000
0200
0000
0001
0000
0000
0300
0110
0000
1001
0000
0000
0000
,
0001
0010
0100
1000
0010
0000
1000
0000
0200
0000
0001
0000
03M0
0000
0100
0001
,
1000
0000
0010
0000
0100
0000
0001
0000
0020
0000
1000
0000
0M30
0000
0010
1000
,
0100
0000
0010
0000
0001
0000
1000
0000
0020
0000
0001
0000
0M30
0000
0010
0001
,
0100
0000
0010
0000
1000
0000
0001
0000
0200
0000
1000
0000
03M0
0000
0100
1000
,
0001
0000
0010
0000
1001
0000
0001
0000
0020
0000
1000
0000
0M30
0000
0010
0100
,
0001
0000
1000
0000
0100
0000
1000
0000
0020
0000
0001
0000
0M30
0000
0010
0001
,
0100
0000
0100
0000
0010
0000
1000
0000
0200
0000
0001
0000
03M0
0000
0100
0010
,
1000
0000
0001
0000
0010
0000
0001
0000
0200
0000
1000
0300
0110
0000
0101
0000
,
1001
0000
1000
0100
0020
1000
003M
0110
,
0010
1000
0001
0010
0200
0001
M300
0110
,
0010
1000
0001
0100
0020
0001
M030
0110
,
0010
0001
1000
0010
0200
1000
030M
0110
,
0100
1000
1010
0010
0200
1000
030M
0110
,
0010
0001
0101
0100
0020
0001
M030
0110
,
0010
0001
0011
0010
0200
0001
M300
0110
,
0100
0001
1001
0000
0000
0011
1010
0000
,
1000
0100
0010
0001
1000
0000
0010
0000
0001
0000
0010
0000
1000
0000
0001
0000
,
0100
1000
0001
0010
1000
0010
0001
1000
,
0100
0100
0001
0010
1000
0010
0001
1000
,
0100
0001
1000
0010
0001
0010
1000
0001
,
0100
0100
1100
0100
0001
0100
1000
0001
,
0010
1000
0001
0100
1000
0100
0001
1000
,
0010
0010
0001
0100
1000
0100
0001
1000
,
0010
0001
1000
0100
0001
0100
0010
0010
,
0010
0000
1000
0100
1000
0100
0001
0100
,
0001
0100
0001
0010
0001
0010
1000
0010
,
1000
1000
0001
0100
0001
0100
1000
0100
,
1000
0100
1000
0010
1000
0010
0001
0010
,
0001
0001
0102
0000
0010
0000
1000
0000
,
0100
0003
2100
0000
0010
0000
0001
0000
,
0100
3000
0041
0000
0100
0000
1000
0000
,
0031
1040
0100
0001
,
1030
2002
0000
0000
,
0000
0000
0000
0000
,
0000
0000
0000
0000
,
0000
3003
0000
0000
;

//---------------dance-single - Spork!----------------
#NOTES:
     dance-single:
     Spork! - Heavy:
     Hard:
     11:
     0.904,1.000,0.597,0.561,0.185,728.000,84.000,79.000,0.000,0.000,0.000,0.904,1.000,0.597,0.561,0.185,728.000,84.000,79.000,0.000,0.000,0.000:
0000
0000
0000
0000
,
0000
0000
0000
0000
,
0000
0000
0000
0000
,
0000
0000
0000
0000
,
0000
0000
0000
0000
,
0000
0000
0000
0000
,
0000
0000
0000
0000
,
0000
0000
0000
0000
,
1000
0000
0000
0000
0100
0000
0000
0010
0100
0000
0000
0000
0010
0000
0000
0000
,
0001
0000
0000
0000
0100
0000
0000
0010
0100
0000
0000
0000
0010
0000
0000
0000
,
1000
0000
0000
0000
0001
0000
0000
0100
0001
0000
0000
0000
0010
0000
0000
0000
,
0001
0000
0000
0000
1000
0000
0000
0010
1000
0000
0000
0000
0100
0000
0000
0000
,
1010
0010
0100
0001
1000
0100
0010
0010
,
0101
0100
0010
1000
0001
0010
0100
0100
,
1000
0001
1000
0001
1000
0001
1000
0001
0100
0010
0100
0010
0100
0010
0100
0010
,
2000
0100
0000
0010
0000
0001
0000
3001
,
0201
0001
0010
1000
0000
1300
0100
0100
,
0020
1000
0100
0001
0030
0010
1000
1000
,
0200
1000
0010
0001
0000
0301
0100
0100
,
0020
0001
0100
1000
0030
0010
0001
0001
,
0010
0001
0020
0000
0100
0000
1000
0000
0000
0000
1030
0000
0010
0000
0010
0000
,
0100
1000
0200
0000
0010
0000
0001
0000
0300
0000
0100
0000
1000
0000
1000
0000
,
0010
1000
0020
0000
0100
0000
0001
0000
0000
0000
0031
0000
0010
0000
0010
0000
,
0220
0000
0000
0330
1020
0100
0030
0101
,
0000
1100
0000
0100
0021
0100
0030
1100
,
0000
0101
0000
0010
1200
0010
0300
0011
,
0000
1010
0000
0010
0201
0010
0300
1010
,
0000
0000
0011
0000
0000
0000
1001
0000
0201
0000
0001
0300
0010
0000
0100
0000
,
1000
0010
1000
0000
0001
0000
1000
0000
1020
0000
1000
0030
0100
0000
0010
0000
,
0001
0100
0001
0000
0010
0000
0100
0000
0021
0000
0001
0030
0100
0000
0010
0000
,
1000
0001
1000
0000
0001
0000
0010
0000
1200
0000
1000
0300
0010
0100
0010
0000
,
1000
0001
1000
0001
1000
0001
1000
0000
1010
0000
1001
0000
0000
0000
0101
0000
,
0000
1100
0000
0110
0000
1001
0000
1010
,
1001
1001
0110
0110
1100
1001
0000
1100
,
0000
0000
0101
0000
0000
0000
0110
0000
0010
0100
0010
0000
1000
0000
0100
1000
,
0010
0100
0001
0010
0201
0010
0300
1010
,
1000
0001
1000
0000
0100
0000
0010
0000
1200
0000
0010
0000
0300
0000
0011
0000
,
0001
1000
0001
0000
0010
0000
0100
0000
0021
0000
0100
0000
0030
0000
1100
0000
,
0100
0010
0100
0000
1000
0000
0100
0000
1020
0000
0100
0000
0030
0000
0101
0000
,
0100
0010
0100
0010
0100
0010
0100
0010
0200
0000
0000
0000
0002
0300
0000
0000
,
2000
0003
0200
3000
0000
0000
0020
0300
0000
0000
0002
0030
0000
0000
0200
0003
,
0020
0300
0000
0000
2000
0030
0000
0000
0002
3000
0000
0000
0020
0003
0000
0000
,
0200
0030
2000
0300
0000
0000
0020
3000
0000
0000
0200
0030
0000
0000
0002
0300
,
0020
0003
0000
0000
0001
0030
0000
0000
0101
0000
0000
0000
1100
0000
0000
0000
,
0101
0000
0000
0000
0110
0000
0000
0010
1000
0000
0000
0000
1100
0000
0000
0000
,
0101
1100
0200
1000
,
0001
1300
2002
0000
,
3003
0000
0000
0000
0000
0000
0000
0000
1001
0000
1000
0000
0100
0000
1000
0010
,
0000
1000
0010
0000
0100
0000
0001
0000
0010
0000
0100
0000
1000
0000
0001
0100
,
0000
0001
0100
0000
0010
0000
0100
0000
0001
0000
0010
0000
0001
0000
1000
0100
,
0000
1000
0100
0000
0010
0000
0001
0000
0100
0000
0010
0000
0100
0000
0001
0010
,
0000
0001
0010
0000
0100
0000
1000
0000
1100
0000
0000
0000
1001
0000
0100
0001
,
0000
1000
0100
0000
0010
0000
0001
0000
0101
0000
0000
0000
0110
0000
0001
0010
,
0000
0100
1000
0000
0010
0000
0100
0000
0002
0000
0000
0000
0023
0000
0000
0000
,
0230
0310
1001
0000
,
0000
0000
0220
0000
,
0000
0330
1000
0100
1000
0010
0000
0010
,
0010
0010
0001
0100
0001
0010
0000
0010
,
0010
0010
1000
0001
1000
0100
0000
0100
,
0100
0100
0001
1000
0001
0010
0000
0010
,
0010
0010
1000
0010
1000
0100
0000
0100
,
0100
0100
0001
0010
0001
0100
0000
0100
,
0100
0100
1000
0001
1000
0100
0000
0100
,
0100
0000
0100
0000
0001
0000
1000
0000
0001
0000
0100
0000
0000
0000
0100
0010
,
0100
0100
0001
0010
0100
0010
0000
0010
,
0010
0010
1000
0100
0010
0100
0000
0100
,
0100
0100
0001
0100
0010
0100
0000
0100
,
0100
0100
1000
0010
0100
0010
0000
0010
,
0010
0010
1000
0100
0010
0001
0000
0100
,
0100
0100
1000
0010
0100
0001
0000
0010
,
0010
0010
1000
0100
0010
0001
0000
0100
,
0100
0100
0110
0000
0000
1001
0000
0000
,
1000
0001
1000
0001
1000
0000
0010
0000
0001
0000
0020
0000
0000
0000
0130
0000
,
0001
1000
0001
0010
1000
0020
0000
0130
,
1000
0001
1000
0100
0001
0200
0000
0310
,
0001
1000
0001
0100
1000
0200
0000
0310
,
1000
0001
1000
0100
0001
0200
0000
1300
,
0010
1000
0001
0100
1000
0200
0000
0301
,
0010
0001
1000
0010
0001
0020
0000
1030
,
0100
0000
1000
0000
0001
0000
0010
0000
1000
0000
0020
0000
0000
0000
0031
1000
,
0001
1000
0001
0100
0001
0020
0000
1030
,
0010
0001
1000
0010
1000
0200
0000
0301
,
0100
1000
0001
0010
0001
0200
0000
1300
,
0100
0001
1000
0010
1000
0200
0000
0301
,
0100
1000
0001
0100
1000
0200
0000
0310
,
1000
0001
1000
0100
0001
0200
0000
0310
,
0001
1000
0010
0100
0010
0000
0100
0001
,
0100
0000
1001
0000
0000
1001
0000
0000
,
0010
0100
0010
0100
0010
0000
1000
0000
0100
0000
0020
0000
0000
0000
0130
0000
,
0010
0001
0100
0010
1000
0002
0000
1003
,
0001
0010
0001
0100
0010
2000
0000
3010
,
1000
0100
1000
0010
0100
0001
1000
0100
,
0010
0001
0100
0001
0010
0200
0000
0310
,
0100
1000
0010
0100
0001
2000
0000
3001
,
1000
0100
1000
0010
0100
0002
0000
0103
,
0001
0010
0001
0100
0010
1000
0001
0010
,
0100
1000
0001
0100
0001
0200
0000
0310
,
0100
0100
0010
1000
0010
2000
0000
3001
,
1000
1000
0100
0010
0100
0020
0000
0031
,
0010
0010
0001
0100
0010
1000
0100
1000
,
0010
0010
1000
0100
1000
0200
0000
0310
,
0100
0100
0010
0001
0010
0002
0000
1003
,
0001
0001
0100
0010
0100
0020
0000
1030
,
0010
0010
0110
0000
0000
1001
0000
0000
,
1000
0001
1000
0001
1000
0000
0000
0000
0100
0000
0000
0000
1100
0000
0000
0000
,
0101
0100
0001
0101
,
0011
0001
0010
0011
,
1010
0010
1000
1010
,
0010
1000
0001
0000
0100
0000
0101
0000
,
1100
0100
1000
1100
,
1010
1000
0010
1010
,
0011
0000
0010
0000
0001
0000
0010
0001
,
0100
0000
0001
1000
0001
1000
0001
1000
,
0001
1000
0100
0010
0100
0010
0100
0010
,
0100
0010
0001
0100
0001
0100
0001
0100
,
0001
0100
0010
1000
0010
1000
0010
1000
,
0010
1000
1020
0000
0000
0000
0030
0000
,
0000
0201
0000
0300
,
0000
0021
0000
0030
,
0000
1200
0000
0300
,
0000
0220
0000
0000
,
0000
0000
0000
0000
,
0000
0000
0000
0000
,
0000
0330
0000
0000
;

//---------------dance-single - BOSS----------------
#NOTES:
     dance-single:
     BOSS!:
     Edit:
     16:
     1.000,1.000,1.000,0.455,0.938,1013.000,145.000,64.000,203.000,2.000,12.000,1.000,1.000,1.000,0.455,0.938,1013.000,145.000,64.000,203.000,2.000,12.000: // measure 0
0000
00M0
0000
00M0
0000
00M0
0000
00M0
,  // measure 1
0000
00M0
0000
00M0
0000
00M0
0000
00M0
,  // measure 2
0000
0M00
0000
0M00
0000
0M00
0000
0M00
,  // measure 3
0000
0M00
0000
0M00
0000
0M00
0000
0M00
,  // measure 4
1000
00M0
0100
00M0
0001
00M0
0100
00M0
,  // measure 5
1000
0M00
0010
0M00
0001
0M00
0010
0M00
,  // measure 6
2000
00M0
0100
00M0
0001
00M0
0100
00M0
,  // measure 7
3002
0M00
0010
0M00
2000
0M00
0000
3M03
,  // measure 8
1010
0000
000M
0000
1100
0000
00M0
1000
0100
0001
M000
0000
0100
1000
000M
0000
,  // measure 9
1010
0000
0M00
0000
0011
0000
M000
0001
0100
1000
00M0
0000
0100
0001
M000
0000
,  // measure 10
0101
0000
M000
0000
0011
0000
0M00
0001
0010
1000
000M
0000
0010
0001
M000
0000
,  // measure 11
0101
0000
00M0
0000
1100
0000
000M
1000
0010
0001
0M00
0000
0010
1000
000M
0000
,  // measure 12
1010
0000
100M
0000
0100
0000
M010
0000
0001
0000
M100
0000
0010
0M00
0M10
0000
,  // measure 13
0011
0000
M001
0000
0100
0000
001M
0000
1000
0000
010M
0000
0010
0M00
0M10
0000
,  // measure 14
1000
0100
100M
0100
0010
0001
M010
0001
0100
0010
010M
0010
1000
0001
1M00
0001
,  // measure 15
0010
0100
100M
0000
0100
1000
00M1
0000
0100
0000
M001
0010
0100
0000
100M
0000
,  // measure 16
1020
0000
1000
0000
0001
0000
0100
0000
0000
0000
0001
0030
0010
0000
0010
0000
,  // measure 17
0200
0001
1000
0010
0300
0100
0001
0001
,  // measure 18
0020
0000
0001
0000
1000
0000
0100
0000
0000
0000
1000
0030
0010
0000
0010
0000
,  // measure 19
0200
1000
0001
0010
0300
0100
1000
1000
,  // measure 20
0010
1000
0100
0000
0001
0000
0100
0010
0000
0001
1000
0000
0001
0000
0100
0000
,  // measure 21
0100
0001
0010
0000
1000
0000
0010
0100
0000
1000
0001
0000
0001
0000
0010
0000
,  // measure 22
0100
1000
0010
0000
0001
0000
0010
0100
0000
0010
1000
0000
0001
0000
0010
0000
,  // measure 23
0220
0000
0001
0330
140M
0000
0310
0010
,  // measure 24
1100
0001
1001
0010
M401
0000
0310
0010
,  // measure 25
0101
1000
1001
0100
M041
0000
0130
0100
,  // measure 26
0011
1000
1001
0100
104M
0000
0130
0100
,  // measure 27
1010
0000
0001
0000
1001
0000
0100
0000
40M1
0000
0000
0000
0010
3000
0100
0000
,  // measure 28
0001
0000
0010
0M00
0010
0000
0000
0000
1010
0000
0000
0000
1000
0000
0000
0000
0M14
0000
0000
0000
0000
0000
0000
0000
0100
0000
0003
0000
0010
0000
0000
0000
,  // measure 29
1000
0000
0100
00M0
0100
0000
0000
0000
0101
0000
0000
0000
0010
0000
0000
0000
1M04
0000
0000
0000
0000
0000
0000
0000
0010
0000
0003
0000
0100
0000
0000
0000
,  // measure 30
1000
0000
0010
0M00
0010
0000
0000
0000
0011
0000
0000
0000
0001
0000
0000
0000
4M10
0000
0000
0000
0000
0000
0000
0000
3001
0000
0100
00M0
0100
0000
0000
0000
,  // measure 31
1000
0000
0100
0000
0010
0000
0001
0000
0100
0000
0010
0000
1000
0000
0001
0000
2001
0000
0000
3000
0102
0000
0000
0000
1000
0000
0003
0000
0012
0000
0000
0000
,  // measure 32
1000
0000
0003
0000
0102
0000
0000
0000
1000
0000
0003
0000
0012
0000
0000
0000
1000
0000
0003
0000
0102
0000
0000
0000
1000
0000
0003
0000
0021
0000
0000
0030
,  // measure 33
1002
0000
0000
0003
2010
0000
0000
3000
0120
0000
0000
0030
0201
0000
0000
0300
1002
0000
0000
0003
2100
0000
0000
0000
0001
0000
3000
0000
2010
0000
0000
0000
,  // measure 34
0001
0000
3000
0000
2100
0000
0000
0000
0001
0000
3000
0000
2010
0000
0000
0000
0001
3000
0010
0000
0100
0000
0000
0000
1000
0000
0000
0000
0010
0000
1000
0000
,  // measure 35
0001
0000
0100
0000
0010
0000
0010
0000
1M04
0000
0000
0000
0100
0003
0010
0000
,  // measure 36
1000
0000
0100
00M0
0100
0000
0000
0000
0101
0000
0000
0000
0001
0000
0000
0000
41M0
0000
0000
0000
0000
0000
0000
0000
0010
0000
3000
0000
0100
0000
0000
0000
,  // measure 37
0001
0000
0010
0M00
0010
0000
0000
0000
1010
0000
0000
0000
0100
0000
0000
0000
40M1
0000
0000
0000
0000
0000
0000
0000
0100
0000
3000
0000
0010
0000
0000
0000
,  // measure 38
0001
0000
0100
00M0
0100
0000
0000
0000
1100
0000
0000
0000
1000
0000
0000
0000
01M4
0000
0000
0000
0000
0000
0000
0000
1003
0000
0000
0000
0010
0000
0000
0000
,  // measure 39
1000
0000
0100
00M0
0100
0000
0001
0000
1000
0000
0010
0000
1000
0000
0001
0000
0M20
0000
0000
0000
M000
0000
0030
0000
002M
0000
0000
0000
0000
0000
0030
0000
,  // measure 40
02M0
0000
0002
0300
M000
0003
0020
0000
0M00
0030
0002
0000
00M0
0003
0200
0000
,  // measure 41
002M
0300
0000
0030
2M00
0000
0000
3000
02M0
0000
000M
0300
M200
0000
0000
0300
,  // measure 42
0M20
0000
2000
0030
000M
3000
0200
0000
00M0
0300
2000
0000
0M00
3000
0020
0000
,  // measure 43
M200
0030
0000
0300
00M2
0000
0000
0003
10M0
0000
0200
0000
M010
0300
0002
0000
,  // measure 44
M100
0003
0020
0000
100M
0030
0200
0000
M010
0300
0002
0000
1M00
0003
0020
0000
,  // measure 45
020M
0030
0020
0300
100M
0030
0100
0000
M011
0000
0000
0000
1M10
0000
0000
0000
,  // measure 46
110M
0100
01M1
0000
0020
0000
0000
0000
,  // measure 47
0130
0000
0000
0000
0000
0000
0000
0000
1000
0000
0010
0000
0001
0000
0010
0000
2000
0000
0000
0000
0100
0000
0000
0000
0010
0000
3000
0000
1000
0000
0100
00M0
,  // measure 48
0100
0000
0001
0000
1000
0000
0000
0000
0010
0000
0000
0000
1000
0000
0000
0000
0002
0000
0000
0000
0010
0000
0000
0000
0100
0000
0003
0000
0001
0000
0010
0M00
,  // measure 49
0010
0000
1000
0000
0001
0000
0000
0000
0010
0000
0000
0000
0010
0000
0000
0000
0002
0000
0000
0000
0100
0000
0000
0000
0010
0000
0003
0000
0001
0000
0100
00M0
,  // measure 50
0100
0000
1000
0000
0001
0000
0000
0000
0010
0000
0000
0000
0001
0000
0000
0000
2000
0000
0000
0000
0010
0000
0000
0000
0100
0000
3000
0000
1000
0000
0010
0M00
,  // measure 51
0010
0001
1000
0000
0100
0000
0100
0000
1000
0000
0010
1000
0100
0000
0010
0000
,  // measure 52
0001
0000
0010
0M00
0010
0000
0000
0000
1010
0000
0000
0000
1000
0000
0000
0000
0001
0000
0000
0000
0100
0000
0001
0000
0010
0000
0000
0000
0100
0000
0000
0000
,  // measure 53
1000
0000
0100
00M0
0100
0000
0000
0000
0101
0000
0000
0000
0001
0000
0000
0000
1100
0000
0000
0000
0000
0000
0000
0000
0110
0000
0000
0000
0000
0000
0001
0000
,  // measure 54
0011
0000
0100
0000
0120
000M
0M00
000M
,  // measure 55
M000
0000
0M00
0000
0M00
000M
M000
0000
1101
0000
0000
0000
0000
0000
0000
0000
,  // measure 56
0000
0000
0030
0000
0110
0000
0100
00M0
0100
0000
0101
0000
0001
0000
1000
0000
,  // measure 57
0100
00M0
0100
0000
0101
0000
0100
00M0
0100
0000
1100
0000
1000
0000
0001
0000
,  // measure 58
0010
0M00
0010
0000
1010
0000
0010
0M00
0010
0000
0011
0000
0001
0000
1000
0000
,  // measure 59
0010
0M00
0010
0000
0011
0000
0010
0M00
0010
0000
1010
0000
1000
0000
0100
0000
,  // measure 60
0010
0M00
0010
0000
0110
0000
0010
0M00
0010
0000
0011
0000
0001
0000
0100
0000
,  // measure 61
0010
0M00
0010
0000
0011
0000
0010
0M00
0010
0000
1010
0000
1000
0000
0010
0000
,  // measure 62
0100
00M0
0100
0000
1100
0000
0100
00M0
0100
0000
0101
0000
0001
0000
0010
0000
,  // measure 63
0100
00M0
0100
0000
0101
0000
0100
00M0
0100
0000
1100
0000
1000
0000
0001
1000
,  // measure 64
0001
0000
0010
0000
0110
0000
0010
0M00
0010
0000
1010
0000
0100
0000
0001
0000
,  // measure 65
0010
0M00
0010
0000
1010
0000
0010
0M00
0010
0000
0011
0000
0100
0000
1000
0000
,  // measure 66
0100
00M0
0100
0000
0101
0000
0100
00M0
0100
0000
1100
0000
0010
0000
0001
0000
,  // measure 67
0100
00M0
0100
0000
1100
0000
0100
00M0
0100
0000
0101
0000
0010
0000
1000
0000
,  // measure 68
0100
00M0
0100
0000
0110
0000
0100
00M0
0100
0000
1100
0000
0010
0000
0001
0000
,  // measure 69
0100
00M0
0100
0000
0110
0000
0100
00M0
0100
0000
0101
0000
0010
0000
1000
0000
,  // measure 70
0010
0M00
0010
0000
0110
0000
0010
0M00
0010
0000
1010
0000
0110
0000
0001
0000
,  // measure 71
0010
0M00
0010
0000
1010
0000
0010
0M00
0010
0000
1001
0000
1001
0000
0100
0000
,  // measure 72
1000
0001
1000
0001
1000
0000
0010
0M00
0010
0000
0011
0000
0010
0M00
0010
1000
,  // measure 73
0001
0000
0100
0000
0101
0000
0100
00M0
0100
0000
1100
0000
0100
00M0
0100
0001
,  // measure 74
1000
0000
0001
0000
0011
0000
0010
0M00
0010
0000
1010
0000
0010
0M00
0010
0001
,  // measure 75
1000
0000
0100
0000
1100
0000
0100
00M0
0100
0000
0101
0000
0100
00M0
0100
1000
,  // measure 76
0001
0000
0100
0000
0110
0000
0100
00M0
0100
0000
1100
0000
0100
00M0
0100
0001
,  // measure 77
1000
0000
0010
0000
1010
0000
0010
0M00
0010
0000
0011
0000
0010
0M00
0010
1000
,  // measure 78
0001
0000
1000
0000
1100
0000
0100
00M0
0100
0000
0101
0000
0100
00M0
0100
1000
,  // measure 79
0001
0000
0010
0000
0011
0000
0010
0M00
0010
0000
1010
0000
0010
0M00
0010
0001
,  // measure 80
1000
0000
0100
0000
0110
0000
0100
00M0
0100
0000
1100
0000
0100
00M0
0100
0001
,  // measure 81
1000
0000
0010
0000
1010
0000
0010
0M00
0010
0000
0011
0000
0010
0M00
0010
1000
,  // measure 82
0001
0000
1000
0000
1100
0000
0100
00M0
0100
0000
0101
0000
0100
00M0
0100
1000
,  // measure 83
0001
0000
0010
0000
0011
0000
0010
0M00
0010
0000
1010
0000
0010
0M00
0010
0001
,  // measure 84
1000
0000
0010
0000
0110
0000
0010
0M00
0010
0000
0011
0000
0010
0M00
0010
1000
,  // measure 85
0001
0000
0100
0000
0110
0000
0100
00M0
0100
0000
1100
0000
0100
00M0
0100
0001
,  // measure 86
1000
0000
0100
0000
0110
0000
0010
0M00
0010
0000
1010
0000
0110
M000
0010
0001
,  // measure 87
1000
0100
0110
1100
00M0
0101
1001
0000
,  // measure 88
0001
1000
0001
1000
0001
0100
0001
0010
0100
1000
0001
0000
1000
0000
0010
1000
,  // measure 89
0100
00M0
0100
0000
1000
0010
1000
0100
0010
0001
1000
0000
0001
0000
0010
0001
,  // measure 90
0100
00M0
0100
0000
0001
0010
0001
0100
0010
1000
0001
0000
1000
0000
0100
1000
,  // measure 91
0010
0M00
0010
0000
1000
0100
1000
0010
0100
0001
1000
0000
0001
0000
0100
0010
,  // measure 92
0100
0000
0001
0000
1000
0100
1000
0001
0100
0001
1000
0000
0010
0000
0010
1000
,  // measure 93
0100
00M0
0100
0000
0001
0010
0001
1000
0010
1000
0001
0000
0100
0000
0100
0001
,  // measure 94
0010
0M00
0010
0000
1000
0010
1000
0001
0010
0001
1000
0000
0001
0000
0001
1000
,  // measure 95
0010
0M00
0010
0000
0001
0100
0001
1000
0100
1000
0001
0000
0010
0000
0100
0010
,  // measure 96
0100
0000
1000
0000
0001
0010
0001
0010
0001
0010
0002
0000
0010
0000
0100
0003
,  // measure 97
0010
0M00
0010
0000
0100
1000
0100
1000
0100
1000
0200
0000
0010
0000
1000
0300
,  // measure 98
0010
0M00
0010
0000
0001
1000
0001
1000
0001
1000
0002
0000
0010
0000
1000
0003
,  // measure 99
0010
0M00
0010
0000
0100
0010
0100
0010
0100
0010
0100
0000
1000
0000
0001
1000
,  // measure 100
0001
0000
0001
0000
1000
0100
1000
0100
1000
0100
2000
0000
0100
0000
0010
3000
,  // measure 101
0100
00M0
0100
0000
0010
0001
0010
0001
0010
0001
0020
0000
0100
0000
0001
0030
,  // measure 102
0100
00M0
0100
0000
1000
0001
1000
0001
1000
0001
2000
0000
0100
0000
0001
3000
,  // measure 103
0100
00M0
0100
0000
0010
0100
0010
0000
0100
0000
1001
0000
1001
0000
0010
0000
,  // measure 104
0001
0100
0010
1000
0001
0000
0010
0000
1000
0000
0010
0000
0001
0000
0100
0000
,  // measure 105
1000
0100
0001
0010
1000
0010
0001
0100
,  // measure 106
0010
0100
0010
0000
1000
0000
0100
0000
0001
0000
0100
0000
1000
0000
0010
0000
,  // measure 107
0001
0010
1000
0100
0001
0100
1000
0010
,  // measure 108
1000
0001
1000
0000
1001
0000
1000
0000
0001
0000
0010
0000
1000
0000
0100
0000
,  // measure 109
1000
0010
0001
1000
0010
0001
0100
0001
,  // measure 110
0010
1000
0001
0100
1000
0010
1000
0100
,  // measure 111
0001
1000
0100
0001
0010
0001
0100
1000
,  // measure 112
0001
1000
0011
0010
0001
1000
1100
1000
,  // measure 113
0001
1000
1010
0010
1000
0001
0101
0001
,  // measure 114
1000
0001
0101
0100
0010
1000
1010
1000
,  // measure 115
0001
1000
1100
0100
0010
0001
0011
0001
,  // measure 116
1001
0000
0001
0000
1000
0001
1000
0001
1000
0001
1000
0001
1000
0001
1000
0001
,  // measure 117
1000
0001
1000
0001
0100
0010
0100
0010
0100
0010
0100
0010
0100
0010
0100
0010
,  // measure 118
0100
0010
0100
0010
1000
0100
0010
0001
1000
0100
0010
0001
1000
0100
0010
0001
,  // measure 119
1000
0100
0010
0001
1000
0010
0100
0001
1000
0010
0100
0001
1000
0010
0100
0001
,  // measure 120
1000
0010
0100
0001
2000
0000
0000
0000
0000
0000
0000
0000
0000
0000
0000
0000
,  // measure 121
0000
0000
0000
0000
,  // measure 122
0000
0000
0000
0000
,  // measure 123
0000
3000
0000
0000
;
