#TITLE:Dignity;
#SUBTITLE:;
#ARTIST:Yooh;
#TITLETRANSLIT:;
#SUBTITLETRANSLIT:;
#ARTISTTRANSLIT:;
#GENRE:;
#CREDIT:;
#BANNER:banner.png;
#BACKGROUND:bg.png;
#LYRICSPATH:;
#CDTITLE:;
#MUSIC:[Round 12] - Dignity.mp3;
#OFFSET:-0.050000;
#SAMPLESTART:74.968002;
#SAMPLELENGTH:13.679000;
#SELECTABLE:YES;
#BPMS:0.000000=193.000000
,85.000000=96.500000
,109.000000=193.000000
;
#STOPS:109.000000=0.622000,
185.000000=0.622000,
189.000000=0.622000,
208.000000=0.622000,
301.000000=0.622000
;
#BGCHANGES:;
#KEYSOUNDS:;
#ATTACKS:;

//---------------dance-single - ----------------
#NOTES:
     dance-single:
     :
     Beginner:
     2:
     0.111387,0.134375,0.024884,0.033179,0.000000,87.000000,3.000000,4.000000,0.000000,0.000000,0.000000,0.111387,0.134375,0.024884,0.033179,0.000000,87.000000,3.000000,4.000000,0.000000,0.000000,0.000000:
0000
0000
0000
0000
,
0000
0000
0000
0000
,
0000
0000
0000
0000
,
0000
0000
0000
0000
,
0000
0000
0000
0000
,
0000
0001
0000
0000
,
0000
0000
0000
0000
,
0000
1000
0000
0000
,
0000
0000
0000
0000
,
0000
0010
0000
0000
,
0000
0000
0000
0000
,
0000
0100
0000
0000
,
0000
0000
0000
0000
,
0000
0001
0000
0000
,
0000
0000
0000
0000
,
0000
1000
0000
0000
,
0000
0000
0000
0000
,
0000
0010
0000
0000
,
0000
0000
0000
0000
,
0000
0100
0000
0000
,
0000
0000
0000
0000
,
0000
0001
0000
0000
,
0010
0000
0000
0100
,
0000
0000
1000
0000
,
0000
0001
0000
0000
,
1000
0000
0000
0010
,
0000
0000
0100
0000
,
0000
0001
0001
0000
,
0000
1000
0000
0000
,
0001
0000
0000
0100
,
0000
0000
0010
0000
,
0000
0010
0000
0000
,
0010
0000
0000
1000
,
0000
0000
0001
0000
,
0000
1000
0000
0000
,
0001
0000
0000
0010
,
0000
0000
0100
0000
,
0000
0100
0000
0000
,
0100
0000
0000
1000
,
0000
0000
0002
0000
,
0000
0003
0000
0000
,
0200
0000
0000
0300
,
0000
0000
0010
0000
,
0000
1000
0000
0000
,
0001
0000
0000
0010
,
0000
0000
0200
0000
,
0000
0300
0020
0000
,
0000
0030
0001
0000
,
0000
0001
0000
0000
,
1000
0000
0000
1000
,
0000
0000
0010
0000
,
0000
0100
0000
0000
,
0000
0001
0000
0000
,
0001
0000
0000
1000
,
0000
0000
1000
0000
,
0000
0010
0000
0000
,
0100
0000
0000
0001
,
0000
0000
1000
0000
,
0000
0100
0000
0000
,
0100
0000
0000
0010
,
0000
0010
0000
0010
,
0000
0000
0100
0000
,
0100
0000
0000
1000
,
0000
0001
0000
0000
,
1000
0000
0000
0010
,
0000
0000
0100
0000
,
0000
0001
0000
0000
,
0001
0000
0000
1000
,
0000
0000
1000
0000
,
0000
0001
0000
0000
,
0010
0000
0000
0100
,
0000
0000
1000
0000
,
0000
1000
0000
0000
,
0010
0000
0000
0100
,
0000
0000
0001
0000
,
0000
1000
0001
0000
,
0000
0000
0000
1000
,
0000
0000
0000
0000
,
0100
0000
0000
0010
,
0000
0000
1001
0000
,
0000
0110
0000
0000
,
1001
0000
0000
0000
;

//---------------dance-single - ----------------
#NOTES:
     dance-single:
     :
     Easy:
     5:
     0.327051,0.537501,0.199074,0.132716,0.000000,236.000000,24.000000,16.000000,0.000000,0.000000,0.000000,0.327051,0.537501,0.199074,0.132716,0.000000,236.000000,24.000000,16.000000,0.000000,0.000000,0.000000:
0000
0000
0000
0000
,
0000
0000
0000
0000
,
0000
0000
0000
0000
,
0000
0000
0000
0000
,
0000
0000
0000
0000
,
0000
0001
0000
1000
,
0000
0001
0000
0100
,
0000
0001
0000
1000
,
0000
0001
0000
0010
,
0000
0100
0000
0001
,
0000
0100
0000
1000
,
0000
0010
0000
0001
,
0000
0010
0000
1000
,
0000
0001
0000
0001
,
0000
1000
0000
1000
,
0000
0100
0000
0010
,
0000
0001
0000
0010
,
0000
0100
0000
1000
,
0000
0010
0000
1000
,
0000
0100
0000
0010
,
0000
0001
1000
0001
,
1000
0002
0000
0203
,
0020
0300
2030
0002
,
3000
0023
0200
0030
,
2300
3001
0001
0001
,
1000
0010
0100
0001
,
1000
0100
0010
0010
,
0010
0001
1000
0000
,
0010
0100
0001
0001
,
1000
0000
0100
0010
,
0001
0001
1000
0000
,
0100
0010
0000
0100
,
1000
0000
0001
0100
,
0100
0100
0001
0000
,
1000
0010
0100
0001
,
1000
0000
0001
0010
,
0100
1000
0001
0000
,
1000
0010
0000
1000
,
0001
0010
0001
1000
,
1000
1000
0020
0000
,
0130
0200
0000
0301
,
0002
0000
1000
2003
,
0000
3100
0020
0000
,
0130
2000
0000
3010
,
0200
0000
0310
2000
,
0000
0000
3001
0010
,
0100
1000
1000
0010
,
0100
0001
1000
1000
,
1000
0001
0001
0001
,
0010
0010
0001
1000
,
0010
1000
0100
0100
,
0100
0110
1100
1001
,
0000
0001
0000
1000
,
0010
0010
0010
1000
,
0000
0001
0010
0010
,
0010
0001
0000
1000
,
0010
0000
1000
0100
,
0000
0010
0001
0001
,
0001
1000
0000
0010
,
0100
0010
1000
0001
,
0010
0100
0100
0100
,
1000
0100
1000
0001
,
0001
0100
0001
0100
,
0001
1000
0000
0100
,
0010
0010
0010
0100
,
0000
1000
0001
0001
,
0001
0100
0000
0010
,
1000
0000
0010
0100
,
0000
0100
0001
0001
,
0001
1000
0100
0010
,
0100
0000
0100
1000
,
0010
0100
0010
0000
,
0010
1000
1000
0001
,
0010
0010
0100
1000
,
0010
0100
0001
0010
,
0100
0000
1000
0000
1001
0000
0000
1001
,
0000
1001
1001
0101
,
0000
0101
0000
0000
0101
0000
0101
0000
,
0110
0110
0110
0110
,
0110
0110
1010
1010
,
0011
0011
1010
1010
,
1001
0000
0000
0000
;

//---------------dance-single - ----------------
#NOTES:
     dance-single:
     :
     Medium:
     8:
     0.528495,0.537501,0.447917,0.182485,0.000000,370.000000,54.000000,22.000000,0.000000,0.000000,0.000000,0.528495,0.537501,0.447917,0.182485,0.000000,370.000000,54.000000,22.000000,0.000000,0.000000,0.000000:
0000
0000
0000
0000
,
0000
0000
0000
0000
,
0000
0000
0000
0000
,
0000
0000
0000
0000
,
0000
0000
0000
0000
,
0000
0001
0100
0010
,
0100
0001
1000
0010
,
1000
0001
0010
0100
,
0010
0001
1000
0010
,
1000
0010
0001
0010
,
0100
0010
0001
0010
,
0100
0001
0010
1000
,
0010
0100
0010
1000
,
0010
0001
1000
0010
,
0100
0001
0010
0100
,
1000
0001
0100
0010
,
0100
0001
0010
0100
,
0010
1000
0010
0100
,
0010
1000
0010
0100
,
1000
0010
0010
0010
,
0010
0000
1000
0000
0001
0000
1000
0001
,
1000
0001
2000
0000
0001
0000
3020
0000
,
0032
1000
0023
2030
,
0001
3200
0302
1000
,
0203
0000
1300
0000
1000
0000
0001
0100
,
0010
0010
0010
1000
,
0100
0000
0010
0001
1000
0000
0010
0000
,
0100
0000
0001
0000
0001
0000
1000
0100
,
0010
0100
1000
0000
1001
0000
0101
0000
,
0001
0000
1000
0010
0100
0010
1000
0000
,
1001
1100
0020
0100
,
0130
0000
0200
0000
1300
0000
1000
0001
,
1000
0010
0100
0001
,
1001
0000
1001
0000
1001
0000
1000
0100
,
0010
0100
1000
0000
1001
0000
0101
0000
,
0001
0000
1000
0010
0100
0010
1000
0000
,
1001
0000
1100
0000
0100
0000
0010
0001
,
0010
0100
1000
0000
0010
0100
0001
0100
,
0010
1000
0001
1001
,
0011
0110
2001
0100
,
0001
3200
0001
0001
,
2300
0010
3020
0230
,
0001
0302
2003
0100
,
0100
3020
0100
0100
,
0230
0001
0001
0302
,
0010
0013
0110
0010
,
0001
1000
1001
0001
,
0100
0010
0110
0010
,
1000
1010
1000
0001
,
1001
0000
0001
1000
0000
1000
0001
0000
,
0010
0100
1000
1000
,
1000
1001
0101
0110
,
0001
0000
1001
0000
1000
0100
0010
0001
,
1000
1010
0101
1001
,
0001
0010
0100
1000
0001
0000
0101
0000
,
1010
0000
1000
0100
0010
0100
1000
0001
,
0100
0000
0100
0000
0100
0000
0001
1000
,
0001
1000
0100
1000
0001
0000
0101
0000
,
0110
0000
1001
0000
1000
0100
0010
0100
,
1000
0000
0001
0000
1001
0000
0001
0100
,
0010
0100
0001
0000
1000
0000
0001
0100
,
0010
1000
0100
0010
0001
0000
1000
0000
,
0001
0010
0100
1000
0010
0100
0001
1000
,
0100
0000
0110
0000
0010
0001
1000
0010
,
0100
0101
1001
0110
,
0100
1000
0001
0100
0010
0000
1100
0000
,
0101
0000
0001
0100
0010
0100
0001
0000
,
1000
0100
0010
0100
1000
0000
0001
0100
,
0010
0100
0001
1000
0100
0000
0110
0000
,
0101
0000
1001
0000
0001
0000
0100
0010
,
0200
0010
0301
1001
,
1000
0000
0100
0010
0200
0000
0010
0000
,
1300
0000
1000
0100
0010
0100
1000
0000
,
1000
0100
0001
0100
1000
0000
0001
0100
,
0010
0100
0001
0100
1000
0100
0001
1000
,
0100
0010
0001
0000
1001
0000
1000
0001
,
0000
0001
1000
0000
1001
0000
0110
0000
,
0010
0100
0000
0100
0010
0000
0110
0000
,
1001
1100
0101
1001
,
0101
0000
1100
0000
0110
0000
0010
0001
,
0000
0001
1000
0000
1000
0010
0000
0010
,
0100
0000
0000
0000
;

//---------------dance-single - ----------------
#NOTES:
     dance-single:
     :
     Hard:
     11:
     0.811702,1.000000,0.074653,0.132716,0.331791,660.000000,9.000000,16.000000,0.000000,0.000000,1.000000,0.811702,1.000000,0.074653,0.132716,0.331791,660.000000,9.000000,16.000000,0.000000,0.000000,1.000000:
// measure 0
0000
0000
0000
0000
,  // measure 1
0000
0000
0000
0000
,  // measure 2
0000
0000
0000
0000
,  // measure 3
0000
0000
0000
0000
,  // measure 4
0000
0000
0000
0000
,  // measure 5
0000
0000
0001
0010
0001
1000
0001
0100
,  // measure 6
0001
1000
0010
1000
0010
0100
0010
1000
,  // measure 7
0010
0100
0001
0010
0001
0100
0001
1000
,  // measure 8
0001
0100
0010
1000
0010
0100
0010
1000
,  // measure 9
0010
0100
1000
0100
0001
0100
1000
0100
,  // measure 10
0001
0100
1000
0100
0010
0100
1000
0100
,  // measure 11
0010
0100
0001
0010
1000
0010
0001
0010
,  // measure 12
1000
0010
0001
0010
0100
0010
0001
0010
,  // measure 13
0100
0010
0001
1000
0010
1000
0001
0010
,  // measure 14
0100
0010
0001
1000
0100
1000
0001
0100
,  // measure 15
0010
0100
0001
1000
0100
0010
0100
0010
,  // measure 16
0100
1000
0001
0100
0010
0100
0010
0100
,  // measure 17
0001
1000
0100
0001
0100
1000
0100
0001
,  // measure 18
0100
1000
0010
0001
0010
1000
0010
0001
,  // measure 19
0010
1000
0001
0001
0010
0010
0100
0100
,  // measure 20
1000
1000
0001
0100
1000
0001
0010
1000
,  // measure 21
0100
0010
0002
0010
0023
0100
0230
2300
,  // measure 22
3002
0100
0203
0010
0320
2030
3002
0010
,  // measure 23
0023
0100
0230
2300
3002
0100
0203
0010
,  // measure 24
0320
1030
0001
1000
0001
0010
0100
0010
,  // measure 25
0001
0100
1000
0100
0001
1000
0001
0010
,  // measure 26
1000
0000
0010
0000
0001
0000
0001
0000
1000
0010
1000
0010
1000
0100
1000
0100
,  // measure 27
0040
0000
0000
0000
0030
0000
0000
0000
0001
0000
0000
0000
0100
0001
0100
0001
,  // measure 28
0100
0010
1000
0100
0001
0100
1000
0001
,  // measure 29
1000
0000
0000
0000
0010
1000
0010
1000
0010
0000
0100
0000
0001
0000
0010
0000
,  // measure 30
1000
0010
0001
1000
0010
0001
0010
0100
,  // measure 31
0010
1000
0100
0001
0100
0010
0100
1000
,  // measure 32
1000
0000
0001
0100
0000
0010
1000
0000
,  // measure 33
1100
0000
0000
0000
0101
0000
0000
0000
1001
0000
0000
0000
0001
0100
0001
0100
,  // measure 34
0001
0100
0010
0001
0010
1000
0010
1000
,  // measure 35
0001
0000
0000
0000
1000
0010
1000
0010
1000
0000
0010
0000
0100
0000
0001
0000
,  // measure 36
0100
1000
0100
0001
1000
0000
0100
0001
,  // measure 37
0100
1000
0001
0010
0001
0100
0001
1000
,  // measure 38
0010
0000
0001
0000
0010
0000
1000
0000
0100
0000
0001
0000
0100
1000
0100
1000
,  // measure 39
0100
0100
1000
1000
0001
0100
1000
0100
,  // measure 40
0001
0010
0001
0010
1000
0010
0001
0100
,  // measure 41
0010
0001
0010
1000
0100
1000
0001
0100
,  // measure 42
1000
0100
0001
0010
0001
0100
0010
0001
,  // measure 43
0010
0100
0001
0010
0100
0001
0100
0010
,  // measure 44
0001
0000
1000
0010
0000
0110
0000
0101
,  // measure 45
0000
0001
1000
0100
1000
0010
0001
1000
,  // measure 46
0100
0001
1000
0000
0001
0010
1000
0001
,  // measure 47
0100
1000
0001
0000
1000
1000
0010
0010
,  // measure 48
0100
0100
0001
0001
0010
0010
0100
0100
,  // measure 49
1000
1000
0001
1000
1000
0010
0100
0100
,  // measure 50
0001
0001
1000
1000
0010
0001
0010
1000
,  // measure 51
0100
0001
0100
0100
1000
1000
0001
0001
,  // measure 52
1001
0000
0000
0000
0101
0000
0000
0000
0001
0100
0010
0100
0001
0000
1000
0000
,  // measure 53
0100
0001
0100
1000
0010
1000
0001
0000
,  // measure 54
1000
0100
0010
0100
1000
0000
0010
0000
0001
0000
0010
0000
1000
0000
0100
0000
,  // measure 55
1000
0001
0100
0100
0010
0010
1000
0001
,  // measure 56
0010
0000
0100
0000
0010
0000
1000
0000
0010
0000
0001
0000
1000
0010
1000
0010
,  // measure 57
1000
0010
1000
0010
1000
0010
1000
0010
1000
0000
0100
0000
0001
0000
0100
0000
,  // measure 58
1000
0001
0100
0010
0001
0010
1000
0001
,  // measure 59
0010
0100
0010
0100
0001
0100
1000
0010
,  // measure 60
0100
0001
0010
1000
0010
0001
1000
1000
,  // measure 61
0010
0010
0100
0100
1000
0000
0101
0000
,  // measure 62
0001
0001
0010
0010
0100
0100
0001
0000
,  // measure 63
1100
0000
0000
0000
1000
0000
0010
0000
0001
0010
0001
0010
0001
0000
0010
0000
,  // measure 64
1000
0100
0001
0100
1000
0100
1000
0100
,  // measure 65
0001
0100
0001
0100
0001
0000
0100
0000
1000
0000
0010
0000
0001
0000
0010
0000
,  // measure 66
1000
0010
1000
0100
0001
0100
0010
0100
,  // measure 67
0001
0000
0100
0000
1000
0000
0010
0000
0100
0000
0001
0000
1000
0001
1000
0001
,  // measure 68
1000
0100
1000
0100
0010
0100
0010
0100
0010
0000
0010
0000
0100
0000
0100
0000
,  // measure 69
1000
1000
0001
0100
1000
0100
1000
0001
,  // measure 70
1000
0100
0001
1000
0010
1000
0001
0010
,  // measure 71
1000
0010
0100
0010
1000
0001
1000
0010
,  // measure 72
0100
0000
1000
0000
0001
0100
0001
0100
0001
0100
0001
0100
0001
0100
0001
0100
,  // measure 73
0001
1000
0100
1000
0100
1000
0100
1000
0100
1000
0100
1000
0010
0100
0010
0100
,  // measure 74
0010
0100
0010
0100
0010
0100
0010
0100
0010
0000
0010
0000
0001
0000
0001
0000
,  // measure 75
1000
0000
0100
0000
0001
0000
0000
0000
1000
0001
1000
0001
1000
0000
0001
0100
,  // measure 76
0001
0100
0001
0000
0100
0010
0100
0010
0100
0001
0100
0001
1000
0001
1000
0001
,  // measure 77
1000
0000
0001
0010
0001
0010
0001
0000
0010
0100
0010
0100
0010
0001
0010
0001
,  // measure 78
1000
0010
0001
1000
0100
0001
1000
0100
,  // measure 79
0001
0000
1000
0000
0010
0000
0001
0000
1000
0001
1000
0001
1000
0001
1000
0001
,  // measure 80
1000
0001
1000
0001
1000
0001
1000
0001
1000
0001
1000
0001
1000
0001
1000
0001
,  // measure 81
2000
0000
0000
0000
,  // measure 82
0000
0000
0000
0000
,  // measure 83
3000
0000
0000
0000
;

//---------------dance-single - ----------------
#NOTES:
     dance-single:
     :
     Challenge:
     12:
     0.907684,1.000000,0.240548,0.223959,0.555749,710.000000,29.000000,27.000000,0.000000,0.000000,5.000000,0.907684,1.000000,0.240548,0.223959,0.555749,710.000000,29.000000,27.000000,0.000000,0.000000,5.000000:
// measure 0
0000
0000
0000
0000
,  // measure 1
0000
0000
0000
0000
,  // measure 2
0000
0000
0000
0000
,  // measure 3
0000
0000
0000
0000
,  // measure 4
0000
0000
0000
0000
,  // measure 5
0000
0000
0001
1000
0010
1000
0100
1000
,  // measure 6
0010
0000
1000
0000
0001
0000
1000
0000
0010
0000
0100
0010
0100
0010
0100
0000
,  // measure 7
0001
0000
0100
0000
0001
0000
1000
0000
0001
0000
0010
0001
0010
0001
0010
0000
,  // measure 8
0100
1000
0001
0100
0001
0010
0001
1000
,  // measure 9
0001
0010
0100
1000
0100
0010
0100
1000
,  // measure 10
0100
0000
0001
0000
0100
0000
1000
0000
0100
0000
0001
0100
0001
0100
0001
0000
,  // measure 11
0100
0000
1000
0000
0010
0000
0001
0000
0010
0000
0100
0010
0100
0010
0100
0000
,  // measure 12
0010
0001
1000
0001
0010
0001
0010
1000
,  // measure 13
0100
1000
0001
0100
0010
0100
0001
0010
,  // measure 14
0100
0000
0010
0000
0001
0000
1000
0000
0010
0000
0100
0010
0100
0010
0100
0000
,  // measure 15
0010
0000
1000
0000
0100
0000
0010
0000
0100
0000
1000
0001
1000
0001
1000
0000
,  // measure 16
0001
0100
0010
0100
0001
0010
0100
0010
,  // measure 17
0001
0000
1000
0000
0010
0100
0010
0100
0010
1000
0010
1000
0001
1000
0001
1000
,  // measure 18
0001
0010
0001
0010
0100
0010
0100
0010
0001
0010
0001
0010
0001
1000
0001
1000
,  // measure 19
0010
1000
0010
1000
0010
0000
0010
0000
0100
0000
0100
0000
0001
0000
0001
0000
,  // measure 20
1000
0000
1000
0000
0001
0010
0100
1000
0001
0100
0010
1000
0001
0100
0010
0400
,  // measure 21
0004
0003
0302
0010
0203
1300
0002
0023
,  // measure 22
2030
0001
0010
0100
3020
0032
2003
0010
,  // measure 23
3200
0001
2300
3020
0032
1000
0010
0100
,  // measure 24
0023
0000
2030
0000
3001
0000
1000
0001
1000
0000
0001
0000
0100
0000
0010
0000
,  // measure 25
0110
0010
1010
1000
1001
0001
0011
0101
,  // measure 26
1100
0000
1010
0000
0011
0000
1001
0000
1000
0010
0100
0001
1000
0100
0010
0001
,  // measure 27
1000
0100
1000
0100
0010
0100
0010
0100
0020
0000
0000
0000
0000
0000
0000
0000
0031
0000
0000
0000
1000
0000
0000
0000
0001
0000
0100
0000
0010
0000
0100
0000
,  // measure 28
0001
0100
0010
0010
1000
1000
0001
0001
,  // measure 29
0010
0000
0001
0000
1000
0010
0100
0010
1000
0000
0010
0000
0100
0000
0100
0000
,  // measure 30
0001
0001
1000
1000
0100
1000
0100
0001
,  // measure 31
0100
1000
0010
0001
0010
1000
0001
0001
,  // measure 32
1000
0100
0010
0001
0010
1000
0001
0001
,  // measure 33
0100
0000
0100
0000
1000
0000
1000
0000
0001
0000
1000
0000
0001
0100
0010
0100
,  // measure 34
0010
1000
0001
0001
0010
0010
1000
1000
,  // measure 35
0010
0000
0001
0000
1000
0010
0100
0010
0100
0000
0001
0000
1000
0000
1000
0000
,  // measure 36
0100
0100
0001
0001
0100
1000
0010
0001
,  // measure 37
0010
1000
0001
1000
0100
0001
0100
1000
,  // measure 38
0010
0000
0010
0000
0100
0000
0100
0000
0001
0000
0001
0000
1000
0100
0010
0001
,  // measure 39
1000
0010
0100
0001
1000
0001
1000
0001
2000
0000
0000
0000
0010
0000
0010
0000
,  // measure 40
0100
0100
3002
0000
0100
0100
0010
0010
,  // measure 41
0023
0000
0001
0001
2030
0000
3020
0000
,  // measure 42
0001
0001
0230
0000
2300
0000
0001
0001
,  // measure 43
0010
3010
0200
0000
0010
0010
1000
1000
,  // measure 44
0301
0000
0100
1000
0000
1100
0000
1001
,  // measure 45
0000
0001
0100
1000
0100
0010
0100
0010
,  // measure 46
0001
0000
0000
1000
0000
0000
0002
0003
0000
0000
0000
0000
0010
0000
0000
0100
0000
0000
0001
0000
0000
0010
0000
0000
,  // measure 47
0100
0000
0000
0001
0000
0000
2000
3000
0000
0000
0000
0000
0010
0000
0000
0010
0000
0000
0010
0000
0000
0010
0000
0000
,  // measure 48
0010
0000
0010
0000
0001
0000
0001
0000
0001
1000
0001
1000
0001
0000
0001
0000
,  // measure 49
1000
0100
1000
0000
0001
0000
0100
0001
0100
0000
0001
0000
0010
0001
0010
0000
,  // measure 50
0001
1000
0010
1000
0000
0000
0100
0000
0110
0000
0010
0000
0110
0000
0100
0000
,  // measure 51
0110
0010
0110
0110
0101
0101
1001
1001
,  // measure 52
0000
0000
0000
0000
0001
0000
1000
0000
0010
0100
0001
0010
0100
0000
1000
0000
,  // measure 53
0001
0100
1000
0100
0001
1000
0001
0010
,  // measure 54
0100
1000
0010
0100
0001
0000
1000
0000
0001
0000
0010
0000
1000
0000
0010
0000
,  // measure 55
0001
1000
1000
0010
0100
1000
0100
0010
,  // measure 56
1000
0000
0100
0000
0001
0000
0100
0000
1000
0000
0001
0000
0100
0001
0010
0001
,  // measure 57
0100
0010
0100
0001
0010
0100
1000
0001
1000
0000
1000
0000
0010
0000
0010
0000
,  // measure 58
1000
1000
0001
0010
0100
1000
0010
1000
,  // measure 59
0100
0100
1000
1000
0001
0100
0010
1000
,  // measure 60
0100
0010
0100
1000
0001
0100
0010
0010
,  // measure 61
0100
0100
0010
0010
0200
0000
0301
0000
,  // measure 62
0001
0000
0001
0000
1000
0000
1000
0000
0001
0000
0001
0000
1000
0100
1000
0100
,  // measure 63
1000
0000
1000
0000
1001
0000
1000
0000
0001
0100
0010
1000
0100
0000
0010
0000
,  // measure 64
1000
0010
0001
0010
1000
0010
0001
1000
,  // measure 65
0001
0100
0010
1000
0001
0000
0100
0000
0010
0000
0001
0000
0010
0000
1000
0000
,  // measure 66
0010
0001
0010
1000
0100
0001
0100
1000
,  // measure 67
0001
0000
0100
0000
1000
0000
0100
0000
0001
0000
1000
0000
0100
0010
0001
1000
,  // measure 68
0010
0100
0001
0010
0100
1000
0010
0100
0010
0000
0010
0000
1000
0000
1000
0000
,  // measure 69
0001
0001
0010
0001
1000
0010
0001
0010
,  // measure 70
1000
0100
0010
0100
1000
0001
0100
0010
,  // measure 71
0001
0010
0100
0001
0010
1000
0010
0001
,  // measure 72
0100
0000
0010
0000
1000
0001
1000
0001
1000
0100
1000
0100
0010
0100
0010
0100
,  // measure 73
0010
0001
0010
0001
1000
0001
1000
0001
1000
0010
1000
0010
0100
0001
0010
0100
,  // measure 74
1000
0010
0100
0001
0100
0010
1000
0010
4000
0000
0000
0000
3004
0000
0000
0000
,  // measure 75
4003
0000
0000
0000
3001
0000
0000
0000
1001
0000
0001
1000
0001
0000
1001
0000
,  // measure 76
1000
0010
0100
0000
0110
0000
0100
0000
0101
0000
0001
0000
1001
0000
1000
0100
,  // measure 77
0010
0000
0110
0000
0010
0001
1000
0000
1001
0000
1000
0000
1010
0000
0010
0000
,  // measure 78
0100
0001
1000
0100
1000
0001
0100
0010
1000
0100
0010
0001
,  // measure 79
1000
0000
0000
0000
0010
0000
0000
0000
0001
0000
0000
0000
0010
0000
0000
0000
1000
0000
0000
0000
0001
0000
0000
0000
0010
0000
0000
0001
0000
0000
0010
0000
0000
0001
0000
0000
0010
0000
0000
0001
0000
0000
0010
0000
0000
0001
0000
0000
,  // measure 80
0010
0001
0010
0001
0010
0001
0010
0001
0010
0001
0010
0001
0010
0001
0010
0001
,  // measure 81
2000
0000
0000
0000
,  // measure 82
0000
0000
0000
0000
,  // measure 83
3000
0000
0000
0000
;
