#VERSION:0.81;
#TITLE:Ramp!;
#SUBTITLE:(The Logical Song);
#ARTIST:Scooter;
#TITLETRANSLIT:;
#SUBTITLETRANSLIT:;
#ARTISTTRANSLIT:;
#GENRE:;
#ORIGIN:;
#CREDIT:;
#BANNER:banner.png;
#BACKGROUND:bg.png;
#PREVIEWVID:;
#JACKET:jacket.png;
#CDIMAGE:;
#DISCIMAGE:;
#LYRICSPATH:;
#CDTITLE:;
#MUSIC:[Round 11] - Ramp! (The Logical Song).ogg;
#OFFSET:0.010000;
#SAMPLESTART:73.335114;
#SAMPLELENGTH:13.333336;
#SELECTABLE:YES;
#BPMS:0.000=144.000;
#STOPS:;
#DELAYS:;
#WARPS:;
#TIMESIGNATURES:0.000=4=4;
#TICKCOUNTS:0.000=4;
#COMBOS:0.000=1;
#SPEEDS:0.000=1.000=0.000=0;
#SCROLLS:0.000=1.000;
#FAKES:;
#LABELS:0.000=Song Start;
#BGCHANGES:;
#KEYSOUNDS:;
#ATTACKS:
;

//---------------dance-single - ----------------
#NOTEDATA:;
#CHARTNAME:;
#STEPSTYPE:dance-single;
#DESCRIPTION:;
#CHARTSTYLE:;
#DIFFICULTY:Beginner;
#METER:1;
#RADARVALUES:0.105203,0.115266,0.008005,0.000000,0.000000,91.000000,1.000000,0.000000,0.000000,0.000000,0.000000,0.000000,0.000000,0.105203,0.115266,0.008005,0.000000,0.000000,91.000000,1.000000,0.000000,0.000000,0.000000,0.000000,0.000000,0.000000;
#CREDIT:;
#OFFSET:0.000000;
#BPMS:0.000000=144.000000
;
#STOPS:;
#DELAYS:;
#WARPS:;
#TIMESIGNATURES:0.000000=4=4
;
#TICKCOUNTS:0.000000=4
;
#COMBOS:0.000000=1
;
#SPEEDS:0.000000=1.000000=0.000000=0
;
#SCROLLS:0.000000=1.000000
;
#FAKES:;
#LABELS:0.000000=Song Start
;
#NOTES:
// measure 0
0000
0000
0000
0000
,  // measure 1
0000
0000
0000
0000
,  // measure 2
0000
0000
0000
0000
,  // measure 3
0000
0000
0000
0000
,  // measure 4
0000
0000
0000
0000
,  // measure 5
0010
0000
0000
0000
,  // measure 6
1000
0000
0001
0000
,  // measure 7
0000
0000
0010
0000
,  // measure 8
0000
0000
0100
0000
,  // measure 9
1000
0000
0000
0000
,  // measure 10
0001
0000
0000
0000
,  // measure 11
1000
0000
0010
0000
,  // measure 12
0000
0000
0010
0000
,  // measure 13
0000
0000
1000
0000
,  // measure 14
0100
0000
0000
0000
,  // measure 15
0010
0000
0000
0000
,  // measure 16
0001
0000
0100
0000
,  // measure 17
0000
0000
0100
0000
,  // measure 18
0000
0000
0001
0000
,  // measure 19
1000
0000
0000
0000
,  // measure 20
0100
0000
0000
0000
,  // measure 21
0000
0000
0000
0000
,  // measure 22
0000
0000
0000
0000
,  // measure 23
0000
0000
0000
0000
,  // measure 24
0001
0000
0000
0000
,  // measure 25
1000
0000
0000
0000
,  // measure 26
0001
0000
0000
0000
,  // measure 27
1000
0000
0000
0000
,  // measure 28
0010
0000
0000
0000
,  // measure 29
0100
0000
0000
0000
,  // measure 30
0001
0000
0000
0000
,  // measure 31
1000
0000
0000
0000
,  // measure 32
0100
0000
0000
0000
,  // measure 33
0010
0000
0000
0000
,  // measure 34
0001
0000
0000
0000
,  // measure 35
0100
0000
0000
0000
,  // measure 36
0010
0000
1000
0000
,  // measure 37
0010
0000
0100
0000
,  // measure 38
0010
0000
1000
0000
,  // measure 39
0001
0000
0001
0000
,  // measure 40
0010
0000
0001
0000
,  // measure 41
0010
0000
0100
0000
,  // measure 42
0010
0000
0001
0000
,  // measure 43
1000
0000
0010
0000
,  // measure 44
1000
0000
0001
0000
,  // measure 45
0010
0000
0001
0000
,  // measure 46
1000
0000
0001
0000
,  // measure 47
0100
0000
0001
0000
,  // measure 48
0001
0000
1000
0000
,  // measure 49
0010
0000
1000
0000
,  // measure 50
0001
0000
1000
0000
,  // measure 51
0100
0000
1000
0000
,  // measure 52
0001
0000
0000
0000
,  // measure 53
0100
0000
0010
0000
,  // measure 54
0000
0000
0010
0000
,  // measure 55
0000
0000
0100
0000
,  // measure 56
0001
0000
0000
0000
,  // measure 57
1000
0000
0000
0000
,  // measure 58
0100
0000
0010
0000
,  // measure 59
0000
0000
0010
0000
,  // measure 60
0000
0000
0100
0000
,  // measure 61
1000
0000
0000
0000
,  // measure 62
0001
0000
0000
0000
,  // measure 63
0001
0000
0001
0000
,  // measure 64
1000
0000
0001
0000
,  // measure 65
0010
0000
0100
0000
,  // measure 66
1000
0000
0010
0000
,  // measure 67
0100
0000
0001
0000
,  // measure 68
1001
0000
0000
0000
,  // measure 69
0000
0000
0100
0000
,  // measure 70
0000
0000
0100
0000
,  // measure 71
0000
0000
1000
0000
,  // measure 72
0001
0000
0000
0000
;

//---------------dance-single - ----------------
#NOTEDATA:;
#CHARTNAME:;
#STEPSTYPE:dance-single;
#DESCRIPTION:;
#CHARTSTYLE:;
#DIFFICULTY:Hard;
#METER:8;
#RADARVALUES:0.535165,0.788854,0.216124,0.184106,0.232134,418.000000,27.000000,23.000000,0.000000,0.000000,0.000000,0.000000,0.000000,0.535165,0.788854,0.216124,0.184106,0.232134,418.000000,27.000000,23.000000,0.000000,0.000000,0.000000,0.000000,0.000000;
#CREDIT:;
#NOTES:
0000
0000
0000
0000
,
0000
0000
0000
0000
,
0000
0000
0000
0000
,
0000
0000
0000
0000
,
0000
0000
0000
0000
0000
0000
0001
1000
,
0001
1000
0100
1000
0000
1000
0100
0010
,
0001
1000
0010
0000
0020
0000
1030
0000
,
2000
0000
3100
1000
0200
0000
0310
0000
,
0010
0002
0000
0000
1003
0010
0100
0000
,
0001
0010
0100
0000
0100
0000
0100
1000
,
0001
0000
0000
0100
0000
0000
0100
0000
0001
0000
0000
0000
0100
0000
0001
0000
,
1000
0000
0000
0100
0000
0000
0100
0000
1000
0000
0010
0000
0100
0000
0000
0000
,
0200
0000
0301
1000
0001
0010
0100
0000
,
0100
1000
0000
1000
0010
0100
0001
0000
,
0010
0100
1000
0000
1000
0000
0001
0100
,
0001
0000
0000
0010
0000
0000
0100
0000
1000
0000
0000
0000
1000
0000
0010
0000
,
1000
0000
0000
0100
0000
0000
0010
0000
0001
0000
0100
0000
0010
0000
0000
0000
,
0020
0000
1030
0001
1000
0100
0010
0000
,
0010
0001
0000
0001
0100
0010
1000
0000
,
0100
0010
0001
0000
0001
0000
1001
0000
,
2000
0000
0000
0000
,
0000
0000
0000
0000
,
0000
0000
0000
0000
,
0000
0000
0000
0000
,
3010
1000
0010
1000
,
0001
0010
0001
0010
,
0100
1000
0100
1000
,
0001
0100
0001
0101
,
0001
0000
1000
0000
0100
0000
0010
0100
0000
1000
0000
0001
0100
0000
0001
0000
,
1000
0000
0010
0000
0100
0000
0001
0010
0000
0001
0000
0100
0010
0000
1000
0000
,
0001
0000
0010
0000
0100
0000
1000
0010
0000
1000
0000
0100
0010
0000
0001
0000
,
0100
0001
1000
0010
0100
0001
0010
0100
,
1000
0000
0001
0000
0010
0000
0100
0010
0000
0001
0000
1000
0010
0000
1000
0000
,
0001
0000
0100
0000
0010
0000
1000
0100
0000
1000
0000
0010
0100
0000
0001
0000
,
0011
0100
1010
0100
,
0011
0101
1010
1001
,
1000
0010
0100
0010
0001
0010
0100
0001
,
0010
0001
0010
1000
0010
0001
0100
1000
,
0001
0010
0100
0001
1000
0100
0010
1000
,
0001
1000
0010
0100
1000
0001
0100
0010
,
1000
0100
0001
0100
0010
0100
0001
0100
,
1000
0010
0001
0010
0100
0010
0001
0010
,
1000
0100
0010
0001
1000
0010
1000
0010
,
1000
0010
0100
0001
0010
0002
2000
0003
,
3001
0100
0010
0000
0100
0000
0001
0010
0000
0001
0000
0100
0010
0000
1000
0000
,
0100
1000
0010
0000
0100
0000
0010
1000
0000
0100
0000
1000
0010
0000
0100
0000
,
0001
0010
0100
0000
0010
0000
0100
1000
0000
0010
0000
0100
0001
0000
0010
0000
,
0100
1000
0001
0100
0010
0100
0001
1000
,
0100
1000
0100
1000
0100
0000
1000
0001
0000
0100
0000
0001
0100
0001
0100
0001
,
0100
0001
0100
0001
0100
0000
0010
1000
0000
0001
0000
0010
0001
0010
0001
0010
,
0001
0010
0001
0010
0001
0000
1000
0010
0000
0100
0000
0001
0010
0000
0100
0000
,
0010
0100
0010
0100
0010
0100
0010
0100
0010
0001
0010
0001
0010
0001
0010
0001
,
1000
0001
1000
0001
0000
1000
0100
0010
,
0001
0100
0001
0000
2000
0000
0100
0000
,
3002
0000
0103
0001
2000
0000
0010
0000
,
3001
0010
0001
0010
0100
1000
0001
0000
,
0100
0001
1000
0000
0001
0000
1000
0100
,
1000
0001
1000
0001
0000
1000
0010
0100
,
0001
0010
0100
0000
0200
0000
1000
0000
,
2300
0000
3001
1000
0002
0000
0100
0003
,
0001
2000
0000
3000
1000
0100
0010
0000
,
0001
0100
0010
0000
0020
0000
1030
0000
,
2000
0000
3001
1000
0001
0000
1000
0010
,
0110
0110
0110
0110
,
0101
0101
1001
1100
,
1001
0101
1001
1010
,
1001
0011
1001
1100
,
1001
0000
1010
0000
1001
0000
0001
1000
,
0020
0000
0000
0000
0000
0000
0130
0001
,
1000
0100
0010
0000
0002
0000
0000
0000
,
0003
0000
0000
0010
0200
0000
0000
0000
,
0300
1000
0000
1000
0002
0000
0000
0000
,
2000
0000
0000
0000
,
3003
0000
0000
0000
;

//---------------dance-single - ----------------
#NOTEDATA:;
#CHARTNAME:;
#STEPSTYPE:dance-single;
#DESCRIPTION:;
#CHARTSTYLE:;
#DIFFICULTY:Easy;
#METER:3;
#RADARVALUES:0.251573,0.233735,0.008005,0.272157,0.000000,185.000000,1.000000,34.000000,0.000000,0.000000,0.000000,0.000000,0.000000,0.251573,0.233735,0.008005,0.272157,0.000000,185.000000,1.000000,34.000000,0.000000,0.000000,0.000000,0.000000,0.000000;
#CREDIT:;
#NOTES:
0000
0000
0000
0000
,
0000
0000
0000
0000
,
0000
0000
0000
0000
,
0000
0000
0000
0000
,
0000
0000
0000
0000
,
0002
0000
0000
0000
,
2003
0000
3020
0000
,
0100
0000
0230
0000
,
0010
0000
0302
0000
,
2000
0000
3003
0000
,
0001
0010
0001
0000
,
1000
1000
0020
0030
,
2000
3000
0002
0003
,
0020
0030
0200
0300
,
0200
0300
1000
0001
,
1000
0100
1000
0001
,
1000
0010
0200
0300
,
0002
0003
2000
3000
,
0200
0300
0020
0030
,
0020
0030
0100
1000
,
0001
0000
0000
0000
,
0000
0000
0000
0000
,
0000
0000
0000
0000
,
0000
0000
0000
0000
,
0001
0000
0001
0000
,
1000
0000
1000
0000
,
0001
0000
1000
0000
,
0001
1000
0001
1000
,
0010
0010
1000
0001
,
0010
0010
0001
1000
,
0010
0100
0010
1000
,
0001
0001
1000
1000
,
0001
0001
0010
0100
,
1000
1000
0010
0100
,
0001
1000
0001
0010
,
0100
0100
0010
0010
,
0001
0100
0001
1000
,
0001
0010
0001
1000
,
0010
0010
0100
0010
,
1000
1000
0010
0100
,
0001
0100
0001
0010
,
0001
1000
0001
0010
,
0001
0100
0010
1000
,
0001
0010
0100
1000
,
0001
0001
0100
0010
,
0100
0100
0010
0100
,
0001
0001
1000
0100
,
0010
0100
1000
0001
,
1000
1000
0010
0100
,
0010
0010
0100
0010
,
1000
1000
0100
0010
,
0100
1000
0001
0100
,
0002
0000
0000
0000
,
2003
0000
3200
0000
,
0300
0000
0200
0000
,
0300
0000
2000
3000
,
0002
0000
0000
0003
,
1000
0000
0001
0000
,
0100
0000
0020
0030
,
2000
3000
0002
0003
,
0020
0030
0200
0300
,
0200
0300
1000
0000
,
1000
0000
1001
0000
,
0010
0010
0010
0000
,
0100
0100
0001
1000
,
0001
1000
0100
1000
,
0100
1000
0010
0100
,
0001
0010
0001
0100
,
0010
0000
0000
0000
,
0010
0000
2000
0000
,
3000
0000
0002
0000
,
0003
0000
0200
0000
,
0020
0000
0000
0000
,
0330
0000
0000
0000
;

//---------------dance-single - ----------------
#NOTEDATA:;
#CHARTNAME:;
#STEPSTYPE:dance-single;
#DESCRIPTION:;
#CHARTSTYLE:;
#DIFFICULTY:Medium;
#METER:7;
#RADARVALUES:0.419670,0.525903,0.080046,0.280161,0.072041,322.000000,10.000000,35.000000,0.000000,0.000000,0.000000,0.000000,0.000000,0.419670,0.525903,0.080046,0.280161,0.072041,322.000000,10.000000,35.000000,0.000000,0.000000,0.000000,0.000000,0.000000;
#CREDIT:;
#NOTES:
0000
0000
0000
0000
,
0000
0000
0000
0000
,
0000
0000
0000
0000
,
0000
0000
0000
0000
,
0000
0000
0000
0000
,
0001
0010
0001
0010
,
0001
1000
0020
0130
,
0200
0310
0020
1030
,
1000
0002
0000
0000
1003
0000
0001
0000
,
0010
0000
0001
0000
1000
0000
0001
1000
,
0001
0000
0100
0000
0010
0000
1000
0001
,
1000
0100
0020
0130
,
0200
0310
0002
0013
,
0001
0100
0000
0100
0010
0000
1000
0000
,
0100
1000
0001
1001
,
1000
0010
0100
0010
,
1000
0001
0020
0130
,
0200
0310
0020
0031
,
0010
0001
0000
0001
0200
0000
0310
0000
,
2000
3001
1000
1001
,
0002
0000
0000
0000
,
0000
0000
0000
0000
,
0000
0000
0000
0000
,
0000
0000
0000
0000
,
1003
0010
0000
0010
,
1000
0100
0000
0100
,
1000
0010
0000
0010
,
0100
0001
0000
1001
,
0001
0100
0001
1000
0001
1000
0010
1000
,
0100
1000
0100
0010
0100
0010
0001
0010
,
0001
0100
0001
0100
0010
0100
0010
1000
,
0001
0010
0100
1000
0001
0100
0010
1000
,
0001
0100
0010
0100
0001
0100
0010
1000
,
0001
0010
0100
0010
0001
0010
0100
1000
,
0002
0003
2000
3000
,
0002
2003
3001
1001
,
1000
0100
0010
0100
1000
0001
0100
0001
,
1000
0010
0100
0010
1000
0001
0010
0001
,
1000
0010
1000
0010
0100
0001
0100
0001
,
0010
0001
1000
0100
0010
0001
1000
0100
,
1000
0001
0100
0001
0010
0001
0100
0001
,
1000
0010
0100
0010
1000
0010
0100
0010
,
1000
0100
0010
0100
1000
0100
0010
0100
,
1000
0001
0010
0100
1000
0002
2000
3003
,
0001
0000
0100
0000
0010
0000
1000
0100
0000
1000
0000
0100
1000
0000
0001
0000
,
0100
0000
0010
0000
1000
0000
0100
0010
0000
0100
0000
0010
0100
0000
1000
0000
,
0001
0000
0100
0000
0010
0000
1000
0001
0000
0010
0000
0001
1000
0000
0010
0000
,
0100
0001
0100
0001
0010
0001
0010
0001
,
1000
0000
0010
0000
0100
0000
0001
0010
0000
0001
0000
0010
0001
0000
0100
0000
,
0010
0000
1000
0000
0100
0000
1000
0010
0000
1000
0000
0010
1000
0000
0100
0000
,
0010
0000
0001
0000
0100
0000
0010
0100
0000
0010
0000
0100
0001
0000
0010
0000
,
0100
0010
0100
0010
0001
0010
0001
1000
,
0020
0000
0000
0000
,
2030
0000
3002
0000
,
0000
0000
0023
0000
,
0000
0000
0230
0000
,
2300
0000
0000
0000
,
3001
0100
0001
0100
,
0010
0100
0002
0013
,
0020
0031
0002
1003
,
1000
0020
0000
0000
1030
0000
0100
0000
,
1000
0010
0100
0001
,
1000
0000
0001
1000
0001
0000
0010
0000
,
0100
0100
0100
0100
,
0010
0001
1001
0010
,
1001
0010
1001
0100
,
1001
0100
1010
0001
,
0011
0000
1000
0000
0010
0000
0010
0100
,
0002
0000
0000
0000
,
0023
0000
0230
0000
,
0000
0000
0320
0000
,
0000
0000
0032
0000
,
2000
0000
0000
0000
,
3003
0000
0000
0000
;
