#TITLE:Kirkhope;
#SUBTITLE:;
#ARTIST:Danny Baranowsky;
#TITLETRANSLIT:;
#SUBTITLETRANSLIT:;
#ARTISTTRANSLIT:;
#GENRE:;
#CREDIT:Loodee;
#BANNER:kirkhope-bn.png;
#BACKGROUND:kirkhope-bg.png;
#LYRICSPATH:;
#CDTITLE:loodeecdtitle.png;
#MUSIC:Kirkhope.ogg;
#OFFSET:0.054;
#SAMPLESTART:109.652;
#SAMPLELENGTH:12.000;
#SELECTABLE:YES;
#BPMS:0.000=105.000;
#STOPS:;
#BGCHANGES:;
#KEYSOUNDS:;

//---------------dance-single - Loodee----------------
#NOTES:
     dance-single:
     Loodee:
     Hard:
     10:
     0.966,1.000,0.377,1.000,0.926:
0000
0000
0000
0000
,
0000
0000
0000
0000
,
0000
0000
0000
0000
,
0000
0000
0000
0000
,
1000
0000
1010
0000
0000
0001
0011
0000
,
0010
0000
0000
0010
0000
0000
1001
0000
0000
0000
0000
0000
0000
0000
1000
0010
0000
0000
0110
0000
0000
0000
0000
0000
,
0001
0000
1100
0000
0000
0100
0110
0000
,
0001
0000
0000
0001
0000
0000
1010
0000
0000
0000
0000
0000
0000
0000
1000
0001
0000
0000
0011
0000
0000
0000
0000
0000
,
0001
0000
0011
0000
0000
1000
1001
0000
,
0001
0000
0000
0001
0000
0000
0101
0000
0000
0000
0000
0000
0000
0000
0001
0100
0000
0000
0110
0000
0000
0000
0000
0000
,
1000
0000
0011
0000
0000
0010
0110
0000
,
1000
0000
0000
1000
0000
0000
1100
0000
0000
0000
0000
0000
0000
0000
0001
1000
0000
0000
1010
0000
0000
0000
0000
0000
,
0002
0000
0000
0000
0000
0000
0000
0000
0000
0000
0000
0000
0000
0000
0000
0003
0010
0000
0000
0000
0000
0000
0000
0000
0100
0000
0000
0000
0000
0000
0000
0000
0000
0000
0000
0000
0000
0000
0000
0000
0000
0000
0000
0000
0000
0000
0000
0000
1001
0000
0000
0000
0000
0000
0000
0000
0000
0000
0000
0000
0000
0000
0000
0000
1000
0000
0000
0000
0000
0000
0000
0000
0200
0000
0000
0000
0000
0000
0000
0000
0000
0000
0000
0000
0000
0000
0000
0000
0000
0000
0000
0000
0000
0000
0000
0000
0310
0000
0000
0000
0000
0000
0000
0000
0000
0000
0000
0000
0000
0000
0000
0000
0000
0000
0000
0000
0000
0000
0000
0000
0001
0000
0000
0000
0000
0000
0000
0000
0000
0000
0000
0000
0000
0000
0000
0000
0000
0000
0000
0000
0000
0000
0000
0000
0100
0000
0000
0000
0000
0000
0000
0000
0001
0000
0000
0000
0000
0000
0000
0000
0100
0000
0000
0000
0000
0000
0000
0000
0001
0000
0000
0000
0000
0000
0000
0000
0000
0000
0000
0000
0000
0000
0000
0000
0000
0000
0000
0000
0000
0000
0000
0000
,
2000
0000
0000
0000
0000
0000
0000
0000
0000
0000
0000
0000
0000
0000
0000
3000
0010
0000
0000
0000
0000
0000
0000
0000
1000
0000
0000
0000
0000
0000
0000
0000
0000
0000
0000
0000
0000
0000
0000
0000
0001
0000
0000
0000
0000
0000
0000
0000
0000
0000
0000
0000
0000
0000
0000
0000
0000
0000
0000
0000
0000
0000
0000
0000
1000
0000
0000
0000
0000
0000
0000
0000
0200
0000
0000
0000
0000
0000
0000
0000
0000
0000
0000
0000
0000
0000
0000
0000
0000
0000
0000
0000
0000
0000
0000
0000
0310
0000
0000
0000
0000
0000
0000
0000
0000
0000
0000
0000
0000
0000
0000
0000
0000
0000
0000
0000
0000
0000
0000
0000
0200
0000
0000
0000
0000
0000
0000
0000
0000
0000
0000
0000
0000
0000
0000
0000
0000
0000
0000
0000
0000
0000
0000
0000
0302
0000
0000
0000
0000
0000
0000
0000
0000
0000
0000
0000
0000
0000
0000
0000
0000
0000
0000
0000
0000
0000
0000
0000
0203
0000
0000
0000
0000
0000
0000
0000
0000
0000
0000
0000
0000
0000
0000
0000
0000
0000
0000
0000
0000
0000
0000
0000
,
2300
0000
0000
3020
0000
0000
0130
0000
0001
0100
0000
0000
0020
0000
0000
0032
0000
0000
2003
0000
0000
3200
0000
0000
,
0302
0000
0000
0000
0000
0000
0000
0000
0000
0000
0000
0000
0000
0000
0000
0003
1000
0000
0000
0000
0000
0000
0000
0000
0100
0000
0000
0000
0000
0000
0000
0000
0000
0000
0000
0000
0000
0000
0000
0000
1000
0000
0000
0000
0000
0000
0000
0000
0000
0000
0000
0000
0000
0000
0000
0000
0000
0000
0000
0000
0000
0000
0000
0000
0001
0000
0000
0000
0000
0000
0000
0000
0020
0000
0000
0000
0000
0000
0000
0000
0000
0000
0000
0000
0000
0000
0000
0000
0000
0000
0000
0000
0000
0000
0000
0000
2030
0000
0000
0000
0000
0000
0000
0000
0000
0000
0000
0000
0000
0000
0000
3000
0010
0000
0000
0000
0000
0000
0000
0000
0100
0000
0000
0000
0000
0000
0000
0000
0000
0000
0000
0000
0000
0000
0000
0000
1000
0000
0000
0000
0000
0000
0000
0000
0100
0000
0000
0000
0000
0000
0000
0000
0000
0000
0000
0000
0000
0000
0000
0000
1000
0000
0000
0000
0000
0000
0000
0000
0001
0000
0000
0000
0000
0000
0000
0000
0000
0000
0000
0000
0000
0000
0000
0000
0100
0000
0000
0000
0000
0000
0000
0000
,
0002
0000
0000
1003
0000
0000
1200
0000
0000
0300
0000
0020
0000
0000
0000
2030
0000
0000
3020
0000
0000
0032
0000
0000
,
2003
0000
0000
0000
0000
0000
0000
0000
0000
0000
0000
0000
0000
0000
0000
0000
0000
0000
0000
0000
0000
0000
0000
0000
3010
0000
0000
0000
0000
0000
0000
0000
0000
0000
0000
0000
0000
0000
0000
0000
0000
0000
0000
0000
0000
0000
0000
0000
0020
0000
0000
0000
0000
0000
0000
0000
0000
0000
0000
0000
0000
0000
0000
0030
0001
0000
0000
0000
0000
0000
0000
0000
0000
0000
0000
0000
0000
0000
0000
0000
0000
0000
0000
0000
0000
0000
0000
0000
0020
0000
0000
0000
0000
0000
0000
0000
0000
0000
0000
0000
0000
0000
0000
0000
0000
0000
0000
0000
0000
0000
0000
0000
0000
0000
0000
0000
0000
0000
0000
0000
2030
0000
0000
0000
0000
0000
0000
0000
0000
0000
0000
0000
0000
0000
0000
0000
0000
0000
0000
0000
0000
0000
0000
0000
3100
0000
0000
0000
0000
0000
0000
0000
0000
0000
0000
0000
0000
0000
0000
0000
0010
0000
0000
0000
0000
0000
0000
0000
0002
0000
0000
0000
0000
0000
0000
0000
0000
0000
0000
0000
0000
0000
0000
0000
0000
0000
0000
0000
0000
0000
0000
0000
,
2003
0000
0000
0000
0000
0000
0000
0000
0000
0000
0000
0000
0000
0000
0000
3000
0010
0000
0000
0000
0000
0000
0000
0000
0200
0000
0000
0000
0000
0000
0000
0000
0000
0000
0000
0000
0000
0000
0000
0300
0001
0000
0000
0000
0000
0000
0000
0000
2000
0000
0000
0000
0000
0000
0000
0000
0000
0000
0000
0000
0000
0000
0000
3000
0010
0000
0000
0000
0000
0000
0000
0000
0200
0000
0000
0000
0000
0000
0000
0000
0000
0000
0000
0000
0000
0000
0000
0300
0001
0000
0000
0000
0000
0000
0000
0000
2000
0000
0000
0000
0000
0000
0000
0000
0000
0000
0000
0000
0000
0000
0000
3000
0100
0000
0000
0000
0000
0000
0000
0000
0020
0000
0000
0000
0000
0000
0000
0000
0000
0000
0000
0000
0000
0000
0000
0030
0001
0000
0000
0000
0000
0000
0000
0000
0020
0000
0000
0000
0000
0000
0000
0000
0000
0000
0000
0000
0000
0000
0000
0000
0000
0000
0000
0000
0000
0000
0000
0000
0230
0000
0000
0000
0000
0000
0000
0000
0000
0000
0000
0000
0000
0000
0000
0000
0000
0000
0000
0000
0000
0000
0000
0000
,
2300
0000
0000
0000
0000
0000
0000
0000
0000
0000
0000
0000
0000
0000
0000
3000
0001
0000
0000
0000
0000
0000
0000
0000
0200
0000
0000
0000
0000
0000
0000
0000
0000
0000
0000
0000
0300
0000
0000
0000
0010
0000
0000
0000
0000
0000
0000
0000
0200
0000
0000
0000
0000
0000
0000
0000
0000
0000
0000
0000
0300
0000
0000
0000
0001
0000
0000
0000
0000
0000
0000
0000
0020
0000
0000
0000
0000
0000
0000
0000
0000
0000
0000
0000
0000
0000
0000
0030
0100
0000
0000
0000
0000
0000
0000
0000
2000
0000
0000
0000
0000
0000
0000
0000
0000
0000
0000
0000
0000
0000
0000
3000
0100
0000
0000
0000
0000
0000
0000
0000
1000
0000
0000
0000
0000
0000
0000
0000
0000
0000
0000
0000
0000
0000
0000
0000
0002
0000
0000
0000
0000
0000
0000
0000
0000
0000
0000
0000
0000
0000
0000
0000
0000
0000
0000
0000
0000
0000
0000
0000
0103
0000
0000
0000
0000
0000
0000
0000
0002
0000
0000
0000
0000
0000
0000
0000
0000
0000
0000
0000
0000
0000
0000
0003
0010
0000
0000
0000
0000
0000
0000
0000
,
0100
0000
1000
0100
0000
1000
0001
0000
0000
1000
0000
0000
0010
0000
0000
1000
0000
0000
1100
0000
0000
0001
0000
0010
,
0100
0000
0000
0010
0000
0001
1000
0000
0000
0001
0000
0000
1000
0000
0000
0010
0000
1000
0001
0000
0000
1001
0000
0001
,
0010
0000
0100
1000
0000
0100
1000
0000
0000
0010
0000
0000
0100
0000
0000
0010
0000
0000
0101
0000
0000
1000
0000
0100
,
0010
0000
0001
1000
0000
0001
1000
0000
0000
0010
0000
0100
0001
0000
0010
0100
0000
0010
0001
0000
1000
0010
0000
0000
,
0100
0000
0000
0000
0001
0000
1000
0000
0000
0000
0000
0000
1010
0000
0000
0000
1000
0000
0001
0000
0000
0000
1000
0000
0001
0000
0000
0000
0010
0000
0100
0000
0000
0000
1000
0100
1000
0000
0000
0000
0000
0000
0001
0000
0000
0000
0000
0000
,
0100
0000
0000
0000
0000
0000
0000
0000
0000
0000
0000
0000
0000
0000
0000
0010
0000
0000
0000
0000
0000
0000
0000
0000
0100
0000
0000
0000
0000
0000
0000
0000
0000
0000
0000
0000
0000
0000
0000
0000
0000
0000
0000
0000
0000
0000
0000
0000
0101
0000
0000
0000
0000
0000
0000
0000
0000
0000
0000
0000
0000
0000
0000
0000
0001
0000
0000
0000
0000
0000
0000
0000
1000
0000
0000
0000
0000
0000
0000
0000
0000
0000
0000
0000
0000
0000
0000
0000
0100
0000
0000
0000
0000
0000
0000
0000
1000
0000
0000
0000
0000
0000
0000
0000
0000
0000
0000
0000
0000
0000
0000
0000
0100
0000
0000
0000
0000
0000
0000
0000
1000
0000
0000
0000
0000
0000
0000
0000
0000
0000
0000
0000
0000
0000
0000
0000
0001
0000
0000
0000
0100
0000
0000
0000
0001
0000
0000
0000
0000
0000
0000
0000
0000
0000
0000
0000
0000
0000
0000
0000
1000
0000
0000
0000
0000
0000
0000
0000
0001
0000
0000
0000
0000
0000
0000
0000
0000
0000
0000
0000
0000
0000
0000
0000
1000
0000
0000
0000
0000
0000
0000
0000
,
0100
0000
0000
0000
0010
0000
0100
0000
0000
0000
0000
0000
1001
0000
0000
0000
1000
0000
0010
0000
0000
0000
0100
0000
0010
0000
0000
0000
1000
0000
0010
0000
0000
0000
1000
0001
1000
0000
0000
0000
0000
0000
0100
0000
0000
0000
0000
0000
,
0010
0000
0000
0000
0001
0000
0100
0000
0000
0000
0000
0000
0010
0000
0000
0000
1000
0000
0100
0000
0000
0000
1000
0000
0010
0000
0000
0000
1000
0000
0001
0000
0000
0000
0100
0010
0100
0000
0000
0000
0001
0000
1000
0000
0000
0000
0000
0000
,
0002
0000
0000
0000
,
0200
0000
0000
0000
0000
0000
0000
0003
,
2000
0000
0000
0000
0000
0000
0000
0300
,
0002
0000
0000
0000
0000
0000
0000
3000
,
0200
0000
0000
0000
0000
0000
0000
0003
,
0020
0000
0000
0000
0000
0000
0000
0300
,
0002
0000
0000
0030
2000
0000
0000
0003
,
0020
0000
0000
0000
,
0000
3030
0000
0000
,
1000
0000
0001
0100
0000
0001
0010
0000
0000
0100
0000
0000
1000
0000
0000
0100
0000
0000
0010
0000
0000
0100
0000
0000
,
1000
0000
0001
0100
0000
0010
0001
0000
0000
0010
0000
0000
0100
0000
0000
0001
0000
0000
0010
0000
0000
0001
0000
0000
,
1000
0000
0001
0100
0000
0010
1000
0000
0001
0100
0000
0010
0100
0000
0000
0001
0000
0000
0010
0000
0000
0100
0000
0000
,
1000
0000
0100
0010
0000
0001
1000
0000
0001
1000
0000
0000
0010
0000
0000
0100
0000
0000
0010
0000
0000
1000
0000
0000
,
0001
0000
1000
0001
0000
1000
0100
0000
0010
0001
1000
0010
1000
0000
0100
0010
0000
0001
0010
0000
0001
0100
0010
0100
,
0010
0000
1000
0100
0000
1000
0010
0000
1000
0001
0010
0100
1000
0000
0100
1000
0000
0001
1000
0000
0100
0010
0001
0010
,
0100
0000
1000
0001
0000
0000
0101
0000
0000
2000
0000
0000
3000
0000
0000
0010
0000
0000
1001
0000
1000
0100
0000
0010
,
0001
0000
1000
0010
0000
0000
0110
0000
0000
0002
0000
0000
0203
0000
0000
0320
0000
0000
1030
0000
0001
0010
0000
0001
,
1000
0000
0100
1000
0000
0000
1001
0000
0000
0002
0000
0000
0003
0000
0000
1000
0000
0000
1010
0000
0010
0100
0000
0001
,
0100
0000
0001
1000
0000
0001
1000
0000
0000
0100
0010
0001
0010
0000
0010
0000
0001
0000
4000
0000
0000
0000
0000
0000
,
3002
0000
0203
0000
0320
0000
2030
0000
3002
0000
0023
0000
0230
0000
2300
0000
3200
0000
1300
0000
0001
0100
0001
0100
,
0001
0000
0000
1000
0000
0000
1100
0000
0100
0010
0000
0000
0001
0000
0000
0100
0000
0000
0010
1000
0010
1000
0000
0000
,
0001
0000
0010
0100
0000
0000
0110
0000
0010
0001
0000
1000
0001
0000
0100
0010
0000
0000
1010
0000
1000
0001
0000
0000
,
1000
0000
0000
0100
0000
0000
1001
0000
0001
0100
0000
0000
0010
0000
0000
1000
0000
0000
0001
0010
0001
0010
0000
0000
,
0100
0000
1000
0100
0000
0000
1100
0000
1000
0001
0000
0000
0100
0000
0010
0100
0000
0000
0101
0000
0001
1000
0000
0000
,
2000
0000
0000
0000
0000
0000
0000
0000
0000
0000
0000
0000
0000
0000
0000
3000
0100
0000
0000
0000
0000
0000
0000
0000
0010
0000
0000
0000
0000
0000
0000
0000
0000
0000
0000
0000
0000
0000
0000
0000
0000
0000
0000
0000
0000
0000
0000
0000
1001
0000
0000
0000
0000
0000
0000
0000
0000
0000
0000
0000
0000
0000
0000
0000
0001
0000
0000
0000
0000
0000
0000
0000
0020
0000
0000
0000
0000
0000
0000
0000
0000
0000
0000
0000
0000
0000
0000
0000
0000
0000
0000
0000
0000
0000
0000
0000
0130
0000
0000
0000
0000
0000
0000
0000
0000
0000
0000
0000
0000
0000
0000
0000
0000
0000
0000
0000
0000
0000
0000
0000
1000
0000
0000
0000
0000
0000
0000
0000
0000
0000
0000
0000
0000
0000
0000
0000
0000
0000
0000
0000
0000
0000
0000
0000
0010
0000
0000
0000
0000
0000
0000
0000
1000
0000
0000
0000
0000
0000
0000
0000
0001
0000
0000
0000
0000
0000
0000
0000
1000
0000
0000
0000
0000
0000
0000
0000
0000
0000
0000
0000
0000
0000
0000
0000
0000
0000
0000
0000
0000
0000
0000
0000
,
0002
0000
0000
0000
0000
0000
0000
0000
0000
0000
0000
0000
0000
0000
0000
0003
0100
0000
0000
0000
0000
0000
0000
0000
0001
0000
0000
0000
0000
0000
0000
0000
0000
0000
0000
0000
0000
0000
0000
0000
1000
0000
0000
0000
0000
0000
0000
0000
0000
0000
0000
0000
0000
0000
0000
0000
0000
0000
0000
0000
0000
0000
0000
0000
0001
0000
0000
0000
0000
0000
0000
0000
0020
0000
0000
0000
0000
0000
0000
0000
0000
0000
0000
0000
0000
0000
0000
0000
0000
0000
0000
0000
0000
0000
0000
0000
0130
0000
0000
0000
0000
0000
0000
0000
0000
0000
0000
0000
0000
0000
0000
0000
0000
0000
0000
0000
0000
0000
0000
0000
0020
0000
0000
0000
0000
0000
0000
0000
0000
0000
0000
0000
0000
0000
0000
0000
0000
0000
0000
0000
0000
0000
0000
0000
2030
0000
0000
0000
0000
0000
0000
0000
0000
0000
0000
0000
0000
0000
0000
0000
0000
0000
0000
0000
0000
0000
0000
0000
3020
0000
0000
0000
0000
0000
0000
0000
0000
0000
0000
0000
0000
0000
0000
0000
0000
0000
0000
0000
0000
0000
0000
0000
,
0032
0000
0000
0203
0000
0000
0310
0000
1000
0010
0000
0000
0200
0000
0000
2300
0000
0000
3002
0000
0000
0023
0000
0000
,
2030
0000
0000
0000
0000
0000
0000
0000
0000
0000
0000
0000
0000
0000
0000
3000
0001
0000
0000
0000
0000
0000
0000
0000
0010
0000
0000
0000
0000
0000
0000
0000
0000
0000
0000
0000
0000
0000
0000
0000
0001
0000
0000
0000
0000
0000
0000
0000
0000
0000
0000
0000
0000
0000
0000
0000
0000
0000
0000
0000
0000
0000
0000
0000
1000
0000
0000
0000
0000
0000
0000
0000
0200
0000
0000
0000
0000
0000
0000
0000
0000
0000
0000
0000
0000
0000
0000
0000
0000
0000
0000
0000
0000
0000
0000
0000
0302
0000
0000
0000
0000
0000
0000
0000
0000
0000
0000
0000
0000
0000
0000
0003
0100
0000
0000
0000
0000
0000
0000
0000
0010
0000
0000
0000
0000
0000
0000
0000
0000
0000
0000
0000
0000
0000
0000
0000
0001
0000
0000
0000
0000
0000
0000
0000
0010
0000
0000
0000
0000
0000
0000
0000
0000
0000
0000
0000
0000
0000
0000
0000
0001
0000
0000
0000
0000
0000
0000
0000
1000
0000
0000
0000
0000
0000
0000
0000
0000
0000
0000
0000
0000
0000
0000
0000
0010
0000
0000
0000
0000
0000
0000
0000
,
2000
0000
0000
3001
0000
0000
0021
0000
0000
0030
0000
0200
0000
0000
0000
0302
0000
0000
0203
0000
0000
2300
0000
0000
,
3002
0000
0000
0000
0000
0000
0000
0000
0000
0000
0000
0000
0000
0000
0000
0000
0000
0000
0000
0000
0000
0000
0000
0000
0103
0000
0000
0000
0000
0000
0000
0000
0000
0000
0000
0000
0000
0000
0000
0000
0000
0000
0000
0000
0000
0000
0000
0000
0200
0000
0000
0000
0000
0000
0000
0000
0000
0000
0000
0000
0000
0000
0000
0300
1000
0000
0000
0000
0000
0000
0000
0000
0000
0000
0000
0000
0000
0000
0000
0000
0000
0000
0000
0000
0000
0000
0000
0000
0200
0000
0000
0000
0000
0000
0000
0000
0000
0000
0000
0000
0000
0000
0000
0000
0000
0000
0000
0000
0000
0000
0000
0000
0000
0000
0000
0000
0000
0000
0000
0000
0302
0000
0000
0000
0000
0000
0000
0000
0000
0000
0000
0000
0000
0000
0000
0000
0000
0000
0000
0000
0000
0000
0000
0000
0013
0000
0000
0000
0000
0000
0000
0000
0000
0000
0000
0000
0000
0000
0000
0000
0100
0000
0000
0000
0000
0000
0000
0000
2000
0000
0000
0000
0000
0000
0000
0000
0000
0000
0000
0000
0000
0000
0000
0000
0000
0000
0000
0000
0000
0000
0000
0000
,
3002
0000
0000
0000
0000
0000
0000
0000
0000
0000
0000
0000
0000
0000
0000
0003
0100
0000
0000
0000
0000
0000
0000
0000
0020
0000
0000
0000
0000
0000
0000
0000
0000
0000
0000
0000
0000
0000
0000
0030
1000
0000
0000
0000
0000
0000
0000
0000
0002
0000
0000
0000
0000
0000
0000
0000
0000
0000
0000
0000
0000
0000
0000
0003
0100
0000
0000
0000
0000
0000
0000
0000
0020
0000
0000
0000
0000
0000
0000
0000
0000
0000
0000
0000
0000
0000
0000
0030
1000
0000
0000
0000
0000
0000
0000
0000
0002
0000
0000
0000
0000
0000
0000
0000
0000
0000
0000
0000
0000
0000
0000
0003
0010
0000
0000
0000
0000
0000
0000
0000
0200
0000
0000
0000
0000
0000
0000
0000
0000
0000
0000
0000
0000
0000
0000
0300
1000
0000
0000
0000
0000
0000
0000
0000
0002
0000
0000
0000
0000
0000
0000
0000
0000
0000
0000
0000
0000
0000
0000
0000
0000
0000
0000
0000
0000
0000
0000
0000
0023
0000
0000
0000
0000
0000
0000
0000
0000
0000
0000
0000
0000
0000
0000
0000
0000
0000
0000
0000
0000
0000
0000
0000
,
0032
0000
0000
0000
0000
0000
0000
0000
0000
0000
0000
0000
0000
0000
0000
0003
1000
0000
0000
0000
0000
0000
0000
0000
0020
0000
0000
0000
0000
0000
0000
0000
0000
0000
0000
0000
0030
0000
0000
0000
0100
0000
0000
0000
0000
0000
0000
0000
0020
0000
0000
0000
0000
0000
0000
0000
0000
0000
0000
0000
0030
0000
0000
0000
1000
0000
0000
0000
0000
0000
0000
0000
0200
0000
0000
0000
0000
0000
0000
0000
0000
0000
0000
0000
0000
0000
0000
0300
0010
0000
0000
0000
0000
0000
0000
0000
0002
0000
0000
0000
0000
0000
0000
0000
0000
0000
0000
0000
0000
0000
0000
0003
0010
0000
0000
0000
0000
0000
0000
0000
0001
0000
0000
0000
0000
0000
0000
0000
0000
0000
0000
0000
0000
0000
0000
0000
2000
0000
0000
0000
0000
0000
0000
0000
0000
0000
0000
0000
0000
0000
0000
0000
0000
0000
0000
0000
0000
0000
0000
0000
3010
0000
0000
0000
0000
0000
0000
0000
2000
0000
0000
0000
0000
0000
0000
0000
0000
0000
0000
0000
0000
0000
0000
3000
0100
0000
0000
0000
0000
0000
0000
0000
,
0020
0000
0000
0000
,
0030
0000
0000
0000
;

//---------------dance-single - Loodee----------------
#NOTES:
     dance-single:
     Loodee:
     Medium:
     6:
     0.740,0.900,0.509,1.000,0.046:
0000
0000
0000
0000
,
0000
0000
0000
0000
,
0000
0000
0000
0000
,
0000
0000
0000
0000
,
0001
0000
1001
0000
0000
1000
1100
0000
,
0010
0010
0011
0000
0000
0001
0101
0000
,
1000
0000
1010
0000
0000
0001
0011
0000
,
0100
0100
1001
0000
0000
1000
1001
0000
,
1000
0000
0110
0000
0000
0001
0011
0000
,
0100
0100
1100
0000
0000
1000
1010
0000
,
0001
0000
0101
0000
0000
1000
1100
0000
,
0010
0010
1001
0000
0000
0001
1001
0000
,
0002
0103
0110
2000
3000
0001
0200
0301
,
0020
0130
1100
2000
3000
0002
0203
2300
,
3200
0320
0130
0002
0023
2030
3020
0032
,
0203
0301
1001
0200
0320
0130
1001
0001
,
0200
0000
0000
0310
0000
0000
2010
0000
0000
3000
0000
0002
0000
0000
0000
0023
0000
0000
0230
0000
0000
0320
0000
0000
,
0032
0000
0000
1003
0000
0000
0201
0000
0000
0300
0000
0020
0000
0000
0000
2030
0000
0000
3200
0000
0000
0320
0000
0000
,
0032
0203
2300
3002
0023
2030
3002
2003
,
3200
0000
0000
0320
0000
0000
0230
0000
0000
0302
0000
0000
0203
0000
0000
0300
0000
2000
0000
0000
0000
3001
0000
0000
,
0101
0100
0010
1000
0001
0010
0110
0100
,
1000
0001
0100
0010
1000
0010
0110
0110
,
1000
0100
0010
0001
0100
0001
0101
1000
,
0001
0000
0000
0100
0000
0000
0010
0000
0000
0100
0000
0000
0010
0000
1000
0001
0000
1000
0001
0000
0000
0010
0000
0000
,
0010
0001
0100
0001
1000
0100
0110
0010
,
0001
1000
0010
0100
0001
0100
1001
1000
,
0001
0010
0100
1000
0010
1000
1010
0001
,
1000
0010
0100
0010
0100
1000
1000
0100
,
0002
0000
0000
0000
,
0023
0000
0000
0000
,
0230
0000
0000
0000
,
2300
0000
0000
0000
,
3020
0000
0000
0000
,
0230
0000
0000
0000
,
0320
0000
2000
0000
,
0032
0000
0000
0000
,
0000
0000
0000
3003
,
0001
0100
0001
1000
0010
1000
0100
0010
,
0001
0010
0100
1000
0010
0100
0010
1000
,
0001
0010
0001
0100
0001
0010
0100
1000
,
0001
0100
0010
1000
0010
0100
0001
0100
,
0010
1000
0100
0010
0100
1000
0001
0100
,
0010
0100
0001
1000
0100
0010
0100
0100
,
1002
0003
0101
0020
0030
0200
2300
3200
,
0320
0030
1001
2000
3200
0320
0230
2300
,
3002
0003
0011
2000
3000
0002
0203
0320
,
1030
0000
0001
1000
0000
0000
1001
0000
0000
0002
0000
0000
0023
0000
0000
2030
0000
0000
3020
0000
0000
0230
0000
0000
,
2300
0000
0001
0000
0001
0000
0001
3000
,
0101
0100
0110
0010
1000
0100
1010
1000
,
0001
0001
0011
0000
1000
1000
1010
0010
,
0100
0001
1001
1000
0100
0010
0011
0000
,
1000
1000
1100
0000
0001
0100
0101
0001
,
2000
3010
0110
0002
0003
1000
0020
1030
,
0200
0310
0011
0002
0003
2000
3020
0032
,
0023
0230
0310
2000
3200
0302
0203
2300
,
3020
1030
1001
0020
0230
0310
1001
1000
,
0020
0000
0000
0130
0000
0000
0102
0000
0000
0003
0000
2000
0000
0000
0000
3200
0000
0000
0320
0000
0000
0230
0000
0000
,
2300
0000
0000
3001
0000
0000
1020
0000
0000
0030
0000
0200
0000
0000
0000
0302
0000
0000
0023
0000
0000
0230
0000
0000
,
2300
3020
0032
2003
3200
0302
2003
3002
,
0023
0000
0000
0230
0000
0000
0320
0000
0000
2030
0000
0000
3020
0000
0000
0030
0000
0002
0000
0000
0000
1003
0000
0000
,
0200
0000
0000
0000
,
0300
0000
0000
0000
;

//---------------dance-single - Loodee----------------
#NOTES:
     dance-single:
     Loodee:
     Easy:
     4:
     0.486,0.838,0.061,0.825,0.000:
0000
0000
0000
0000
,
0000
0000
0000
0000
,
0000
0000
0000
0000
,
0000
0000
0000
0000
,
1000
0000
1001
0000
0000
0001
1000
0000
,
0001
0100
0001
0000
0000
1000
0010
0000
,
0100
0000
1001
0000
0000
0001
0010
0000
,
1000
0100
1000
0000
0000
0001
0100
0000
,
0001
0000
0011
0000
0000
1000
0001
0000
,
1000
0100
0010
0000
0000
0001
1000
0000
,
0010
0000
0110
0000
0000
0001
1000
0000
,
0100
0010
0100
0000
0000
1000
0001
0000
,
2000
0010
3010
0000
0100
0001
1000
0000
,
0200
0010
0310
0000
0001
0100
0010
0000
,
2000
0010
3001
0000
0020
0100
0130
0000
,
1000
0001
0100
0000
0002
2003
3002
2003
,
3200
0310
0200
0300
0000
2000
3020
0230
,
0302
0103
0002
0003
0000
2000
3200
0320
,
0032
0203
0302
0203
0320
2030
3020
2030
,
3002
0023
0230
0320
0032
0003
1000
0000
,
1001
0000
0001
0000
0100
0010
0100
0000
,
0001
0000
1000
0000
0100
0010
0001
0000
,
1000
0000
0010
0000
0100
0001
0100
0000
,
0001
0000
1000
0000
0100
1000
0001
1000
,
0001
0000
0100
0000
0010
1000
0010
0000
,
1000
0000
0100
0000
0010
0001
0010
0001
,
1000
0000
0010
0000
0100
0001
0100
0000
,
0001
0000
1000
0000
0100
0010
0001
0010
,
0200
0000
0000
0000
,
2300
0000
0000
0000
,
3002
0000
0000
0000
,
0203
0000
0000
0000
,
0320
0000
0000
0000
,
2030
0000
0000
0000
,
3002
0000
0203
0000
,
0320
0000
0000
0000
,
0000
0000
0000
0000
,
2030
0000
0000
0000
,
0000
0000
0000
0000
,
3002
0000
0000
0000
,
0000
0000
0000
0000
,
2003
0000
0000
0000
,
3001
0100
0010
1000
,
1100
0000
0100
0020
0030
0010
0100
1000
,
0001
0000
0100
0020
0230
0320
1030
0000
,
0001
0000
1000
0200
0300
0100
1000
0000
,
0010
0100
0001
1000
0001
1000
0001
1000
,
0002
0000
0000
0000
,
1003
0100
0010
0000
0000
0100
1000
0000
,
0001
0100
0010
0000
1000
0010
1000
0010
,
1000
0000
0100
0000
0000
0010
0001
1000
,
0001
0000
0100
0010
1000
0010
1000
0000
,
0002
0100
0103
0000
0010
1000
0001
0000
,
0020
0100
0130
0000
1000
0010
0100
0000
,
0002
0100
1003
0000
0200
0010
0310
0000
,
0001
1000
0010
0000
2000
3002
2003
3002
,
0023
0130
0020
0030
0000
0002
0203
0320
,
2030
3010
2000
3000
0000
0002
0023
0230
,
2300
3020
2030
3020
0230
0302
0203
0302
,
2003
3200
0320
0230
2300
3000
0001
0000
,
0200
0000
0000
0000
,
0300
0000
0000
0000
;
