#TITLE:Chinese Restaurant;
#SUBTITLE:;
#ARTIST:Memme;
#TITLETRANSLIT:;
#SUBTITLETRANSLIT:;
#ARTISTTRANSLIT:;
#GENRE:;
#CREDIT:;
#BANNER:cr_bn.png;
#BACKGROUND:cr_bg1.png;
#LYRICSPATH:;
#CDTITLE:;
#MUSIC:Chinese Restaurant.ogg;
#OFFSET:0.283000;
#SAMPLESTART:94.123100;
#SAMPLELENGTH:12.000000;
#SELECTABLE:YES;
#BPMS:0.000000=175.000000
;
#STOPS:
;
#BGCHANGES:116.000=cr_bg2.png=0.500=1=0=1===CrossFade==,
148.000=cr_bg3.png=0.500=1=0=1===CrossFade==,
212.000=cr_bg4.png=0.500=1=0=1===CrossFade==,
244.000=cr_bg5.png=0.500=1=0=1===CrossFade==,
276.000=cr_bg6.png=0.500=1=0=1===CrossFade==,
310.000=photo.PNG=2.000=0=0=1==photo.PNG=CrossFade_Fastest==,
313.500=cr_bg1.png=1.800=0=0=1==cr_bg1.png=FadeDown==,
99999=-nosongbg-=1.000=0=0=0 // don't automatically add -songbackground-
;
#KEYSOUNDS:;
#ATTACKS:;

//---------------dance-single - ----------------
#NOTES:
     dance-single:
     :
     Challenge:
     10:
     0.940820,0.930905,0.264891,0.191818,0.680496,671.000000,29.000000,21.000000,0.000000,0.000000,0.000000,0.940820,0.930905,0.264891,0.191818,0.680496,671.000000,29.000000,21.000000,0.000000,0.000000,0.000000:
0000
0000
0000
0000
,
0000
0000
0000
0000
,
0000
0000
0000
0000
,
0000
0000
0000
0000
,
0000
0000
0000
0000
0000
0000
0000
0000
0000
0000
0000
0000
0000
0000
1000
0001
,
0200
0000
0000
0000
0320
0000
0000
0000
0130
0000
0001
0010
0100
0000
1000
0000
,
0010
0000
0100
0001
0010
0000
0100
0000
1000
0000
0001
1000
0010
0000
0100
0000
,
0002
0000
0000
0000
0023
0000
0000
0000
0130
0000
1000
0001
0100
0000
0020
0000
,
0000
0000
0130
0001
1000
0010
0100
0001
1000
0000
0001
0000
1000
0000
0000
0000
,
0020
0000
0000
0000
0230
0000
0000
0000
0301
1000
0010
0000
0100
0000
0002
0000
,
0000
0000
0013
0000
0001
1000
0100
0000
1000
0000
0010
0100
0001
1000
0100
0000
,
0011
0000
0100
0010
1000
0000
0100
0000
1100
0000
1000
0001
0100
0000
0110
0000
,
0000
0000
0010
0100
0001
0000
0010
0100
1000
0000
0000
0010
0100
0000
0101
0000
,
0000
0010
1000
0001
0010
0100
1000
1001
,
0000
0001
0100
0010
0100
0001
0010
0100
,
1100
0000
0001
0100
0010
1000
0100
0010
0001
0000
0100
0010
0100
0001
1000
0000
,
0100
0000
1000
0010
0100
0000
0010
1000
0001
0010
0001
1000
0100
0000
1100
0000
,
0000
1000
0010
0100
0001
0010
0001
1001
,
0000
1000
0010
0100
0001
0010
0100
1000
,
0001
0000
0100
0010
0100
0001
1000
0000
0100
0000
0010
0001
0010
0100
2000
0000
,
0000
0000
3001
0000
0100
0000
0010
0000
1000
0100
0020
0000
0000
0000
0000
0000
,
0031
0100
0010
0100
1000
0100
0001
1000
,
0100
0000
0010
0000
0100
0000
1000
0000
0001
0000
0100
0010
0100
0000
0001
0000
,
1000
0000
0010
0100
0001
0000
0010
0100
1000
0000
0010
1000
0100
0000
0010
0001
,
1000
0000
0010
1000
0001
1000
0010
0100
0001
0010
0001
1000
0010
0000
0100
0001
,
1000
0000
0010
1000
0100
0000
0010
0000
0100
1000
0010
0000
0100
0000
0001
0010
,
0100
0000
0010
0000
0001
0100
0010
0000
0100
0001
1000
0010
0100
0000
1002
0000
,
0000
0000
1000
0000
0100
0000
1003
0110
,
0000
0000
0100
0001
1000
0100
0010
0001
2000
0000
0000
0000
3001
0000
0100
0000
,
0010
0000
1000
0000
1100
0000
1000
0001
,
0000
0000
0100
0000
0010
0000
0100
0000
0001
0000
1000
0100
1000
0000
0010
0000
,
0100
0000
0001
0000
0011
0000
0010
0100
,
0000
0000
1000
0010
0100
0001
1000
0001
0100
0010
0100
0000
0001
0000
1000
0000
,
0100
0000
0010
0000
0011
0000
0001
1000
,
0000
0000
1000
0000
0010
0000
0100
0000
0001
0000
1000
0100
1000
0001
0010
0000
,
0100
0000
1000
0010
0100
0000
0001
0000
0010
0000
0001
1000
0010
0000
0100
0000
,
0000
0000
0001
0100
0010
0100
0001
1000
0100
0000
0100
0000
0110
0000
0000
0000
,
0010
0001
0100
0010
0100
0001
1000
0100
,
0001
0100
0010
0001
1000
0010
0100
0001
,
0100
1000
0100
0010
1000
0001
0010
0100
,
1000
0000
0010
0000
0100
0000
0001
0010
0001
0000
1000
0100
1000
0000
0010
0000
,
0100
0001
0100
0010
0100
1000
0100
0001
,
1000
0100
0010
0100
0001
0100
1000
0010
,
0100
0001
0100
0010
1000
0001
0010
0100
,
1000
0000
0000
0001
0100
0000
0000
0010
1000
0000
0001
0000
1001
0000
0000
0000
,
0001
0100
0010
0100
1000
0100
0010
0100
,
0001
0010
0100
0010
1000
0010
0100
0010
,
0001
0100
0010
0100
0001
1000
0100
1000
,
0001
0010
0100
1000
0010
0100
1001
0000
,
0001
0010
0100
0010
1000
0010
0100
0010
,
0001
0100
0010
0100
1000
0100
0010
0100
,
0001
1000
0100
1000
0001
0010
0100
0010
,
0011
0000
0000
1100
0000
0000
1010
0000
0101
0000
0001
1000
0001
0000
0000
0000
,
0001
0000
1000
0010
0100
0000
0001
0000
1000
0100
0010
0000
0001
0000
0010
0100
,
1000
0000
0001
0100
0010
1000
0100
1000
0001
0100
0010
0100
0001
0010
0100
1000
,
0010
0000
0100
0001
1000
0000
0010
0000
1000
0001
0100
0000
0010
0000
0100
0001
,
1000
0000
0001
0000
0100
0010
0100
0010
0100
0000
0001
0100
0000
0010
1000
0000
,
0100
0000
1000
0001
0010
0000
0100
0000
0010
0001
1000
0000
0100
0000
1000
0010
,
0100
0000
0001
0000
0010
0001
1000
0000
0010
0100
0010
0100
0001
0000
1000
0000
,
0010
0000
0100
0001
1000
0000
0100
0000
0010
0001
1000
0000
0010
0000
0100
0001
,
0010
0000
0100
1000
0010
1000
0001
0010
0001
0100
0010
0100
0001
1000
0100
0010
,
0001
0000
0100
0010
1000
0000
0001
0000
0010
0100
1000
0000
0001
0000
0100
0010
,
1000
0000
0100
1000
0010
0100
0001
0010
0100
1000
0010
0100
0001
0100
0010
1000
,
0100
0000
1000
0001
0010
0000
0100
0000
0010
0001
1000
0000
0100
0000
1000
0010
,
0100
0000
0010
0000
1000
0001
1000
0001
1000
0000
0010
0100
0000
0001
1000
0000
,
0010
0000
1000
0001
0100
0000
0010
0000
0100
0001
1000
0000
0010
0000
1000
0001
,
0010
0000
0100
1000
0100
1000
0001
0100
0001
0100
0010
1000
0010
1000
0001
0000
,
1000
0000
0010
0100
0001
0000
1000
0000
0001
0100
0010
0000
1000
0000
0010
0000
,
0100
0000
0001
0010
0100
0010
0001
1000
0100
0000
0000
0000
1001
0000
0001
1000
,
0020
0000
0000
0000
0230
0000
0000
0000
0301
0000
1000
0100
0010
0000
0100
0000
,
1000
0000
0001
0010
0100
0000
1000
0000
0010
0000
0100
0001
0010
0000
0100
0000
,
2000
0000
0000
0000
3020
0000
0000
0000
0130
0000
0001
0010
0100
0000
2000
0000
,
0000
0000
3001
0010
0100
1000
0001
0000
0100
0000
0010
0000
1001
0000
0000
0000
,
0201
0000
0000
0000
0320
0000
0000
0000
1030
0001
0100
0000
0010
0000
1000
0000
,
0001
0000
0010
0000
0100
1000
0010
0000
0100
0000
0001
0100
0010
0100
0001
0000
,
0011
0000
0001
1000
0010
0000
0100
0000
0101
0000
0010
1000
0100
0000
0110
0000
,
0000
0000
0010
0001
0100
0000
0010
1000
0100
0000
0000
0010
0100
0000
1100
0000
,
0000
1000
1001
0000
0220
0000
0000
0000
,
0000
0000
0000
0000
0000
0000
0000
0000
0000
0000
0000
0000
0000
0000
0000
0000
0000
0000
0300
0030
0000
0000
0000
0000
0000
0000
0000
0000
0000
0000
0000
0000
0000
0000
0000
0000
0000
0000
0000
0000
0000
0000
0000
0000
0000
0000
0000
0000
;

//---------------dance-single - ----------------
#NOTES:
     dance-single:
     :
     Hard:
     9:
     0.649831,0.608507,0.283159,0.036537,0.018268,463.000000,31.000000,4.000000,0.000000,0.000000,0.000000,0.649831,0.608507,0.283159,0.036537,0.018268,463.000000,31.000000,4.000000,0.000000,0.000000,0.000000:
// measure 0
0000
0000
0000
0000
,  // measure 1
0000
0000
0000
0000
,  // measure 2
0000
0000
0000
0000
,  // measure 3
0000
0000
0000
0000
,  // measure 4
0000
0000
0000
0000
,  // measure 5
0101
0000
1010
0000
0110
0000
0100
0001
,  // measure 6
0000
1000
0100
0010
0100
1000
0010
0100
,  // measure 7
0101
0000
0011
0000
0110
0000
0100
1000
,  // measure 8
0000
1000
0001
0100
0010
0100
0001
0000
,  // measure 9
0101
0000
1010
0000
1001
0000
0001
0010
,  // measure 10
0000
0010
0100
1000
0001
0100
0010
0100
,  // measure 11
0101
0000
0001
1000
1100
0000
1000
1001
,  // measure 12
0000
0001
0100
0010
0100
0001
1000
1001
,  // measure 13
0000
0001
0010
0100
1000
0010
0100
0110
,  // measure 14
0000
0100
0001
0100
0010
0100
0001
1000
,  // measure 15
0100
0010
0100
1000
0010
0100
0001
1000
,  // measure 16
0000
1000
0100
0010
0001
1000
0010
0110
,  // measure 17
0000
0010
0100
0001
1000
0100
0010
0110
,  // measure 18
0000
0010
0100
1000
0001
0100
0001
0100
,  // measure 19
0010
0100
0010
1000
0001
1000
0100
0020
,  // measure 20
0000
0000
0031
0000
0100
0000
0010
0000
1000
0001
2000
0000
0000
0000
0000
0000
,  // measure 21
3010
0010
1000
0001
0010
0010
0001
1000
,  // measure 22
0100
0100
1000
0001
0100
0100
0010
1000
,  // measure 23
0001
0010
0001
1000
0010
1000
0001
0010
,  // measure 24
0100
1000
0001
0100
0010
0100
0001
0000
,  // measure 25
1000
0100
0001
1000
0010
0001
1000
0010
,  // measure 26
0001
1000
0100
0001
0010
0100
1000
1001
,  // measure 27
0000
0001
0100
0010
0100
0001
1000
0100
,  // measure 28
0000
0100
1000
0010
0100
0000
0001
1000
,  // measure 29
0100
0000
1000
0000
1100
0000
1000
0001
,  // measure 30
0000
0001
0100
0010
0100
0000
0001
1000
,  // measure 31
0100
0000
0010
0000
0011
0000
0001
1000
,  // measure 32
0000
1000
0001
0100
0010
0100
0001
0000
,  // measure 33
0010
0000
0001
0000
0011
0000
0010
0100
,  // measure 34
0000
0100
1000
0010
1000
0100
1000
0001
,  // measure 35
0100
0100
0010
0100
0001
1000
0100
0010
,  // measure 36
0000
0010
0001
1000
0010
0010
0100
0000
,  // measure 37
0001
0010
0001
0010
,  // measure 38
0100
1000
0100
1000
,  // measure 39
0010
0100
0010
0100
,  // measure 40
0001
0000
1000
0000
0001
1000
0100
0000
,  // measure 41
0010
0100
0010
0100
,  // measure 42
1000
0010
1000
0010
,  // measure 43
0100
0001
0100
0001
,  // measure 44
0010
0000
0001
0000
0010
0001
0010
0000
,  // measure 45
0100
0000
1000
0000
0100
1000
0001
0000
,  // measure 46
0100
0000
0010
0000
0100
0001
0010
0000
,  // measure 47
0100
0000
1000
0000
0010
1000
0001
0000
,  // measure 48
0010
0000
0100
0000
1000
0001
0100
0000
,  // measure 49
0010
0000
0100
0000
0010
0100
0010
0100
,  // measure 50
0001
0000
0100
0000
0001
0100
0001
1000
,  // measure 51
0001
0000
1000
0100
1000
0000
0001
0010
,  // measure 52
0011
0000
0000
1100
0000
0000
0010
0000
0100
0000
0000
0000
1001
0000
0000
0000
,  // measure 53
1000
0001
0100
0001
1000
0100
1000
0001
,  // measure 54
0100
0001
0010
0100
1000
0010
0100
0000
,  // measure 55
0001
0010
0001
1000
0010
1000
0001
0010
,  // measure 56
0001
0000
0100
0000
0010
0000
0100
0000
0101
0000
0000
0110
0000
0000
0010
0000
,  // measure 57
0100
0001
0010
0100
1000
0010
0100
0001
,  // measure 58
0010
0001
1000
0010
0100
0001
0100
0010
,  // measure 59
1000
0001
0010
0100
1000
0001
0100
0010
,  // measure 60
1000
0010
0001
1000
0100
0001
0010
0100
,  // measure 61
1000
0010
1000
0001
0010
0001
1000
0010
,  // measure 62
1000
0001
0100
0010
1000
0100
0010
0001
,  // measure 63
1000
0100
1000
0001
0100
0001
1000
0100
,  // measure 64
1000
0000
0001
0000
0100
0000
0010
0000
1010
0000
0000
0110
0000
0000
0100
0000
,  // measure 65
0001
0010
0100
1000
0001
0100
0010
1000
,  // measure 66
0001
0010
0100
1000
0010
1000
0001
0010
,  // measure 67
0100
1000
0010
0100
0001
0010
0100
1000
,  // measure 68
0001
0010
0001
1000
0100
0000
0110
0000
,  // measure 69
0010
0000
0001
0000
1000
0000
0010
0100
,  // measure 70
0000
0100
0001
0100
0010
1000
0001
0010
,  // measure 71
0100
0000
1000
0000
0010
0000
1000
0001
,  // measure 72
0000
0010
0001
0100
0010
1000
0100
0000
,  // measure 73
0010
0000
0100
0000
1000
0000
0001
0100
,  // measure 74
0000
0010
0100
0001
1000
0100
1000
0010
,  // measure 75
0100
0000
0001
0010
0001
0000
1000
0010
,  // measure 76
0000
1000
0001
0010
0100
0000
1000
1100
,  // measure 77
0000
0010
0011
0000
2002
0000
0000
0000
,  // measure 78
0000
0000
0000
3003
0000
0000
0000
0000
;

//---------------dance-single - ----------------
#NOTES:
     dance-single:
     :
     Medium:
     7:
     0.454099,0.429534,0.155281,0.036537,0.004567,327.000000,17.000000,4.000000,0.000000,0.000000,0.000000,0.454099,0.429534,0.155281,0.036537,0.004567,327.000000,17.000000,4.000000,0.000000,0.000000,0.000000:
0000
0000
0000
0000
,
0000
0000
0000
0000
,
0000
0000
0000
0000
,
0000
0000
0000
0000
,
0000
0000
0000
0000
,
0010
0000
1000
0000
0001
0000
1000
0100
,
0000
0100
0010
0000
0001
0000
0100
0000
,
0010
0000
1000
0000
0001
0000
1000
0010
,
0000
0010
0100
0000
0001
1000
0001
0000
,
0010
0000
0100
0000
1000
0000
0010
1000
,
0000
1000
0010
0000
0100
0000
0001
0000
,
0010
0000
0001
1000
0001
0000
1000
0100
,
0000
1000
0010
0000
0110
0000
0100
0001
,
0000
0100
0001
0000
0100
0000
0010
1000
,
0000
0010
1000
0000
0100
0000
0010
0000
,
0001
0000
1000
0000
0010
1000
0100
0000
,
0010
0000
0001
0000
1000
0000
0010
0100
,
0000
0010
0100
0000
0001
0000
1000
0001
,
0000
1000
0001
0000
0010
0000
0100
0000
,
1000
0100
0010
0001
,
1000
0000
0010
0000
0100
0200
0000
0000
,
0301
0000
0100
0010
0100
0000
0001
0000
,
1000
0000
0100
0010
0100
0000
1000
0000
,
0010
0000
0100
0001
1000
0000
0100
0000
,
0010
0000
0001
1000
0010
0000
0100
0000
,
0101
0000
0000
0110
0000
0000
1010
0000
,
0000
1001
0000
0000
0110
0000
0000
2001
,
0000
0000
0001
0000
0001
0000
3001
1000
,
0000
0010
0100
0001
,
1000
0000
0100
0000
1000
0000
0001
0100
,
0000
0100
0001
0000
0010
0000
0000
0000
,
0100
0000
1000
0000
0010
0000
0100
0001
,
0000
0001
1000
0000
0100
0000
0010
0000
,
0001
0000
1000
0000
0010
0000
0100
0001
,
0000
0001
0010
0000
0100
0000
0000
0000
,
1000
0000
0010
0000
0100
0000
0001
1000
,
0000
1000
0100
0000
0010
0001
1000
0000
,
0010
0010
0010
0010
,
0100
0100
0100
0100
,
0001
0001
0001
0001
,
1000
1000
1000
1000
,
0001
0001
0010
0010
,
0100
0100
1000
1000
,
0010
0010
0100
0100
,
0001
0000
0001
0000
1000
0100
1000
0000
,
0010
0100
0001
1000
,
0100
0010
0001
1000
,
0010
0100
0001
1000
,
0001
0010
0100
1000
,
0010
0010
0100
0100
,
0001
0001
1000
1000
,
0001
0010
0100
1000
,
0001
0000
0000
1000
0000
0000
0001
0000
1000
0000
0000
0000
1001
0000
0000
0000
,
1000
0000
0001
0100
0000
0001
1000
0000
,
0100
0000
0010
0000
0001
1000
0010
0000
,
0100
0000
0001
1000
0000
0100
0010
0000
,
0100
1000
1001
0110
,
0010
0000
0100
1000
0000
0001
0100
0000
,
0010
0000
0100
0000
0001
1000
0100
0000
,
0010
0000
0001
1000
0000
0010
1000
0000
,
0001
0000
0010
0000
0100
1000
0001
0100
,
0010
0000
0100
0001
0000
1000
0100
0000
,
0010
0000
0001
0000
1000
0010
0100
0000
,
0001
0000
0100
0010
0000
1000
0001
0000
,
0010
0100
1001
0110
,
0010
0000
0100
0001
0000
1000
0100
0000
,
0010
0000
0001
0000
1000
0010
0100
0000
,
0001
0000
0100
0010
0000
1000
0001
0000
,
0010
0100
0010
0100
1000
0000
1001
0000
,
0001
0000
0100
0000
0010
0000
1000
0100
,
0000
1000
0100
0000
0010
0000
0001
0000
,
1000
0000
0010
0000
0100
0000
0001
0100
,
0000
0001
0100
0000
0010
0000
1000
0000
,
0001
0000
0010
0000
0100
0000
1000
0010
,
0000
1000
0010
0000
0100
0000
0001
0000
,
0010
0000
0100
0000
1000
0000
0001
1000
,
0000
1000
0001
0000
1001
0000
0000
0110
,
0000
0110
2002
0000
,
0000
0000
0000
3003
0000
0000
0000
0000
;

//---------------dance-single - ----------------
#NOTES:
     dance-single:
     :
     Easy:
     4:
     0.302733,0.318554,0.255757,0.018268,0.000000,202.000000,28.000000,2.000000,0.000000,0.000000,0.000000,0.302733,0.318554,0.255757,0.018268,0.000000,202.000000,28.000000,2.000000,0.000000,0.000000,0.000000:
0000
0000
0000
0000
,
0000
0000
0000
0000
,
0000
0000
0000
0000
,
0000
0000
0000
0000
,
0000
0000
0000
0000
,
1000
0000
1000
0000
,
0001
0100
0010
0000
,
1000
0000
0001
0000
,
0010
0001
0100
0000
,
0010
0000
0010
0000
,
0100
0001
1000
0000
,
1001
0000
0110
0000
,
0010
0001
1000
0000
,
1001
0000
0010
0000
,
0110
0000
0100
0000
,
0001
1000
0001
0000
,
0010
0100
0010
0000
,
0110
0000
0001
0000
,
1001
0000
0010
0000
,
0100
0001
0100
0000
,
0010
1000
0010
0000
,
0100
0001
1000
0100
,
0010
0001
1000
0000
,
0010
1000
0001
0010
,
0100
1000
0010
0000
,
0110
0000
0000
0100
0000
0000
1001
0000
,
0000
0100
0000
0000
0011
0000
0000
2100
,
0000
0001
0000
3001
,
0100
0010
1000
0000
,
0001
0000
1001
0000
,
0010
0000
0110
0000
,
0100
0000
1001
0000
,
0001
0000
1000
0010
,
0100
0000
0101
0000
,
0010
0000
1010
0000
,
0001
0000
0110
0000
,
0100
1000
0001
0000
,
0100
0000
0010
0000
,
0100
0000
0010
0000
,
1000
0000
0001
0000
,
1000
0000
0001
0000
,
0010
0000
0100
0000
,
1000
0000
0001
0000
,
0100
0000
0010
0000
,
1000
0000
0002
0000
,
1003
0001
1000
0001
,
0010
0001
0010
0001
,
1000
0100
1000
0100
,
1000
0001
1000
0000
,
0010
0100
0001
0000
,
0010
0100
1000
0000
,
0001
1000
0001
1000
,
1001
0110
1001
0000
,
0001
0001
0001
0000
,
0010
0100
1000
0001
,
0100
0100
0100
0000
,
0010
0100
1001
0000
,
0010
0010
0010
0000
,
0010
0001
0100
0010
,
1000
1000
1000
0000
,
1001
0000
0110
0000
,
0010
0010
0010
0000
,
0100
1000
0010
0100
,
0001
0001
0001
0000
,
1000
0001
0110
0000
,
0100
0100
0100
0000
,
0010
0001
0100
0010
,
1000
1000
1000
1000
,
0010
0100
1001
0000
,
0010
0000
0100
0000
,
0001
1000
0100
0000
,
0010
0000
0100
0000
,
1000
0001
0100
0000
,
0010
0000
1000
0000
,
0001
0010
0100
0000
,
1000
0000
0000
0000
0001
0000
0000
1001
,
0000
0000
0010
0000
0100
0000
0000
0110
,
0000
0110
1001
0000
;

//---------------dance-single - ----------------
#NOTES:
     dance-single:
     :
     Beginner:
     1:
     0.116134,0.176975,0.082208,0.000000,0.000000,80.000000,9.000000,0.000000,0.000000,0.000000,0.000000,0.116134,0.176975,0.082208,0.000000,0.000000,80.000000,9.000000,0.000000,0.000000,0.000000,0.000000:
0000
0000
0000
0000
,
0000
0000
0000
0000
,
0000
0000
0000
0000
,
0000
0000
0000
0000
,
0000
0000
0000
0000
,
0010
0000
0000
0000
,
0100
0000
0000
0000
,
0001
0000
0000
0000
,
1000
0000
0000
0000
,
0100
0000
0000
0000
,
0010
0000
0000
0000
,
0001
0000
0000
0000
,
1000
0000
0000
0000
,
1001
0000
0000
0000
,
0110
0000
0000
0000
,
0100
0000
0100
0000
,
0100
0000
0000
0000
,
0110
0000
0000
0000
,
1001
0000
0000
0000
,
0001
0000
0001
0000
,
0001
0000
0000
0000
,
1000
0000
0000
0000
,
1000
0000
0000
0000
,
0010
0000
0000
0000
,
0010
0000
0000
0000
,
0110
0000
0000
1001
,
0000
0000
0110
0000
,
0100
0000
0100
0000
,
0100
0000
0000
0000
,
0010
0000
0000
0000
,
0100
0000
0000
0000
,
1000
0000
0000
0000
,
0001
0000
0000
0000
,
0100
0000
0000
0000
,
0010
0000
0000
0000
,
1000
0000
0000
0000
,
0001
0000
0000
0000
,
0010
0000
0000
0000
,
0010
0000
0000
0000
,
0100
0000
0000
0000
,
0100
0000
0000
0000
,
1000
0000
0000
0000
,
1000
0000
0000
0000
,
0001
0000
0000
0000
,
0001
0000
0000
0000
,
0100
0000
0000
0000
,
0100
0000
0000
0000
,
0010
0000
0000
0000
,
0010
0000
0000
0000
,
1000
0000
0000
0000
,
1000
0000
0000
0000
,
0001
0000
0001
0000
,
0001
0000
0000
0000
,
1001
0000
0000
0000
,
0100
0000
0000
0000
,
0010
0000
0000
0000
,
0001
0000
0000
0000
,
0100
0000
0000
0000
,
0010
0000
0000
0000
,
1000
0000
0000
0000
,
0001
0000
0001
0000
,
1000
0000
0000
0000
,
0010
0000
0000
0000
,
0100
0000
0000
0000
,
0001
0000
0000
0000
,
0010
0000
0000
0000
,
0100
0000
0000
0000
,
1000
0000
1000
0000
,
0001
0000
0000
0000
,
1000
0000
0000
0000
,
0010
0000
0000
0000
,
0100
0000
0000
0000
,
0001
0000
0000
0000
,
0010
0000
0000
0000
,
0100
0000
0000
0000
,
1000
0000
0000
0000
,
0001
0000
0000
0000
,
0000
0000
1001
0000
;
