#VERSION:0.81;
#TITLE:Brick (Original Mix);
#SUBTITLE:;
#ARTIST:DAVIP;
#TITLETRANSLIT:;
#SUBTITLETRANSLIT:;
#ARTISTTRANSLIT:;
#GENRE:;
#ORIGIN:;
#CREDIT:;
#BANNER:[Round 11] - Brick (Original Mix).png;
#BACKGROUND:[Round 11] - Brick (Original Mix)-bg.png;
#PREVIEWVID:;
#JACKET:[Round 11] - Brick (Original Mix)-jacket.png;
#CDIMAGE:;
#DISCIMAGE:;
#LYRICSPATH:;
#CDTITLE:;
#MUSIC:[Round 11] - Brick (Original Mix).ogg;
#OFFSET:-0.035000;
#SAMPLESTART:44.355999;
#SAMPLELENGTH:14.768000;
#SELECTABLE:YES;
#BPMS:0.000=130.000;
#STOPS:;
#DELAYS:;
#WARPS:;
#TIMESIGNATURES:0.000=4=4;
#TICKCOUNTS:0.000=4;
#COMBOS:0.000=1;
#SPEEDS:0.000=1.000=0.000=0;
#SCROLLS:0.000=1.000;
#FAKES:;
#LABELS:0.000=Song Start;
#BGCHANGES:;
#KEYSOUNDS:;
#ATTACKS:
;

//---------------dance-single - ----------------
#NOTEDATA:;
#CHARTNAME:;
#STEPSTYPE:dance-single;
#DESCRIPTION:;
#CHARTSTYLE:;
#DIFFICULTY:Hard;
#METER:8;
#RADARVALUES:0.594836,0.629971,0.431487,0.323615,0.287658,474.000000,60.000000,45.000000,8.000000,0.000000,16.000000,0.000000,0.000000,0.594836,0.629971,0.431487,0.323615,0.287658,474.000000,60.000000,45.000000,8.000000,0.000000,16.000000,0.000000,0.000000;
#CREDIT:;
#NOTES:
0000
0000
0000
0000
,
0000
0000
0000
0000
,
0000
0000
0000
0000
,
0000
0000
0000
0000
,
0000
0000
0000
0000
,
0000
0000
0000
0000
,
0000
0000
0000
0000
,
0000
0000
0000
0000
,
1001
0000
0000
0000
0000
0000
0000
0100
0000
0000
0001
0000
1000
0000
0000
0000
,
1001
0000
0000
0000
0000
0000
0000
0010
0000
0000
0100
0000
0001
0000
0000
0000
,
1001
0000
0000
0000
0000
0000
0000
0001
0000
0000
0010
0000
0001
0000
0000
0000
,
1001
0000
0000
0000
0000
0000
0000
1000
0000
0000
0100
0000
1000
0000
0000
0000
,
1001
0000
0000
0000
0000
0000
0000
0100
0000
0000
0001
0000
1000
0000
0000
0000
,
1001
0000
0000
0000
0000
0000
0000
0010
0000
0000
0100
0000
0001
0000
0000
0000
,
0101
0010
1100
0010
,
1001
0100
0010
0100
0020
0100
0000
0130
,
0010
0010
1000
1000
0001
0001
0200
0000
,
0310
0010
1000
1000
0001
0001
4000
0000
,
3001
0001
1000
1000
0010
0010
0200
0000
,
0301
0000
0001
0000
1000
0000
1000
0000
1100
0000
0000
1000
0100
0000
0010
0000
,
0001
0001
0010
0010
0001
0001
2000
0000
,
3001
0001
1000
1000
0100
0100
0040
0000
,
0031
0011
0010
0110
1000
0010
1010
0000
,
1000
0001
0001
0001
1000
0010
1010
1000
,
0101
0000
0000
0000
0001
0000
0001
1000
0000
0001
1000
0000
0002
0000
0000
0000
,
1003
0000
0000
0000
1001
0000
1000
0001
0000
1000
0001
0000
4000
0000
0000
0000
,
3001
0001
0100
0100
0040
0000
2030
0000
,
3001
0000
0000
0000
0010
0000
0000
0000
0001
0000
0000
0000
1000
0000
0000
0000
0000
0000
2000
0000
0000
0100
0000
0000
0000
0000
0000
0100
0000
0000
3000
0000
0000
0000
0000
0000
0040
0000
0000
0000
0000
0000
0000
0000
0000
0000
0000
0000
,
0031
0000
MMMM
0000
0110
0000
0100
0010
0000
0100
0010
0000
0002
0000
0000
0000
,
0103
0000
0000
0000
0101
0000
0100
0001
0000
0100
0001
0000
4000
0000
0000
0000
,
3001
0011
0010
0110
0100
1000
2100
3010
,
0102
0013
2100
3010
2002
0000
0000
3003
,
0001
0000
1000
0001
0000
0000
0001
0000
1000
0001
0000
0000
0010
0000
0000
0100
0000
0000
1000
0000
0000
0001
0000
0000
,
1000
0000
0001
1000
0000
0000
1000
0000
0001
1000
0000
0000
0400
0000
0000
0000
0000
0000
0320
0000
0000
0032
0000
0000
,
1003
0000
0010
1000
0000
0000
1000
0000
0010
1000
0000
0000
0100
0000
0000
0100
0000
0000
0010
0000
0000
0010
0000
0000
,
0100
0000
1000
0100
0000
0000
0100
0000
1000
0100
0000
0000
2000
0000
0000
3000
0000
0100
0010
0000
0000
0001
0000
0000
,
0001
0000
1000
0001
0000
0000
0001
0000
1000
0001
0000
0000
0100
0000
0000
0100
0000
0000
0010
0000
0000
0010
0000
0000
,
1000
0000
0010
1000
0000
0000
1000
0000
0010
1000
0000
0000
4000
0000
0000
0000
0000
0000
3020
0000
0000
2030
0000
0000
,
3001
0000
1000
0001
0000
1000
0001
0000
1000
0001
0000
1000
0001
0000
0000
1000
0000
0000
1001
0000
0000
0010
0000
0000
,
0100
0000
0010
0000
1000
0000
0001
0000
0100
0000
0010
0000
1000
0000
0000
0010
0000
0000
0100
0000
0000
0010
0000
0000
,
2010
0000
0000
0000
3000
0000
0000
0100
0000
0000
0010
0000
0010
0000
0000
0000
,
0002
0000
0000
0000
0003
0000
0000
1000
0000
0010
1000
0000
0200
0000
0300
0000
,
0010
0000
0000
0000
0000
0000
0000
0100
0000
0000
0010
0000
0010
0000
0000
0000
,
0002
0000
0000
0000
0003
0000
0000
1000
0000
1000
0001
0000
2000
0000
3000
0000
,
1001
0010
1001
0100
1001
0010
1001
0100
,
0110
1000
0110
0001
0110
1000
2001
0000
,
3001
0001
1000
1000
0001
0001
1000
1000
,
0004
4000
0000
0000
0000
0000
0000
0000
0000
0000
0000
0000
3003
0000
0000
0000
,
2002
0000
3003
0000
1000
0100
0001
0100
,
1000
1000
0010
0010
0100
0010
1002
0000
,
1003
1000
0001
0001
0101
0100
1010
0100
,
0001
0001
0100
0100
0010
0101
0010
1100
,
1000
0000
0000
1000
0000
0000
0010
0000
0000
0010
0000
0000
2000
0000
0000
3000
0000
0001
2000
0000
0000
3000
0000
0000
,
0100
0100
0010
0010
0001
0010
2001
0000
,
3100
0100
0010
0010
0011
1000
1100
0010
,
0100
0101
0001
0011
1000
0100
1100
0000
,
1000
0001
0001
0001
1000
0001
0101
0100
,
0010
0000
0000
1000
0100
0000
0010
0001
0000
0001
0010
0000
0200
0000
0000
0000
,
1300
0000
0000
0100
0001
0000
0001
0100
0000
0001
0100
0000
4000
0000
0000
0000
,
3001
0000
0000
0010
1000
0000
0010
0000
0004
0000
0000
0000
2003
0000
0000
0000
,
3001
0000
0000
0000
0010
0000
0000
0000
0001
0000
0000
0000
1000
0000
0000
0000
0000
0000
0001
0000
0000
1000
0000
0000
0000
0000
0000
1000
0000
0000
0000
0000
0000
1000
0000
0000
0004
0000
0000
0000
0000
0000
0000
0000
0000
0000
0000
0000
,
1003
0000
MMMM
0000
0001
0000
1000
0100
0000
0100
1000
0000
0020
0000
0000
0000
,
1030
0000
0000
1000
0001
0000
1000
0001
0000
0001
1000
0000
0004
0000
0000
0000
,
1003
1100
0100
0110
0001
0100
0102
1003
,
1100
0012
0010
0013
2010
3001
0101
0100
,
0010
0000
1000
0100
0000
0000
0010
0000
0100
1000
0000
0000
0001
0000
0000
0001
0000
0000
0010
0000
0000
0010
0000
0000
,
0001
0000
1000
0100
0000
0000
0010
0000
0001
0100
0000
0000
0040
0000
0000
0000
0000
0000
2030
0000
0000
3002
0000
0000
,
0013
0000
0001
1000
0000
0000
0010
0000
0100
0001
0000
0000
1000
0000
0000
1000
0000
0000
0010
0000
0000
0010
0000
0000
,
0100
0000
0000
0000
0010
0000
1000
0000
0000
0000
0000
0000
0010
0000
0000
0000
0100
0000
0001
0000
0000
0000
0000
0000
0001
0000
0000
0000
0000
0000
0010
0000
0000
0100
0000
0000
1000
0000
0000
0000
0000
0000
0100
0000
0000
0010
0000
0000
,
0001
0000
0100
0010
0000
0000
0100
0000
0010
1000
0000
0000
0010
0000
0000
0010
0000
0000
0100
0000
0000
0100
0000
0000
,
0010
0000
1000
0100
0000
0000
0010
0000
0100
1000
0000
0000
4000
0000
0000
0000
0000
0000
3002
0000
0000
0203
0000
0000
,
0301
0011
0100
1100
0010
0100
0102
1003
,
2010
0000
0000
3002
0000
0000
0023
0000
0000
0000
0230
0000
0000
0000
0000
1300
0000
0000
1100
0000
0000
1000
0000
0000
,
1001
0000
0000
0000
;

//---------------dance-single - ----------------
#NOTEDATA:;
#CHARTNAME:;
#STEPSTYPE:dance-single;
#DESCRIPTION:;
#CHARTSTYLE:;
#DIFFICULTY:Medium;
#METER:6;
#RADARVALUES:0.472581,0.577474,0.388338,0.431487,0.068319,346.000000,54.000000,60.000000,0.000000,0.000000,0.000000,0.000000,0.000000,0.472581,0.577474,0.388338,0.431487,0.068319,346.000000,54.000000,60.000000,0.000000,0.000000,0.000000,0.000000,0.000000;
#CREDIT:;
#NOTES:
// measure 0
0000
0000
0000
0000
,  // measure 1
0000
0000
0000
0000
,  // measure 2
0000
0000
0000
0000
,  // measure 3
0000
0000
0000
0000
,  // measure 4
0000
0000
0000
0000
,  // measure 5
0000
0000
0000
0000
,  // measure 6
0000
0000
0000
0000
,  // measure 7
0000
0000
0000
0000
,  // measure 8
1001
0000
0000
0000
0100
0100
0100
0000
,  // measure 9
1001
0000
0000
0000
0010
0010
0010
0000
,  // measure 10
1001
0000
0000
0000
0100
0100
0100
0000
,  // measure 11
1001
0000
0000
0000
0010
0010
0010
0000
,  // measure 12
1001
0000
0010
0000
0100
0100
0100
0000
,  // measure 13
1001
0000
0100
0000
0010
0010
0010
0000
,  // measure 14
0101
0010
1100
0010
,  // measure 15
1001
0100
0010
0100
0020
0000
0000
0130
,  // measure 16
0010
0000
1000
0000
0001
0001
0200
0000
,  // measure 17
0310
0000
1000
0000
0001
0001
0200
0000
,  // measure 18
0301
0000
1000
0000
0010
0010
0200
0000
,  // measure 19
0301
0000
0000
0000
1000
0000
0000
0000
1100
0000
0000
1000
0200
0000
0000
0000
,  // measure 20
0310
0000
0001
0000
1000
1000
0200
0000
,  // measure 21
0310
0000
0001
0000
1000
1000
0200
0000
,  // measure 22
0310
0110
0000
0010
0001
1000
1010
0000
,  // measure 23
1000
0002
1000
1003
2000
0000
3010
0100
,  // measure 24
0001
0000
0000
0000
1001
0000
0000
0100
0000
0000
0100
0000
0002
0000
0000
0000
,  // measure 25
1003
0000
0000
0000
1001
0000
0000
0010
0000
0000
0010
0000
2000
0000
0000
0000
,  // measure 26
3001
0000
0100
0100
0020
0000
2030
0000
,  // measure 27
3001
0000
0000
0000
0110
0000
0000
1000
0000
1000
0000
0000
0200
0000
0000
0000
,  // measure 28
0310
0000
0000
0000
0011
0000
0000
1000
0000
0000
1000
0000
0002
0000
0000
0000
,  // measure 29
0103
0000
0000
0000
0101
0000
0000
1000
0000
0000
1000
0000
0020
0000
0000
0000
,  // measure 30
1030
1001
0000
0001
0010
0100
2200
3300
,  // measure 31
0202
0303
2200
3300
2002
0000
3003
0000
,  // measure 32
0001
0000
1000
0000
0001
0100
0001
1000
,  // measure 33
0010
1000
0200
0320
,  // measure 34
0031
0000
1000
0000
0010
1000
0001
0100
,  // measure 35
0010
0100
0001
1001
,  // measure 36
1000
0000
0001
0000
1000
0100
0010
0100
,  // measure 37
1000
0001
2000
3200
,  // measure 38
0310
0000
0000
0000
1001
0000
0000
1000
0001
0000
1000
0000
1001
0000
0010
0000
,  // measure 39
0110
0000
0101
0000
1010
0010
0100
0010
,  // measure 40
2010
0000
3000
0000
0010
0010
0010
0000
,  // measure 41
2000
0000
3001
0001
0001
0000
0000
0000
,  // measure 42
0200
0000
0300
0000
0010
0010
0010
0000
,  // measure 43
0002
0000
1003
1000
1000
0000
1000
0000
,  // measure 44
1001
0110
1001
0110
,  // measure 45
1001
0110
1001
2000
,  // measure 46
3001
0001
1000
1000
0001
0001
1000
1000
,  // measure 47
0001
1000
0001
1000
2002
0000
3003
0000
,  // measure 48
1001
0000
0000
0000
1000
0100
0001
0000
,  // measure 49
0001
0010
0100
0000
0100
0010
1002
0000
,  // measure 50
1003
0010
0001
0000
0001
0100
1000
0100
,  // measure 51
0001
1000
0100
0000
0010
0001
0010
0100
,  // measure 52
1000
0000
0010
0010
2000
0000
3002
0000
,  // measure 53
0013
0100
1000
0000
0001
0010
2001
0000
,  // measure 54
3100
0010
0001
0000
0001
0100
1100
0000
,  // measure 55
0100
0101
0000
0001
1000
0100
1100
0000
,  // measure 56
1000
0002
1000
1003
2000
0000
3001
0100
,  // measure 57
0010
0000
0000
1000
0100
0000
0000
0001
0000
0000
0010
0000
0200
0000
0000
0000
,  // measure 58
1300
0000
0000
0100
0001
0000
0000
0010
0000
0000
0100
0000
2000
0000
0000
0000
,  // measure 59
3001
0000
0000
0010
1000
0000
0010
0000
0002
0000
0000
0000
2003
0000
0000
0000
,  // measure 60
3001
0000
0000
0000
1001
0000
0000
1000
0000
1000
0000
0000
0002
0000
0000
0000
,  // measure 61
1003
0000
0000
0000
0100
0000
0000
0001
0000
0000
0010
0000
2000
0000
0000
0000
,  // measure 62
3001
0000
0000
1000
0001
0000
0000
0010
0000
0000
0100
0000
2000
0000
0000
0000
,  // measure 63
3001
0011
0000
1000
0001
0100
0102
0003
,  // measure 64
1000
1002
0000
0003
2010
3000
0101
0000
,  // measure 65
0010
0100
1000
0000
0001
0010
1000
0010
,  // measure 66
0001
0100
0010
0000
0020
0000
2030
0000
,  // measure 67
3100
0010
0001
0000
1000
0010
0001
0010
,  // measure 68
1000
0000
0100
0000
0010
0000
0000
0000
0001
0000
0000
0001
1000
0000
0000
0000
,  // measure 69
1000
0100
0010
0000
0001
0100
1000
0100
,  // measure 70
0001
0100
0010
0000
2000
0000
3002
0203
,  // measure 71
0301
0011
0000
1000
0010
0100
0102
0003
,  // measure 72
2010
3002
0020
0000
0000
0033
1100
0000
,  // measure 73
1001
0000
0000
0000
;

//---------------dance-single - ----------------
#NOTEDATA:;
#CHARTNAME:;
#STEPSTYPE:dance-single;
#DESCRIPTION:;
#CHARTSTYLE:;
#DIFFICULTY:Easy;
#METER:4;
#RADARVALUES:0.279439,0.341234,0.337998,0.122255,0.000000,208.000000,47.000000,17.000000,0.000000,0.000000,0.000000,0.000000,0.000000,0.279439,0.341234,0.337998,0.122255,0.000000,208.000000,47.000000,17.000000,0.000000,0.000000,0.000000,0.000000,0.000000;
#CREDIT:;
#NOTES:
0000
0000
0000
0000
,
0000
0000
0000
0000
,
0000
0000
0000
0000
,
0000
0000
0000
0000
,
0000
0000
0000
0000
,
0000
0000
0000
0000
,
0000
0000
0000
0000
,
0000
0000
0000
0000
,
1001
0000
0100
0000
,
0101
0000
0001
0000
,
1001
0000
0010
0000
,
1010
0000
1000
0000
,
1001
0000
0110
0000
,
1001
0000
0110
0000
,
0101
0100
0100
0100
,
0010
0010
2000
3000
,
1001
0001
0000
0001
,
0010
0001
0000
1000
,
0010
1000
0000
1000
,
0010
1000
1100
0100
,
0010
0001
0000
0010
,
0001
0010
0000
0100
,
0110
0110
1001
0000
,
1000
1000
1000
1010
,
0001
1000
0000
0001
,
1000
0001
0000
1000
,
0001
1000
0020
0030
,
0100
0110
2000
0000
,
3000
0101
0100
0000
,
0100
0101
0001
0000
,
0001
1001
1100
0100
,
0100
0100
2002
3003
,
0001
1000
0001
0001
,
1000
0001
1000
2000
,
3001
1000
0010
1000
,
0001
1000
0002
1003
,
1000
0001
1000
1000
,
0100
1000
0100
0200
,
0310
1001
0010
1001
,
0010
0010
0010
0010
,
1010
0000
0000
0000
,
1000
0000
0000
0000
,
0100
0000
0000
0000
,
0001
0000
0000
0000
,
1001
0001
0001
0001
,
0001
0001
0001
0000
,
1000
1000
1000
1000
,
1000
1000
1001
0000
,
2002
0000
3003
0000
,
0001
0100
0001
0100
,
0010
1000
0010
1000
,
0001
0100
0001
0100
,
0010
1000
1000
0002
,
1003
0100
1000
0100
,
0010
0001
0010
0001
,
0011
0011
1100
0000
,
1000
1000
1000
1001
,
0010
0110
0001
0000
,
1000
0110
0001
1000
,
0001
0011
0020
0030
,
0010
0110
2000
0000
,
3000
1001
0001
0000
,
0001
1001
1000
0001
,
0011
0110
1100
2000
,
3001
0001
0000
0000
0001
0000
1001
0000
,
0010
1000
0001
1000
,
0010
1000
0001
2000
,
3100
0010
0100
0001
,
0100
0010
0100
1001
,
1000
0010
1000
0001
,
1000
0010
1000
0001
,
0011
0110
1100
0000
,
2002
0000
3003
0100
,
1001
0000
0000
0000
;

//---------------dance-single - ----------------
#NOTEDATA:;
#CHARTNAME:;
#STEPSTYPE:dance-single;
#DESCRIPTION:;
#CHARTSTYLE:;
#DIFFICULTY:Beginner;
#METER:2;
#RADARVALUES:0.128419,0.209990,0.122255,0.021574,0.000000,105.000000,17.000000,3.000000,0.000000,0.000000,0.000000,0.000000,0.000000,0.128419,0.209990,0.122255,0.021574,0.000000,105.000000,17.000000,3.000000,0.000000,0.000000,0.000000,0.000000,0.000000;
#CREDIT:;
#NOTES:
0000
0000
0000
0000
,
0000
0000
0000
0000
,
0000
0000
0000
0000
,
0000
0000
0000
0000
,
0000
0000
0000
0000
,
0000
0000
0000
0000
,
0000
0000
0000
0000
,
0000
0000
0000
0000
,
0100
0000
0000
0000
,
0100
0000
0000
0000
,
0010
0000
0000
0000
,
0010
0000
0000
0000
,
0100
0000
0010
0000
,
0100
0000
0010
0000
,
0100
0000
0010
0000
,
0100
0000
0110
0000
,
1001
0000
0000
0000
,
0001
0000
0000
0000
,
1000
0000
0000
0000
,
1000
0000
0000
0000
,
0001
0000
0000
0000
,
0001
0000
0000
0000
,
1000
0000
1000
0000
,
0100
0000
0100
0000
,
0110
0000
0000
0000
,
0010
0000
0000
0000
,
0100
0000
0000
0000
,
0100
0000
0000
0000
,
0110
0000
0000
0000
,
0010
0000
0000
0000
,
0100
0100
0100
0000
,
0000
0000
1001
0000
,
0001
0000
0001
0000
,
1000
0000
1000
0000
,
0010
0000
0010
0000
,
0100
0000
0100
0000
,
0001
0000
0001
0000
,
1000
0000
1000
0000
,
0010
0010
0010
0000
,
0100
0100
0100
0000
,
1010
0000
0000
0000
,
0000
0000
0000
0000
,
0000
0000
0000
0000
,
0000
0000
0000
0000
,
1001
0000
0000
0000
,
1001
0000
0000
0000
,
0101
0000
0101
0000
,
0101
0000
0101
0000
,
2002
0000
3003
0000
,
1000
0000
1000
0000
,
0100
0000
0100
0000
,
0010
0000
0010
0000
,
0001
0000
0001
0000
,
1000
0000
1000
0000
,
0100
0000
0100
0000
,
0010
0010
0010
0000
,
0100
0000
0100
0100
,
1100
0000
0001
0000
,
1000
0000
0001
0000
,
1000
0000
0010
0000
,
1000
0000
0010
0000
,
1001
0000
0001
0000
,
0100
0000
0001
0000
,
0100
0100
0100
0000
,
0020
0000
0030
0000
,
1000
0000
0000
0000
,
0010
0000
0000
0000
,
0100
0000
0000
0000
,
0001
0000
0000
0000
,
1000
0000
1000
0000
,
0010
0000
0010
0000
,
0100
0100
0100
0000
,
0011
0000
0000
0000
,
1001
0000
0000
0000
;
