#TITLE:(The title is) TOO LONG to write here.;
#SUBTITLE:;
#ARTIST:t+pazolite;
#TITLETRANSLIT:;
#SUBTITLETRANSLIT:;
#ARTISTTRANSLIT:;
#CREDIT:;
#BANNER:[Round 11] - (The title is) TOO LONG to write here.png;
#BACKGROUND:[Round 11] - (The title is) TOO LONG to write here-bg.png;
#LYRICSPATH:;
#CDTITLE:cdtitle.png;
#MUSIC:[Round 11] - (The title is) TOO LONG to write here.ogg;
#OFFSET:-0.012;
#SAMPLESTART:47.992;
#SAMPLELENGTH:15.820;
#SELECTABLE:YES;
#BPMS:0.000=240.000;
#STOPS:;
#BGCHANGES:;

//---------------dance-single - ----------------
#NOTES:
     dance-single:
     :
     Hard:
     10:
     0.878,1.000,0.598,0.040,0.171:
0000
0000
0000
0000
,
0000
0000
0000
0000
,
0000
0000
0000
0000
,
0000
0000
0000
0000
,
0000
0000
0000
0000
,
0000
0000
0000
0000
,
0000
0000
0000
0000
,
0000
0000
0000
0000
,
1000
0100
1000
0100
0001
0100
0001
0100
,
1000
0010
1000
0010
0001
0010
0001
0010
,
0100
1000
0100
1000
0100
0010
0100
0010
,
0100
0001
0100
0001
0010
0001
0010
0001
,
0010
0100
0010
0100
0010
0001
0010
0001
,
0100
0001
0100
0001
0100
1000
0100
1000
,
0100
0010
0100
0010
1000
0000
1001
0001
,
0000
0000
1000
0000
0010
0000
0100
0000
0001
1000
0001
1000
0001
1000
0001
1000
,
0001
0010
1000
0010
0100
0010
0001
0100
,
0010
1000
0100
0010
0100
1000
0001
0010
,
0001
0100
1000
0100
0010
0100
0001
0010
,
0100
1000
0010
0100
0010
1000
0100
0100
,
0010
0001
0100
0010
1000
0100
0010
0001
,
1000
0100
0001
0100
0010
0100
1000
0001
,
1000
0010
0001
0010
0100
0010
1000
0001
,
0010
0100
1000
0020
0000
1030
0100
0100
,
0010
0001
0100
1000
0100
0001
0010
0100
,
0001
0100
1000
0010
1000
0100
0010
0001
,
1000
0100
0001
0100
1000
0010
0100
0001
,
1000
0010
0100
1000
0100
0001
0010
0010
,
0100
1000
0001
0010
1000
0001
0100
1000
,
0010
0100
0001
1000
0100
0010
0001
0100
,
0001
0010
0010
0010
0010
0100
1000
0010
,
0000
0000
1001
0000
0110
0010
0100
0010
,
0100
0000
0000
0000
0001
0000
0000
1100
,
0000
1100
0010
0000
,
1000
0001
0000
0000
0010
0000
0000
0110
,
0000
0000
0110
0000
0001
1000
0000
0000
,
0101
0000
0000
0000
0010
0000
0000
1001
,
0000
1001
0100
0000
,
0010
1000
0000
0000
0001
0000
0000
0101
,
0000
0000
0101
0000
1000
0010
0000
0000
,
0210
0000
0000
0000
0301
0000
0000
1000
,
0000
0001
0010
0100
,
2000
0000
0000
0000
3010
0000
0000
0100
,
0000
0001
1000
0100
,
0020
0000
0000
0000
0031
0000
0000
1000
,
0000
0001
1000
0010
,
1000
0100
1000
0100
1000
0100
0010
0001
,
0000
0000
0001
0000
0100
0000
0010
0000
1000
0001
1000
0001
1000
0001
1000
0001
,
1000
0100
0010
0100
0001
0100
0010
0100
,
1000
0010
0100
0010
0001
0010
0100
0010
,
1000
0001
0010
1000
0001
0100
1000
0010
,
1000
0100
0010
1000
0010
0001
0100
0100
,
0001
0100
1000
0100
0010
0100
1000
0100
,
0001
0010
1000
0010
0100
0010
1000
0010
,
0001
1000
0100
0001
1000
0010
0001
0100
,
0001
0010
0100
2000
0000
3001
0001
0100
,
0010
1000
0010
0100
1000
0100
0001
1000
,
0010
1000
0100
0010
1000
0010
0001
0100
,
0001
0010
0100
0001
0100
1000
0010
0100
,
0001
0000
0100
0000
0010
0000
0001
0000
0010
0000
1000
0000
0001
1000
0001
1000
,
0001
1000
0001
1000
0001
1000
0001
1000
,
0010
0100
0010
0100
0010
0100
0010
0100
,
0001
0010
0001
0010
0001
0010
0001
0010
0100
1000
0100
1000
0100
1000
0100
0000
,
0000
1000
0010
0010
0100
0001
0010
0100
,
1000
0010
0001
0010
0000
0100
1000
0100
,
0000
0001
0010
0001
0000
1000
0100
0010
,
0001
0000
1001
0000
1000
0010
0100
0001
,
0000
0011
0000
0110
0000
1000
0100
0001
,
0100
1000
0010
0100
0000
1000
0100
1000
,
0000
0100
0001
0010
0001
0000
1001
0000
,
1100
0000
0011
0000
1000
0100
0010
0001
,
0000
1000
0001
1000
0010
0100
0100
0000
,
0001
0010
0100
0001
0000
0100
1000
0100
,
0000
1000
0010
0001
0000
0010
0100
1000
,
0100
0000
0011
0000
1000
0100
0010
0001
,
0000
0101
0000
1010
0000
0001
0100
0010
,
1000
0010
0001
0010
0000
0100
0001
0010
,
0000
0100
1000
0100
0010
0000
0011
0000
,
1001
0000
0110
0000
0001
0010
0100
1000
,
0000
0001
0100
0010
1000
0100
0100
0010
,
0001
0000
0010
0100
0000
0010
0000
0000
0001
0100
0000
0010
,
0000
0000
1000
0100
0000
0010
0000
0000
0001
1000
0000
1000
,
0010
0000
0000
0110
0000
0000
0100
0000
0100
0001
0000
1000
,
0000
0000
1100
0000
0000
0110
0000
0000
0001
0010
0000
0010
,
0100
0000
1000
0001
0000
0100
0000
0000
0010
0100
0000
0001
,
0000
0000
1000
0100
0000
0100
0010
0000
0000
1001
0000
0000
,
0101
0000
0000
1010
0000
0000
1000
0000
0100
0010
0000
0001
,
1000
1100
0101
0011
,
1000
0001
0010
1000
0010
0001
0100
1000
,
0100
0010
1000
0100
0010
0000
1001
0000
,
0001
1000
0010
0001
0010
1000
0100
0001
,
0100
0010
0001
0100
0010
0000
1000
1000
,
0001
0100
1000
0001
1000
0100
0001
1000
,
0100
0010
0001
1000
0001
0000
1001
0000
,
1000
1000
0010
0100
0001
0010
0100
0100
,
1000
0001
0010
1000
0010
0000
0011
0000
,
1100
0000
0000
0101
0000
0000
0011
0000
,
0000
1010
0000
0000
0110
0000
0010
0000
,
1001
0000
0000
0110
0000
0000
1100
0000
,
0000
0011
0000
0000
1001
0000
0011
0000
,
1010
0000
0000
0101
0000
0000
0110
0000
,
0000
1001
0000
0000
1100
0000
1000
0000
,
0101
0000
0000
0011
0000
0000
0110
0000
,
0000
1010
0000
0000
0011
0000
1001
0000
,
1010
0000
0000
0110
0000
0000
0011
0000
,
0000
0110
0000
0000
1010
0000
1000
0001
,
0101
0000
0000
0110
0000
0000
1100
0000
,
0000
0110
0000
0000
0101
0000
0011
0000
,
1001
0000
0000
1100
0000
0000
1001
0000
,
0000
0101
0000
0000
0110
0000
0010
0000
,
1000
0100
0010
0001
,
0000
0000
1000
0000
0010
0000
1000
0000
0001
1000
0001
1000
0001
1000
0001
1000
,
0001
0000
1000
0000
0001
0010
0100
1000
,
0000
1000
0001
0000
1000
0010
0100
0000
,
0001
0000
1000
0000
0001
0100
0010
1000
,
0000
1000
0001
0000
1000
0100
0010
0001
,
1000
0000
0001
0000
1000
0010
0100
0001
,
0000
0001
1000
0000
0001
0010
0100
0000
,
1000
0000
0001
0000
1000
0100
0010
0001
,
0000
0001
1000
0000
0001
0100
0010
1000
,
0001
0000
0000
0000
;

//---------------dance-single - ----------------
#NOTES:
     dance-single:
     :
     Medium:
     8:
     0.602,0.759,0.550,0.016,0.000: // measure 1
0000
0000
0000
0000
,  // measure 2
0000
0000
0000
0000
,  // measure 3
0000
0000
0000
0000
,  // measure 4
0000
0000
0000
0000
,  // measure 5
0000
0000
0000
0000
,  // measure 6
0000
0000
0000
0000
,  // measure 7
0000
0000
0000
0000
,  // measure 8
0000
0000
0000
0000
,  // measure 9
1000
0000
0001
0000
1000
0010
1000
0010
,  // measure 10
0000
0100
0001
0000
0010
0100
1000
0000
,  // measure 11
0001
0000
1000
0000
0001
0010
0001
0010
,  // measure 12
0000
0100
1000
0000
0010
0100
0001
0100
,  // measure 13
0001
0000
1000
0000
0010
1000
0010
0100
,  // measure 14
0000
0001
0010
0000
0001
1000
0100
0000
,  // measure 15
0011
0000
1001
0000
1100
0000
1000
0001
,  // measure 16
0000
1000
0010
1000
0001
0010
0100
1000
,  // measure 17
0001
0100
0010
1000
,  // measure 18
0100
0010
0001
1000
,  // measure 19
0001
0010
0100
0010
,  // measure 20
0001
0000
1000
0000
0100
0000
0010
0001
,  // measure 21
1000
0010
0100
0001
,  // measure 22
0010
0100
1000
0010
,  // measure 23
0100
1000
0100
0010
,  // measure 24
1000
0010
0100
0001
0000
1000
0010
0010
,  // measure 25
1000
0100
0001
0100
,  // measure 26
1000
0010
0001
0010
,  // measure 27
1000
0100
0010
1000
,  // measure 28
0010
0000
0001
0000
0100
0000
0001
1000
,  // measure 29
0001
0100
0010
0001
,  // measure 30
0010
1000
0010
0100
,  // measure 31
0010
1000
0010
1000
0001
0010
0100
1000
,  // measure 32
0000
1001
0101
0011
,  // measure 33
1000
0000
0000
0000
0010
0000
0000
0110
,  // measure 34
0000
0110
0100
0000
,  // measure 35
0001
1000
0000
0000
0010
0000
0000
1100
,  // measure 36
0000
0000
1100
0000
0100
0010
0000
0000
,  // measure 37
1001
0000
0000
0000
0100
0000
0000
0011
,  // measure 38
0000
0011
0001
0000
,  // measure 39
1000
0001
0000
0000
0100
0000
0000
1001
,  // measure 40
0000
0000
1001
0000
0001
0100
0000
0000
,  // measure 41
0001
0000
1000
0000
0010
0000
1000
0100
,  // measure 42
0000
0100
0010
0000
0001
1000
0001
1000
,  // measure 43
0010
0000
0100
0000
0001
0000
0010
0100
,  // measure 44
0000
0100
1000
0000
0001
1000
0001
1000
,  // measure 45
0010
0000
0100
0000
0001
0000
1000
0001
,  // measure 46
0000
0001
0010
0000
0100
1000
0100
1000
,  // measure 47
0001
0000
1000
0000
0010
0000
1000
0010
,  // measure 48
0000
0010
0100
0010
1000
0100
0010
0001
,  // measure 49
1000
0010
0001
0010
,  // measure 50
0100
1000
0100
0001
,  // measure 51
0010
1000
0010
0100
,  // measure 52
1000
0000
0100
0000
0001
0000
0100
1000
,  // measure 53
0100
0010
1000
0010
,  // measure 54
0001
0100
0001
0100
,  // measure 55
0010
0001
0010
1000
,  // measure 56
0001
0010
0100
1000
0000
0001
0100
0100
,  // measure 57
0001
0010
0100
0001
,  // measure 58
0100
1000
0010
1000
,  // measure 59
0100
0010
0001
0100
,  // measure 60
1000
0000
0100
0000
0001
0000
1000
0010
,  // measure 61
1000
0001
1000
0001
1000
0001
1000
0001
,  // measure 62
0100
0010
0100
0010
0100
0010
0100
0010
,  // measure 63
1000
0001
0100
0001
0100
0010
1000
0100
,  // measure 64
0000
0000
0000
0000
0000
0010
0001
0010
,  // measure 65
0001
1000
0001
1000
0000
0010
1000
0010
,  // measure 66
0000
1000
0001
1000
0000
0001
1000
0000
,  // measure 67
0001
0000
0010
0000
0100
0000
1000
0001
,  // measure 68
0000
1000
0000
0100
0000
0010
0001
0000
,  // measure 69
1000
0010
1000
0010
0000
1000
0001
1000
,  // measure 70
0000
0001
0100
0001
0100
0000
0010
0000
,  // measure 71
1000
0000
0001
0000
1000
0100
0010
0002
,  // measure 72
0000
0000
0000
0000
0000
1003
0000
0000
,  // measure 73
0001
0100
0001
0100
0000
0010
1000
0010
,  // measure 74
0000
1000
0100
1000
0000
0001
1000
0000
,  // measure 75
0100
0000
0010
0000
0001
0000
0100
0010
,  // measure 76
0000
1000
0000
0010
0000
0100
0001
0000
,  // measure 77
1000
0010
1000
0010
0000
0100
0001
0100
,  // measure 78
0000
0010
1000
0010
1000
0000
0001
0000
,  // measure 79
1000
0000
0010
0000
1000
0100
0010
0002
,  // measure 80
0000
0000
0000
0000
0000
0003
0000
0000
,  // measure 81
1001
0000
0110
0000
,  // measure 82
1001
0000
0110
0000
,  // measure 83
1001
0000
0110
0000
,  // measure 84
1001
0000
0110
0000
,  // measure 85
0101
0000
1010
0000
,  // measure 86
0101
0000
1010
0000
,  // measure 87
0011
0000
1100
0000
,  // measure 88
0011
0001
1000
0001
,  // measure 89
0100
0010
0100
0010
,  // measure 90
1000
0100
0010
0001
,  // measure 91
0100
0010
0100
0010
,  // measure 92
1000
0000
0010
0000
0100
0000
0001
1000
,  // measure 93
0001
0100
0010
0100
,  // measure 94
0001
0100
1000
0100
,  // measure 95
0001
0010
0100
1000
0010
0000
0110
0000
,  // measure 96
1000
0010
0100
0001
0010
0010
0100
1000
,  // measure 97
1001
0000
0000
1001
0000
0000
1100
0000
,  // measure 98
0000
1100
0000
0000
0101
0000
0001
0000
,  // measure 99
0011
0000
0000
0011
0000
0000
1001
0000
,  // measure 100
0000
1001
0000
0000
0110
0000
1001
0000
,  // measure 101
1010
0000
0000
1010
0000
0000
0101
0000
,  // measure 102
0000
0101
0000
0000
0011
0000
0010
0000
,  // measure 103
0110
0000
0000
0110
0000
0000
1100
0000
,  // measure 104
0000
1100
0000
0000
1001
0000
0001
0000
,  // measure 105
0101
0000
0000
0110
0000
0000
1010
0000
,  // measure 106
0000
0110
0000
0000
1001
0000
1000
0001
,  // measure 107
1001
0000
0000
0101
0000
0000
1001
0000
,  // measure 108
0000
1100
0000
0000
1001
0000
0110
0000
,  // measure 109
0011
0000
0000
1001
0000
0000
1100
0000
,  // measure 110
0000
1001
0000
0000
0110
0000
1010
0000
,  // measure 111
1000
0001
0100
0001
,  // measure 112
0000
1000
0010
1000
0001
0010
0100
1000
,  // measure 113
0001
0000
0000
0000
;

//---------------dance-single - ----------------
#NOTES:
     dance-single:
     :
     Easy:
     6:
     0.364,0.446,0.120,0.000,0.000:
0000
0000
0000
0000
,
0000
0000
0000
0000
,
0000
0000
0000
0000
,
0000
0000
0000
0000
,
0000
0000
0000
0000
,
0000
0000
0000
0000
,
0000
0000
0000
0000
,
0000
0000
0000
0000
,
1000
0010
1000
0010
,
1000
0001
1000
0001
,
1000
0100
1000
0100
,
1000
0001
1000
0001
,
1000
0010
1000
0010
,
1000
0001
1000
0001
,
0100
0010
0100
0010
,
0000
0100
0100
0100
,
0001
0010
0001
0010
,
0100
1000
0100
0000
,
1000
0010
1000
0010
,
0100
0001
0100
0000
,
0001
1000
0001
1000
,
0010
1000
0010
0000
,
1000
0001
1000
0010
,
0100
0010
0000
0000
,
1000
0010
1000
0010
,
0100
0001
0100
0000
,
0001
0100
0001
0100
,
0010
1000
0010
0000
,
1000
0100
1000
0100
,
0010
0001
0100
0000
,
0001
1000
1000
1000
,
0000
0001
0001
0100
,
0100
0000
0001
0000
,
1000
0000
0010
0000
,
1000
0000
0100
0000
,
0010
0000
0001
0000
,
0100
0000
0010
0000
,
1000
0000
0001
0000
,
0100
0000
0010
0000
,
1000
0000
0100
0000
,
1000
0000
0000
0000
,
0001
0000
0000
0000
,
1000
0000
0000
0000
,
0010
0000
0000
0000
,
0100
0000
0000
0000
,
0001
0000
0000
0000
,
1000
0000
0000
0000
,
0001
1000
0001
1000
,
0001
0100
0010
1000
,
0100
1000
0010
0000
,
1000
0010
0100
0001
,
0010
0001
0100
0000
,
0010
1000
0010
1000
,
0100
0010
0001
0000
,
1000
0100
0010
0001
,
0100
0010
0000
0000
,
1000
0001
0100
0001
,
1000
0001
0100
0000
,
0001
1000
0010
1000
,
0001
1000
0010
0000
,
1000
0100
0010
0100
,
1000
0100
0010
0100
,
1000
0001
1000
0001
,
0000
0000
0000
1000
,
0001
0000
0100
0000
,
0010
0000
1000
0000
,
0001
0010
0001
0010
,
0100
1000
0001
1000
,
0010
0000
0100
0000
,
0010
0000
1000
0000
,
0100
1000
0100
1000
,
0001
1000
0010
0000
,
1000
0000
0100
0000
,
0010
0000
0001
0000
,
1000
0001
1000
0010
,
0100
0001
0100
0000
,
0001
0000
0100
0000
,
0010
0000
1000
0000
,
0001
0100
0001
0100
,
0010
1000
0010
0000
,
1001
0000
1001
0000
,
0110
0000
0110
0000
,
1001
0000
1001
0000
,
0110
0000
0110
0000
,
1001
0000
1001
0000
,
0110
0000
0110
0000
,
1001
0000
1001
0000
,
0010
0010
0100
0100
,
0001
0010
0100
1000
,
0100
0010
0001
0000
,
1000
0010
0100
0001
,
0100
0010
1000
0000
,
0001
0010
0100
0010
,
0001
1000
0001
0000
,
1000
0010
0100
0010
,
1000
0001
1000
0001
,
1000
0000
0000
1000
0000
0000
1000
0000
,
0000
1000
0000
0000
0001
0000
0000
0000
,
0100
0000
0000
0100
0000
0000
0100
0000
,
0000
0100
0000
0000
0010
0000
1000
0000
,
0001
0000
0000
0001
0000
0000
0001
0000
,
0000
0001
0000
0000
0100
0000
0000
0000
,
0010
0000
0000
0010
0000
0000
0010
0000
,
0000
0010
0000
0000
1000
0000
0100
0000
,
0010
0000
0000
0010
0000
0000
0010
0000
,
0000
0010
0000
0000
0001
0000
0000
0000
,
0100
0000
0000
0100
0000
0000
0100
0000
,
0000
0100
0000
0000
0010
0000
1000
0000
,
0001
0000
0000
0001
0000
0000
0001
0000
,
0000
0001
0000
0000
1000
0000
0000
0000
,
0001
0100
0010
1000
,
0000
0001
0001
1000
,
1001
0000
0000
0000
;

//---------------dance-single - ----------------
#NOTES:
     dance-single:
     :
     Beginner:
     1:
     0.149,0.402,0.072,0.000,0.000:
0000
0000
0000
0000
,
0000
0000
0000
0000
,
0000
0000
0000
0000
,
0000
0000
0000
0000
,
0000
0000
0000
0000
,
0000
0000
0000
0000
,
0000
0000
0000
0000
,
0000
0000
0000
0000
,
1000
0000
0000
0000
,
1000
0000
0000
0000
,
0001
0000
0000
0000
,
0001
0000
0000
0000
,
0100
0000
0000
0000
,
0100
0000
0000
0000
,
0010
0000
0000
0000
,
0010
0000
0000
0000
,
1000
0000
0000
0000
,
0001
0000
0000
0000
,
1000
0000
0000
0000
,
0010
0000
0000
0000
,
0100
0000
0000
0000
,
0010
0000
0000
0000
,
0100
0000
0000
0000
,
0001
0000
0000
0000
,
1000
0000
0000
0000
,
0001
0000
0000
0000
,
1000
0000
0000
0000
,
0100
0000
0000
0000
,
1000
0000
0000
0000
,
0010
0000
0000
0000
,
0100
0000
0100
0000
,
0000
0000
0000
0000
,
0001
0000
0000
0000
,
0001
0000
0000
0000
,
1000
0000
0000
0000
,
1000
0000
0000
0000
,
0010
0000
0000
0000
,
0010
0000
0000
0000
,
0100
0000
0000
0000
,
0100
0000
0000
0000
,
0010
0000
0000
0000
,
0010
0000
0000
0000
,
1000
0000
0000
0000
,
1000
0000
0000
0000
,
0100
0000
0000
0000
,
0100
0000
0000
0000
,
0010
0000
0000
0000
,
0010
0000
0000
0000
,
0001
0000
0000
0000
,
1000
0000
0000
0000
,
0010
0000
0000
0000
,
1000
0000
0000
0000
,
0100
0000
0000
0000
,
1000
0000
0000
0000
,
0100
0000
0000
0000
,
0010
0000
0000
0000
,
0001
0000
0000
0000
,
0100
0000
0000
0000
,
0010
0000
0000
0000
,
0100
0000
0000
0000
,
0010
0000
0000
0000
,
1000
0000
0000
0000
,
0001
0000
0001
0000
,
0000
0000
0000
0000
,
1000
0000
0000
0000
,
0010
0000
0000
0000
,
0100
0000
0000
0000
,
0010
0000
0000
0000
,
1000
0000
0000
0000
,
0100
0000
0000
0000
,
0010
0000
0000
0000
,
0001
0000
0000
0000
,
0100
0000
0000
0000
,
0010
0000
0000
0000
,
1000
0000
0000
0000
,
0001
0000
0000
0000
,
0100
0000
0000
0000
,
0010
0000
0000
0000
,
1000
0000
0000
0000
,
0001
0000
0000
0000
,
1001
0000
0001
0000
,
1001
0000
1000
0000
,
1001
0000
0001
0000
,
1001
0000
1000
0000
,
0110
0000
0010
0000
,
0110
0000
0100
0000
,
0110
0000
0010
0000
,
0110
0100
0100
0100
,
0001
0000
0000
0000
,
0010
0000
0000
0000
,
0100
0000
0000
0000
,
1000
0000
0000
0000
,
0001
0000
0000
0000
,
0100
0000
0000
0000
,
0010
0000
0000
0000
,
1000
0000
0000
0000
,
0100
0000
0000
0100
,
0000
0000
0100
0000
,
0010
0000
0000
0010
,
0000
0000
0010
0000
,
1000
0000
0000
1000
,
0000
0000
1000
0000
,
0001
0000
0000
0001
,
0000
0000
0001
0000
,
1000
0000
0000
0010
,
0000
0000
0100
0000
,
0001
0000
0000
0010
,
0000
0000
0100
0000
,
1000
0000
0000
0100
,
0000
0000
0010
0000
,
0001
0000
0000
0000
,
1000
0000
0000
0000
,
1001
0000
0000
0000
;
