#VERSION:0.81;
#TITLE:Wrecking Ball;
#SUBTITLE:;
#ARTIST:August Burns Red;
#TITLETRANSLIT:;
#SUBTITLETRANSLIT:;
#ARTISTTRANSLIT:;
#GENRE:;
#ORIGIN:;
#CREDIT:;
#BANNER:[Round 10] - Wrecking Ballbn.png;
#BACKGROUND:[Round 10] - Wrecking Ballbg.png;
#PREVIEWVID:;
#JACKET:;
#CDIMAGE:;
#DISCIMAGE:;
#LYRICSPATH:;
#CDTITLE:encorerebirth.png;
#MUSIC:[Round 10] - Wrecking Ball.ogg;
#OFFSET:0.009;
#SAMPLESTART:45.840;
#SAMPLELENGTH:15.440;
#SELECTABLE:YES;
#BPMS:0.000=125.000;
#STOPS:;
#DELAYS:;
#WARPS:;
#TIMESIGNATURES:0.000=4=4;
#TICKCOUNTS:0.000=4;
#COMBOS:0.000=1;
#SPEEDS:0.000=1.000=0.000=0;
#SCROLLS:0.000=1.000;
#FAKES:;
#LABELS:0.000=Song Start;
#BGCHANGES:;
#KEYSOUNDS:;
#ATTACKS:
;

//---------------dance-single - Spork!----------------
#NOTEDATA:;
#CHARTNAME:;
#STEPSTYPE:dance-single;
#DESCRIPTION:Spork!;
#CHARTSTYLE:;
#DIFFICULTY:Beginner;
#METER:1;
#RADARVALUES:0.082,0.091,0.042,0.094,0.000,42.000,4.000,9.000,0.000,0.000,0.000,0.000,0.000,0.082,0.091,0.042,0.094,0.000,42.000,4.000,9.000,0.000,0.000,0.000,0.000,0.000;
#CREDIT:Spork!;
#NOTES:
0000
0000
0000
0000
,
0000
0000
0000
0000
,
0000
0000
0000
0000
,
0000
0000
0000
0000
,
0010
0000
0000
0000
,
0010
0000
0000
0000
,
0010
0000
0000
0000
,
0200
0000
0000
0000
,
0301
0000
0001
0000
,
1000
0000
1000
0000
,
0100
0000
0000
0000
,
0010
0000
0000
0000
,
0100
0000
0100
0000
,
0010
0000
0010
0000
,
0001
0000
0000
0000
,
1000
0000
0000
0000
,
0100
0000
0000
0000
,
0010
0000
0000
0000
,
0001
0000
1000
0000
,
0001
0000
0000
0000
,
0010
0000
0000
0000
,
0100
0000
0000
0000
,
1000
0000
0001
0000
,
1000
0000
0000
0000
,
0000
0000
0010
0000
,
0010
0000
0000
0000
,
0000
0000
0100
0000
,
0100
0000
0000
0000
,
0000
0000
0001
0000
,
0001
0000
0000
0000
,
0000
0000
0000
0000
,
2002
0000
3003
0000
,
0000
0000
1000
0000
,
1000
0000
0000
0000
,
0000
0000
0001
0000
,
0001
0000
0000
0000
,
0000
0000
0100
0000
,
0100
0000
0000
0000
,
0000
0000
0000
0000
,
0220
0000
0330
0000
,
0000
0000
0000
0000
,
2002
0000
3003
0000
,
0000
0000
0000
0000
,
0220
0000
0330
0000
;

//---------------dance-single - Spork!----------------
#NOTEDATA:;
#CHARTNAME:;
#STEPSTYPE:dance-single;
#DESCRIPTION:Spork!;
#CHARTSTYLE:;
#DIFFICULTY:Easy;
#METER:2;
#RADARVALUES:0.149,0.136,0.167,0.094,0.000,75.000,16.000,9.000,0.000,0.000,0.000,0.000,0.000,0.149,0.136,0.167,0.094,0.000,75.000,16.000,9.000,0.000,0.000,0.000,0.000,0.000;
#CREDIT:Spork!;
#NOTES:
0000
0000
0000
0000
,
0000
0000
0000
0000
,
0000
0000
0000
0000
,
0000
0000
0000
0000
,
1000
0000
0001
0001
,
0010
0000
0100
0100
,
1000
0000
0010
0010
,
0200
0000
0000
0301
,
0001
0000
0010
0000
,
0001
0000
0100
0000
,
0010
0000
1000
0000
,
0001
0000
0000
1000
,
1000
0000
0010
0000
,
1000
0000
0100
0000
,
0010
0000
0001
0000
,
1000
0000
0000
0000
,
0001
0000
0101
0000
,
0100
0000
0110
0000
,
0010
0000
1000
0000
,
0001
0000
0000
0000
,
1000
0000
1100
0000
,
0100
0000
0110
0000
,
0010
0000
0001
0000
,
1000
0000
0000
0000
,
0000
0000
1001
0000
,
1001
0000
0100
0000
,
0010
0000
0110
0000
,
0110
0000
0010
0000
,
1000
0000
1001
0000
,
0110
0000
0100
0000
,
0001
0000
2000
0000
,
0002
0000
3003
0000
,
0010
0000
1010
0000
,
1010
0000
1000
0000
,
0001
0000
0011
0000
,
0011
0000
0001
0000
,
1000
0000
0110
0000
,
1001
0000
0100
0000
,
0010
0000
0002
0000
,
2000
0000
3003
0000
,
0000
0100
0200
0000
,
0020
0000
0330
0000
,
0000
1000
2000
0000
,
0002
0000
3003
0000
;

//---------------dance-single - Spork!----------------
#NOTEDATA:;
#CHARTNAME:;
#STEPSTYPE:dance-single;
#DESCRIPTION:Spork!;
#CHARTSTYLE:;
#DIFFICULTY:Medium;
#METER:4;
#RADARVALUES:0.283,0.304,0.323,0.271,0.000,133.000,31.000,26.000,0.000,0.000,0.000,0.000,0.000,0.283,0.304,0.323,0.271,0.000,133.000,31.000,26.000,0.000,0.000,0.000,0.000,0.000;
#CREDIT:Spork!;
#NOTES:
0000
0000
0000
0000
,
0000
0000
0000
0000
,
0000
0000
0000
0000
,
0000
0000
0000
0000
,
0010
1000
0100
0100
,
0010
0001
1000
1000
,
0010
1000
0001
0001
,
2002
0000
0000
3003
,
1001
0010
1000
0001
,
1001
0010
0001
1000
,
0100
0000
0100
1000
,
0010
0100
0001
0010
,
1001
0100
0001
1000
,
1001
0100
1000
0001
,
0010
0000
0010
0001
,
0100
0010
1000
0100
,
1001
0200
0010
0310
,
1001
0020
0100
0130
,
1000
0010
0100
0001
,
0010
0100
1000
0001
,
1001
0200
0010
0310
,
1001
0020
0100
0130
,
0001
0100
0010
1000
,
0100
0010
0001
0000
,
0000
0000
1001
0100
,
1001
0001
0010
0100
,
1000
1000
0010
0000
0110
0000
1000
0000
,
0110
0100
0001
1000
,
0100
0100
0010
0000
0110
0000
0001
0000
,
0110
0100
1000
0001
,
1000
1000
0001
0000
0100
0000
0010
0000
,
0110
1001
0220
0330
,
1000
0010
2002
3003
,
0022
0000
0033
0000
,
0001
0010
2002
3003
,
2020
0000
3030
0000
,
1000
1000
0001
0000
0220
0000
0330
0000
,
0202
0000
0303
0000
,
0001
1000
0100
0000
,
0110
1001
0220
0000
,
0330
0100
0010
0000
,
1001
0110
2002
0000
,
3003
1000
0001
0000
,
2002
0000
0000
0000
,
0000
0000
0000
0000
0000
0000
0000
3003
;

//---------------dance-single - Spork!----------------
#NOTEDATA:;
#CHARTNAME:;
#STEPSTYPE:dance-single;
#DESCRIPTION:Spork!;
#CHARTSTYLE:;
#DIFFICULTY:Hard;
#METER:7;
#RADARVALUES:0.429,0.398,0.375,0.323,0.021,221.000,36.000,31.000,0.000,0.000,0.000,0.000,0.000,0.429,0.398,0.375,0.323,0.021,221.000,36.000,31.000,0.000,0.000,0.000,0.000,0.000;
#CREDIT:Spork!;
#NOTES:
0000
0000
0000
0000
,
0000
0000
0000
0000
,
0000
0000
0000
0000
,
0000
0000
0000
0000
,
0001
0100
0001
0100
0010
1000
0001
0001
,
1000
0100
1000
0100
0010
0001
0100
0001
,
1000
0010
1000
0010
0110
0000
0101
0000
,
2002
0000
3003
0010
,
0101
0010
1100
1000
,
0011
0000
0001
0000
1010
0000
0010
1000
,
0001
0000
1000
0000
0010
1000
0100
1000
,
0010
0100
0001
1000
0001
0100
0010
1000
,
1100
0010
0101
0001
,
1010
0000
1000
0000
0011
0000
0010
0001
,
1000
0000
0001
0000
0100
0001
0010
0001
,
0100
0010
1000
0001
1000
0010
0100
0100
,
0002
0000
0013
0000
0001
0100
1000
0100
,
0002
0000
1003
0000
0001
0010
1000
0010
,
0002
0023
0230
2300
,
3001
0100
0010
1000
0010
0100
0001
0001
,
2000
0000
3010
0000
1000
0100
0001
0100
,
2000
0000
3001
0000
1000
0010
0001
0010
,
2000
3200
0320
0032
,
1003
0010
0100
0001
1000
0000
0000
0000
,
0000
0000
0000
0000
0201
0000
0310
1000
,
1200
0000
0310
0000
0100
0000
0100
1000
,
0010
0100
0001
0001
0021
0000
0130
1000
,
1020
0000
0130
0000
0001
0000
1000
0001
,
0100
0010
1000
1000
1200
0000
0310
0001
,
0201
0000
0310
0000
0100
0000
0100
0001
,
0010
0100
1000
0100
0010
0000
0010
0001
,
0100
0010
1000
0010
0100
0000
0100
0001
,
0010
0100
1000
1000
2020
0000
3030
1010
,
1001
0000
0010
0000
0001
0000
0001
0010
,
0100
0010
0001
0001
0202
0000
0303
0101
,
1001
0000
0010
0000
1000
0000
1000
0001
,
0010
0001
0100
0010
0220
0000
0330
0110
,
1001
0000
0010
0000
0001
0000
1000
0100
,
0010
0001
0100
0001
1000
0000
1000
0000
,
1010
0000
0000
1000
0000
0000
0100
0000
0110
0000
0000
0000
0010
0000
0000
0000
,
0001
0000
0001
1000
0020
0000
0030
0000
,
0101
0000
0000
0001
0000
0000
0010
0000
0110
0000
0000
0000
0100
0000
0000
0000
,
1000
1100
2002
3003
,
0011
0000
0000
1001
0000
0000
0101
0000
0000
0220
0000
0000
0000
0000
0000
0000
,
0000
0000
0000
0000
0000
0000
0000
0330
;

//---------------dance-single - Spork!----------------
#NOTEDATA:;
#CHARTNAME:;
#STEPSTYPE:dance-single;
#DESCRIPTION:Spork!;
#CHARTSTYLE:;
#DIFFICULTY:Challenge;
#METER:10;
#RADARVALUES:0.716,0.806,0.334,0.094,0.897,440.000,32.000,9.000,18.000,0.000,23.000,0.000,0.000,0.716,0.806,0.334,0.094,0.897,440.000,32.000,9.000,18.000,0.000,23.000,0.000,0.000;
#CREDIT:Spork!;
#NOTES:
// measure 0
0000
0000
0000
0000
,  // measure 1
0000
0000
0000
0000
,  // measure 2
0000
0000
0000
0000
,  // measure 3
0000
0000
0000
0000
,  // measure 4
0001
0000
0010
0001
0000
0100
0001
0000
0001
1000
0000
0010
1000
0001
1000
0100
,  // measure 5
0000
1000
0010
0000
0100
0010
0000
0100
0001
1000
0001
0010
0000
0001
0010
0100
,  // measure 6
1000
0000
0000
0000
0010
0000
1000
0000
0000
0000
0100
0000
1000
0000
0000
0000
0001
1000
0001
1000
0001
0000
0010
0000
0001
1000
0001
1000
0001
0000
0100
0000
,  // measure 7
0001
0010
0100
1000
0010
0100
0001
0100
0010
1000
0100
0010
0001
0100
0001
1000
,  // measure 8
0020
0100
1030
0001
0021
0001
0130
0010
,  // measure 9
0200
0010
1300
0001
0201
0001
0310
1000
,  // measure 10
0001
0010
0001
0010
0100
1000
0100
1000
0010
0100
0010
0100
0001
1000
0001
1000
,  // measure 11
0100
0000
0000
1000
0000
0000
0010
0000
0000
0100
0000
0000
0001
0000
0000
0100
0000
0000
0010
0000
0000
1000
0000
0000
0100
0000
0000
0010
0000
0000
0001
0000
0100
0000
0001
0000
0100
0000
0000
0001
0000
0000
0100
0000
0000
0001
0000
0000
,  // measure 12
4000
0000
0000
0000
0040
3000
0000
0000
0004
0030
0000
0000
0010
0003
0010
1000
,  // measure 13
0004
0000
0000
0000
0040
0003
0000
0000
4000
0030
0000
0000
0010
3000
0001
0000
,  // measure 14
1010
0000
1001
0000
1100
00M0
0100
0000
0101
0000
1001
0000
0011
0M00
0010
0000
,  // measure 15
1000
0000
0000
0000
0000
0000
0100
0000
1000
0000
0100
0000
1000
0000
0000
0000
0000
0000
0010
0000
0000
0000
0000
0000
0100
0000
0000
0000
0000
0000
0100
0000
0000
0010
0000
0000
0100
0000
0000
0001
0000
0000
0010
0000
0000
0010
0000
0000
,  // measure 16
0001
0100
0001
0100
0001
1000
0001
1000
0010
0100
0001
0010
0100
1000
0001
0001
,  // measure 17
1000
0100
1000
0100
1000
0001
1000
0001
0100
0010
1000
0100
0010
0001
1000
1000
,  // measure 18
0001
0010
0100
0010
0001
0010
0100
0010
1000
0010
0100
0010
0001
1000
0010
0010
,  // measure 19
1000
0010
0100
0010
1000
0010
0100
0010
0001
0010
0100
0010
1000
0001
0010
0010
,  // measure 20
M001
0010
0001
0010
M001
0100
0001
0100
001M
1000
0M01
0010
010M
1000
0100
0100
,  // measure 21
100M
0010
1000
0010
100M
0100
1000
0100
M010
0001
1M00
0010
M100
0001
0100
0100
,  // measure 22
M001
0010
0001
0010
1M00
0010
1000
0010
M001
0100
00M1
0100
1000
0100
10M0
0100
,  // measure 23
0001
0010
M100
0010
0001
1000
0100
0010
0002
0000
0000
0000
0000
0000
1000
0000
,  // measure 24
1003
1000
0001
0010
0014
0000
1003
0101
,  // measure 25
4100
0000
0010
0000
0100
0000
3001
0100
,  // measure 26
0100
0100
0010
1000
1400
0000
0310
0011
,  // measure 27
1040
0000
1000
0000
0001
0000
0130
0001
,  // measure 28
0001
1000
0001
0010
0100
1000
0001
1000
1040
0000
0000
0000
0130
0000
0101
0000
,  // measure 29
1400
0000
1000
0000
0001
0000
0310
0001
,  // measure 30
0001
0001
0010
0100
2000
0010
3100
0001
,  // measure 31
0002
0000
0100
0000
0010
0000
1003
0000
1000
0100
1000
0010
0100
0001
0010
0100
,  // measure 32
1001
0000
1001
0100
0010
1000
0100
0010
0001
0100
0040
0000
0000
0000
1030
0000
,  // measure 33
0100
1000
0010
1000
0001
0000
0400
0000
0000
0000
0301
1000
0040
0000
0000
0000
,  // measure 34
1030
0100
0010
0001
0100
0010
1000
0100
1000
0010
0400
0000
0000
0000
0310
1000
,  // measure 35
0004
0000
0000
0000
0013
0100
0040
0000
0000
0000
0031
1000
0400
0000
0000
0000
,  // measure 36
1300
0010
0100
0010
0001
0010
0100
0010
1000
0100
0040
0000
0000
0000
0031
0000
,  // measure 37
0100
0001
0010
0001
1000
0000
0400
0000
0000
0000
1300
0010
1000
0000
0001
0010
,  // measure 38
0001
0000
1000
0000
0001
0000
1000
0000
0000
0100
0000
0000
1000
0000
0000
0001
0000
0000
0100
0000
0000
0001
0000
0000
0010
0000
0000
0100
0000
0000
0000
0000
0000
0100
0000
0000
1000
0000
0000
0001
0000
0000
1000
0000
0000
0010
0000
0000
,  // measure 39
1010
0000
0000
1001
0000
0000
0101
0000
1100
0000
0100
0000
0010
0001
0010
0100
,  // measure 40
1000
0010
0100
0001
0100
0010
1000
0001
1001
0000
0001
1000
0100
0010
0001
0100
,  // measure 41
0101
0000
0000
0110
0000
0000
1010
0000
0041
0000
0000
0000
0001
0000
0000
0000
,  // measure 42
1000
0000
0000
0000
0130
1000
0010
0100
0002
0000
0000
0000
1003
0000
0010
0000
,  // measure 43
1001
0000
0000
1100
0000
0000
0101
0000
0000
0240
0000
0000
0000
0000
0000
0000
,  // measure 44
0000
0000
0000
0000
0000
0000
0000
0030
,  // measure 45
0000
0000
0000
0000
,  // measure 46
0000
0000
0000
0000
0000
0000
0000
0300
;
