#VERSION:0.81;
#TITLE:Morning Light;
#SUBTITLE:(ReRave Mix);
#ARTIST:Donk Terrorist fw. Yuki;
#TITLETRANSLIT:;
#SUBTITLETRANSLIT:;
#ARTISTTRANSLIT:;
#GENRE:Scouse House;
#ORIGIN:;
#CREDIT:;
#BANNER:Morning Light-banner.png;
#BACKGROUND:Morning Light-bg.png;
#PREVIEWVID:;
#JACKET:Morning Light-jacket.png;
#CDIMAGE:;
#DISCIMAGE:;
#LYRICSPATH:;
#CDTITLE:;
#MUSIC:[Round 10] - Morning Light (ReRave Mix).ogg;
#OFFSET:-0.055000;
#SAMPLESTART:61.851990;
#SAMPLELENGTH:13.500000;
#SELECTABLE:YES;
#BPMS:0.000=155.000;
#STOPS:;
#DELAYS:;
#WARPS:;
#TIMESIGNATURES:0.000=4=4;
#TICKCOUNTS:0.000=4;
#COMBOS:0.000=1;
#SPEEDS:0.000=1.000=0.000=0;
#SCROLLS:0.000=1.000;
#FAKES:;
#LABELS:0.000=Song Start;
#BGCHANGES:;
#KEYSOUNDS:;
#ATTACKS:
;

//---------------dance-single - ----------------
#NOTEDATA:;
#CHARTNAME:;
#STEPSTYPE:dance-single;
#DESCRIPTION:;
#CHARTSTYLE:;
#DIFFICULTY:Challenge;
#METER:9;
#RADARVALUES:0.510601,0.613484,0.074685,0.149370,0.218720,314.000000,7.000000,14.000000,0.000000,0.000000,0.000000,0.000000,0.000000,0.510601,0.613484,0.074685,0.149370,0.218720,314.000000,7.000000,14.000000,0.000000,0.000000,0.000000,0.000000,0.000000;
#CREDIT:;
#NOTES:
0000
0000
0000
0000
,
0000
0000
0000
0000
,
0000
0000
0000
0000
,
0000
0000
0000
0000
,
0000
0000
0000
0000
,
0000
0000
0000
0000
,
0000
0000
0000
0000
,
0000
0000
0000
0000
,
0000
0000
1001
0000
,
1000
0001
0100
0000
,
0001
0010
0000
0001
1000
0000
0000
0000
,
0001
1000
0100
0000
,
1000
0010
0000
1000
0001
0000
0000
0000
,
1000
0001
0100
0000
,
0001
1000
0100
0000
,
0000
0000
1001
0000
,
0000
0000
0000
0000
0001
0100
0010
0100
,
0001
0010
0100
1000
0010
0100
0010
0100
,
0000
0000
0100
0000
0010
0000
1000
0001
1000
0000
0100
0000
0010
0000
0100
0000
,
1000
1000
0001
0100
0001
0001
1000
0100
,
0000
0000
1000
0000
0001
0000
1000
0001
1000
0000
0100
0000
0010
0000
0100
0000
,
1000
0010
0100
0001
0010
0100
0010
0100
,
0000
0000
0100
0000
0010
0000
0001
1000
0001
0000
0100
0000
0010
0000
0100
0000
,
0001
0001
1000
0100
1000
1000
0001
0100
,
0000
0000
0001
0000
1000
0000
0000
0000
0001
0100
0000
0001
0000
1000
0000
0100
,
0010
0000
0001
0000
0100
0000
0001
1000
0100
1000
0000
0010
0000
1000
0000
0001
,
0010
0000
0010
0000
0001
0000
1000
0010
1000
0100
0000
1000
0000
0001
0000
0100
,
0010
0000
1000
0000
0100
0000
1000
0001
0100
0001
0000
0010
0000
0001
0000
1000
,
0010
0000
0010
0000
1000
0000
0001
0000
0001
0100
0000
0010
0000
0010
0000
0100
,
0001
0000
1000
0000
0001
0000
1000
0100
0010
0100
0000
1000
0000
0001
0000
1000
,
0100
0000
1000
0000
0001
0000
1000
0010
1000
0100
0000
0010
0000
0010
0000
0100
,
1000
0000
0001
0000
1000
0000
0001
0100
0010
0100
0000
0001
0000
1000
0000
0001
,
0100
0001
1000
0001
0001
0000
1000
0100
,
0001
0201
2300
0010
,
3100
1000
0001
1000
1000
0000
0001
0100
,
1000
1200
0302
0010
,
1003
0100
1000
0010
0100
0000
0010
0100
,
0001
1002
0203
1000
,
0301
0100
0001
0010
0100
0000
0010
0100
,
1000
2001
3200
0001
,
1300
0100
0000
1000
0001
0100
0010
0000
,
0010
0100
0001
0010
0001
0001
1000
1000
,
0001
0100
0000
0001
1000
0100
0010
0000
,
0010
0100
1000
0010
1000
1000
0001
0001
,
1000
0100
0010
0100
1000
0010
0100
0000
,
0100
0010
1000
0100
0020
0000
1000
0000
,
0032
0000
0100
0000
1003
0100
0010
0100
,
1000
0010
0100
0010
1000
0000
0000
0000
,
0001
0100
0000
0001
1000
0100
0010
0000
,
0010
0100
1000
0010
1000
1000
0001
0001
,
1000
0100
0000
1000
0001
0100
0010
0000
,
0010
0100
0001
0010
0001
0001
1000
1000
,
0001
0100
0010
0100
0001
0010
0100
0000
,
0100
0010
0001
0100
0020
0000
0001
0000
,
2030
0000
0100
0000
3001
0100
0010
0100
,
0001
0010
0100
0010
0001
0100
0001
0001
,
1000
0100
1000
1000
2002
0000
0000
0000
,
0000
0000
3003
0000
;

//---------------dance-single - ----------------
#NOTEDATA:;
#CHARTNAME:;
#STEPSTYPE:dance-single;
#DESCRIPTION:;
#CHARTSTYLE:;
#DIFFICULTY:Hard;
#METER:7;
#RADARVALUES:0.458779,0.552135,0.256063,0.373425,0.085354,242.000000,24.000000,35.000000,0.000000,0.000000,0.000000,0.000000,0.000000,0.458779,0.552135,0.256063,0.373425,0.085354,242.000000,24.000000,35.000000,0.000000,0.000000,0.000000,0.000000,0.000000;
#CREDIT:;
#NOTES:
// measure 0
0000
0000
0000
0000
,  // measure 1
0000
0000
0000
0000
,  // measure 2
0000
0000
0000
0000
,  // measure 3
0000
0000
0000
0000
,  // measure 4
0000
0000
0000
0000
,  // measure 5
0000
0000
0000
0000
,  // measure 6
0000
0000
0000
0000
,  // measure 7
0000
0000
0000
0000
,  // measure 8
0000
0000
1001
0000
,  // measure 9
0001
1000
0100
0000
,  // measure 10
1000
0010
0000
1000
0001
0000
0000
0000
,  // measure 11
1000
0001
0100
0000
,  // measure 12
0001
0010
0000
0001
1000
0000
0000
0000
,  // measure 13
0001
1000
0100
0000
,  // measure 14
1000
0001
0100
0000
,  // measure 15
0000
0000
1001
0000
,  // measure 16
0000
0000
0201
1000
,  // measure 17
0302
0000
2003
0000
3100
0000
1000
0010
,  // measure 18
0000
1000
0001
0000
1200
0000
0001
0000
,  // measure 19
2300
0000
3002
0000
0103
0000
0001
0010
,  // measure 20
0000
0001
1000
0000
1002
0000
0100
0000
,  // measure 21
0023
0000
1000
0000
0031
0000
1000
0010
,  // measure 22
0000
0010
1000
0000
2001
0000
0100
0000
,  // measure 23
3020
0000
0001
0000
1030
0000
0001
0010
,  // measure 24
0000
0010
0001
0000
1000
0100
0001
0100
,  // measure 25
1000
0010
0100
0100
0001
0010
1000
0001
,  // measure 26
0100
1000
0010
0010
1000
0010
0001
1000
,  // measure 27
0100
0001
0010
0010
0001
0100
1000
0100
,  // measure 28
0001
0000
0010
0000
0100
0000
0100
0000
1000
0001
0000
0100
0000
0100
0000
0001
,  // measure 29
1000
0000
0100
0000
1000
0000
1000
0000
0001
0100
0000
0010
0000
0010
0000
0100
,  // measure 30
0001
0000
0010
0000
0001
0000
0001
0000
1000
0100
0000
0010
0000
0010
0000
0100
,  // measure 31
1000
0000
0010
0000
1000
0000
1000
0000
0001
1000
0000
0100
0000
0100
0000
1000
,  // measure 32
0001
0100
0001
0001
1000
0000
0001
0100
,  // measure 33
1000
1200
0302
0010
,  // measure 34
1003
0100
1000
1000
0001
0000
1000
0100
,  // measure 35
0001
0201
2300
0010
,  // measure 36
3001
0100
0001
0010
0100
0000
0010
0100
,  // measure 37
1000
2001
3200
0001
,  // measure 38
1300
0100
1000
0010
0100
0000
0010
0100
,  // measure 39
0001
1002
0203
1000
,  // measure 40
0301
0010
0000
0001
1000
0000
1001
0000
,  // measure 41
1000
0100
0001
0000
0110
0000
1000
0000
,  // measure 42
0001
0010
0000
0001
1000
0000
1001
0000
,  // measure 43
0001
0100
1000
0000
0110
0000
0001
0000
,  // measure 44
1000
0010
0000
1000
0001
0000
1001
0000
,  // measure 45
0012
1003
2001
0100
,  // measure 46
3020
0001
2030
3200
,  // measure 47
0302
0023
1030
0000
,  // measure 48
1000
0010
0000
1000
0001
0000
1001
0000
,  // measure 49
0001
0100
1000
0000
0110
0000
0001
0000
,  // measure 50
1000
0010
0000
1000
0001
0000
1001
0000
,  // measure 51
1000
0100
0001
0000
0110
0000
1000
0000
,  // measure 52
0001
0010
0000
0001
1000
0000
1001
0000
,  // measure 53
2010
3001
1002
0100
,  // measure 54
0023
1000
0032
0203
,  // measure 55
2300
3020
0032
0100
,  // measure 56
2003
0100
0002
0000
,  // measure 57
0000
0000
3003
0000
;

//---------------dance-single - ----------------
#NOTEDATA:;
#CHARTNAME:;
#STEPSTYPE:dance-single;
#DESCRIPTION:;
#CHARTSTYLE:;
#DIFFICULTY:Medium;
#METER:5;
#RADARVALUES:0.399336,0.429439,0.554803,0.437441,0.000000,169.000000,52.000000,41.000000,0.000000,0.000000,0.000000,0.000000,0.000000,0.399336,0.429439,0.554803,0.437441,0.000000,169.000000,52.000000,41.000000,0.000000,0.000000,0.000000,0.000000,0.000000;
#CREDIT:;
#NOTES:
0000
0000
0000
0000
,
0000
0000
0000
0000
,
0000
0000
0000
0000
,
0000
0000
0000
0000
,
0000
0000
0000
0000
,
0000
0000
0000
0000
,
0000
0000
0000
0000
,
0000
0000
0000
0000
,
0000
0000
1001
0000
,
0001
0000
0001
0000
,
1000
1000
0001
0000
,
1000
0000
1000
0000
,
0001
0001
1000
0000
,
0001
1000
0100
0000
,
1000
0001
0100
0000
,
0000
0000
1001
0000
,
0000
0000
0102
2003
,
0100
0000
3002
0000
1003
0000
0000
1001
,
0000
1000
2100
3002
,
0100
0000
2003
0000
3001
0000
0000
1001
,
0000
0001
1002
0100
,
0023
0000
1000
0000
0031
0000
0000
1001
,
0000
1000
2001
0100
,
3020
0000
0001
0000
1030
0000
0000
1001
,
0000
0001
1002
0100
,
0100
0103
0120
1000
,
1000
1030
2100
0001
,
0001
3001
0012
1003
,
2010
3001
2001
0100
,
0100
3100
0120
0001
,
0001
0031
0102
1000
,
1000
1003
2010
3001
,
0012
0000
1003
0000
1001
0000
0000
0110
,
0000
1001
0012
0103
,
0010
1000
0001
0000
1001
0000
0000
0110
,
0000
1001
2010
3100
,
0010
0001
1000
0000
1001
0000
0000
0110
,
0000
1001
0102
0013
,
0100
1000
0001
0000
1001
0000
0000
0110
,
0000
1001
2100
3010
,
0001
1000
0000
0001
1000
0000
0000
0000
,
1010
0101
1001
0000
,
1000
0001
0000
1000
0001
0000
0000
0000
,
0011
1100
1001
0000
,
0001
0100
0000
0001
0100
0000
0000
0000
,
0102
1003
2001
0100
,
3002
0100
2003
3200
,
0302
0023
1030
0000
,
0001
1000
0000
0001
1000
0000
0000
0000
,
0011
1100
1001
0000
,
1000
0001
0000
1000
0001
0000
0000
0000
,
1010
0101
1001
0000
,
1000
0100
0000
1000
0100
0000
0000
0000
,
2100
3001
1002
0100
,
2003
0100
3002
0203
,
2300
3020
0032
0100
,
2003
0100
0002
0000
,
0000
0000
3003
0000
;

//---------------dance-single - ----------------
#NOTEDATA:;
#CHARTNAME:;
#STEPSTYPE:dance-single;
#DESCRIPTION:;
#CHARTSTYLE:;
#DIFFICULTY:Easy;
#METER:4;
#RADARVALUES:0.385618,0.429439,0.725511,0.330748,0.000000,154.000000,68.000000,31.000000,0.000000,0.000000,0.000000,0.000000,0.000000,0.385618,0.429439,0.725511,0.330748,0.000000,154.000000,68.000000,31.000000,0.000000,0.000000,0.000000,0.000000,0.000000;
#CREDIT:;
#NOTES:
0000
0000
0000
0000
,
0000
0000
0000
0000
,
0000
0000
0000
0000
,
0000
0000
0000
0000
,
0000
0000
0000
0000
,
0000
0000
0000
0000
,
0000
0000
0000
0000
,
0000
0000
0000
0000
,
0000
0000
1001
0000
,
1000
0000
1000
0000
,
0001
0001
1000
0000
,
0001
0000
0001
0000
,
1000
1000
0001
0000
,
1000
0001
0100
0000
,
0001
1000
0100
0000
,
0000
0000
1001
0000
,
0000
0000
1100
1002
,
0100
0000
2003
0000
3001
0000
0000
1001
,
0000
1000
0101
2001
,
0100
0000
3002
0000
1003
0000
0000
1001
,
0000
0001
0011
0101
,
1010
0000
1100
0000
1001
0000
0000
1001
,
0000
1001
1010
1100
,
0011
0000
0101
0000
1001
0000
0000
1001
,
0000
1001
1001
0001
,
0001
0001
0101
0100
,
0100
0100
0110
0010
,
0010
0010
1010
1000
,
1001
0001
1001
1000
,
1000
1000
1010
0010
,
0010
0010
0110
0100
,
0100
0100
0101
0001
,
1001
0000
1000
0000
1002
0000
0000
0100
,
0000
0103
0120
1030
,
1000
0000
1000
0000
2001
0000
0000
0100
,
0000
3100
0120
0031
,
0001
0000
0001
0000
1001
0000
0000
0110
,
0000
1001
0101
0101
,
0001
0000
0001
0000
1001
0000
0000
0110
,
0000
1001
1100
1100
,
2010
0000
3001
0000
,
0011
1100
1001
0000
,
0012
0000
1003
0000
,
1010
0101
1001
0000
,
2010
0000
3001
0000
,
0012
1003
2001
0100
,
3002
0100
2003
3200
,
0302
0023
1030
0000
,
0012
0000
1003
0000
,
1010
0101
1001
0000
,
2010
0000
3001
0000
,
0011
1100
1001
0000
,
0012
0000
1003
0000
,
2010
3001
1002
0100
,
2003
0100
3002
0203
,
2300
3020
0032
0100
,
2003
0100
0002
0000
,
0000
0000
3003
0000
;
