#TITLE:Messier 333;
#SUBTITLE:-BOF2009 Web Compi Mix-;
#ARTIST:sun3;
#TITLETRANSLIT:;
#SUBTITLETRANSLIT:;
#ARTISTTRANSLIT:;
#CREDIT:;
#BANNER:Messier 333 -BOF2009 Web Compi Mix-.png;
#BACKGROUND:Messier 333 -BOF2009 Web Compi Mix--bg.png;
#LYRICSPATH:;
#CDTITLE:;
#MUSIC:Messier 333 -BOF2009 Web Compi Mix-.mp3;
#OFFSET:-1.516;
#SAMPLESTART:105.900;
#SAMPLELENGTH:12.000;
#SELECTABLE:YES;
#BPMS:0.000=170.000;
#STOPS:;
#BGCHANGES:;

//---------------dance-single - ----------------
#NOTES:
     dance-single:
     :
     Beginner:
     2:
     0.165,0.266,0.061,0.054,0.000:
0000
0000
0000
0000
,
1000
0000
0001
0000
,
0000
0000
0000
0000
,
0000
0000
0000
0000
,
1000
0000
0001
0000
,
1000
0000
0000
0000
,
0001
0000
1000
0000
,
0000
0000
0010
0000
,
0000
1000
0000
0001
,
0000
1000
0000
0001
,
0000
0010
0000
0100
,
0000
0010
0000
0100
,
0000
0001
0000
1000
,
0000
0001
0000
1000
,
0000
0010
0000
0100
,
0000
0001
0000
0001
,
0000
0100
0000
1000
,
0000
0100
0000
0010
,
0000
0100
0000
0001
,
0000
0010
0000
1000
,
0000
0010
0000
0100
,
0000
0010
0000
0001
,
0000
0001
0000
1000
,
0000
0001
0000
0100
,
0000
1000
0000
1000
,
0000
1000
0000
1000
,
0000
0010
0000
0010
,
0000
0010
0000
0010
,
0000
0001
0000
0001
,
0000
0001
0000
0001
,
0000
0100
0000
0100
,
0000
0100
0000
0100
,
0000
0020
0000
0000
,
0030
2000
0000
0000
,
3000
0002
0000
0000
,
0003
0000
0200
0000
0000
0000
0000
0300
,
0000
1000
1000
1000
,
0000
0010
0010
0010
,
0000
0001
0001
0100
,
0100
1000
1000
0010
,
0010
0020
0000
0000
0000
0000
0000
0000
,
0000
0000
0000
0000
0000
0030
0000
0000
,
0200
0000
0000
0000
,
0000
0000
0000
0300
,
0002
0000
0000
0000
,
0000
0000
0000
0003
,
2000
0000
0000
0000
,
0000
0000
0000
3000
0000
0000
0000
0000
,
0001
0000
1000
0000
,
0001
0000
1000
0000
,
0000
0000
0000
0000
,
0010
0000
0100
0000
,
0010
0000
0000
0000
,
0000
0000
1000
0000
,
0001
0000
0010
0000
,
0100
0000
0000
0000
,
0000
0000
0000
0000
,
1000
0000
0000
0000
,
0001
0000
0001
0000
,
0001
0000
0001
0000
,
0100
0000
0100
0000
,
0100
0000
0100
0000
,
0010
0000
0010
0000
,
1000
0000
1000
0000
,
0001
0000
0100
0000
,
0001
0000
0000
0000
,
1000
0000
0000
0000
,
0010
0000
0000
0000
,
0100
0000
0000
0000
,
0001
0000
0000
0000
,
0001
0000
0001
0000
,
1000
0000
1000
0000
,
0100
0000
0100
0000
,
0010
0000
0100
0000
,
1001
0000
0000
0000
,
1010
0000
0000
0000
,
0101
0000
0000
0000
,
0011
0000
0000
0000
,
1100
0000
0000
0000
,
0110
0000
0000
0000
,
1001
0000
0000
0000
,
0110
0000
0000
0000
,
1000
0000
1000
0000
,
0100
0000
0100
0000
,
0001
0000
0001
0000
,
0010
0000
0010
0000
,
0100
0000
0100
0000
,
1000
0000
1000
0000
,
0001
0000
0001
0000
,
0010
0000
0010
0000
,
0100
0000
0000
0000
,
1000
0000
0000
0000
,
0001
0000
0000
0000
,
0010
0000
0100
0000
,
1000
0000
0000
0000
,
0001
0000
0000
0000
,
0010
0000
0010
0000
,
0100
0000
1000
0000
,
0000
1001
0000
0000
;

//---------------dance-single - ----------------
#NOTES:
     dance-single:
     :
     Easy:
     4:
     0.281,0.333,0.047,0.088,0.000:
0000
0000
0000
0000
,
0000
0000
0000
0000
,
0002
0000
0000
0000
,
0000
0000
0000
0003
,
0200
0000
0000
0000
,
0000
0000
0300
0000
,
2000
0000
0000
0000
,
0000
0000
0000
3000
0000
0000
0000
0000
,
0000
0001
0001
0010
,
0010
1000
1000
0100
,
0100
0001
0001
0010
,
0010
0100
0100
1000
,
1000
0100
0100
0010
,
0010
0001
0001
0010
,
0010
0100
0100
1000
,
1000
0001
0000
1000
,
0000
0001
1000
0001
,
1000
0010
1000
0010
,
1000
0100
1000
0100
,
1000
0100
0010
0100
,
0010
0100
0010
0100
,
0001
0100
0001
0100
,
0001
0010
0100
0010
,
0100
0010
0100
0010
,
1000
1000
1000
0001
,
0001
0001
0010
0100
,
0100
1000
1000
1000
,
1000
0100
0100
0010
,
0010
0001
0001
0010
,
0010
0100
1000
0100
,
0010
0001
0000
1000
,
0000
0010
0100
0001
,
0010
1000
1000
0010
,
0010
0100
0100
0001
,
0001
1000
0001
0100
,
0100
1000
0010
0100
,
0100
0001
0010
0010
,
0010
0001
1000
1000
,
1000
0001
1000
0001
,
0100
0001
0020
0000
,
2000
0030
0000
0000
0000
0000
0000
0000
,
0000
0000
0000
3000
,
0002
0000
0000
0000
,
0000
0000
0000
0003
,
0200
0000
0000
0000
,
0000
0000
0000
0300
,
0002
0000
0000
0000
,
0000
0000
0000
0003
,
1000
0000
1000
0000
,
0010
0000
2000
0000
,
0000
3000
0000
0000
,
0100
0000
0010
0000
,
0002
0000
0000
0000
,
0000
0003
0000
0000
1000
0000
0000
0000
,
0010
0000
0200
0000
,
0000
0000
0000
0300
0000
0000
0000
0000
,
0000
0000
0000
0000
,
1000
0000
1000
0000
,
0001
0100
0001
0100
,
0001
0010
0100
0100
,
1000
1000
0100
0100
,
0010
0001
1000
0010
,
0100
1000
0010
0100
,
0010
1000
0001
0100
,
0010
1000
0100
0001
,
1000
0000
0001
0000
,
0100
0100
0010
0010
,
0000
0000
0000
0000
,
1000
1000
0001
0001
,
0000
0000
0000
0000
,
0001
0010
0100
1000
,
1000
0100
0010
0001
,
0010
0100
1000
0100
,
0002
0000
2003
0000
,
3010
0000
0100
0000
,
0010
1000
0010
0010
,
0100
0000
0001
0000
,
1000
0000
0010
0000
,
0100
0100
0010
0010
,
0100
0100
0001
0001
,
1000
0000
0001
0000
,
1000
1000
0001
0001
,
1000
0010
0100
0010
,
1000
0001
1000
0010
,
0100
0001
1000
0001
,
0100
0010
1000
1000
,
0001
0001
0100
0010
,
1000
0010
0100
0001
,
1000
1000
0001
0100
,
0010
1000
0000
0001
,
0000
1000
0000
0010
,
0000
0100
0000
0001
,
0000
1000
0000
0010
,
0100
0001
1000
0000
,
1001
0000
0110
0000
,
1010
0000
0101
0000
,
1001
0000
0010
0100
,
0010
1000
0001
0100
,
1001
1001
0000
0000
;

//---------------dance-single - Copied from----------------
#NOTES:
     dance-single:
     Copied from:
     Medium:
     6:
     0.410,0.433,0.122,0.061,0.000:
0000
0000
0000
0000
,
0000
0000
0000
0000
,
0000
0000
1000
0001
,
1000
0010
0100
0001
,
2000
0001
0001
3001
,
0100
0010
1000
0001
,
0100
1000
0002
0100
,
0100
0000
0100
0003
1000
0000
0000
0000
,
0000
0000
0010
0000
0100
0000
0010
1000
,
0010
0000
0100
0000
0001
0000
1000
0001
,
1000
0000
0010
0000
0100
0000
0010
1000
,
0010
0000
0100
0000
0001
0000
0001
0010
,
0001
0000
1000
0000
0100
0000
1000
0100
,
1000
0000
0010
0000
0100
0000
0001
0010
,
0001
0000
1000
0000
0010
0000
0100
0001
,
0100
0010
1000
1000
,
0001
0000
0100
0010
0100
0000
0001
0000
,
1000
0000
0010
0100
0010
0000
1000
0000
,
0001
0000
0100
0010
1000
0000
0001
0000
,
0100
0000
0010
1000
0010
0000
0100
0000
,
0001
0000
1000
0001
1000
0000
0010
0000
,
0100
0000
1000
0001
1000
0000
0010
0000
,
1000
0000
0001
0100
0001
0000
0010
0000
,
1000
0000
0100
0001
0100
0000
0010
0000
,
1000
0000
0010
1000
0010
0000
1000
0000
,
1000
0000
0010
0100
0010
0000
1000
0000
,
1000
0000
0100
0001
0100
0000
0001
0000
,
0001
0000
0100
0010
0100
0000
0001
0000
,
0001
0000
1000
0001
1000
0000
1000
0000
,
1000
0000
0001
1000
0001
0000
0001
0000
,
0001
0000
0100
0010
0100
0000
0100
0000
,
0100
0000
0010
0100
0010
0000
0010
0000
,
0010
1000
0001
1000
,
1000
0001
1000
1000
,
1000
0001
0100
0001
,
0001
0100
0010
0010
,
0100
0000
0001
1000
0001
0000
1000
0010
,
1000
0000
0100
0010
0100
0000
0001
0010
,
0001
1000
0010
0100
,
0001
1000
0010
0100
,
0002
0000
0010
0000
,
1000
0000
0010
0003
,
0200
0000
0010
0000
,
0001
0000
0010
0300
,
0002
0000
0010
0000
,
0100
0000
0010
0003
,
2000
0000
0010
0000
,
0100
0000
0010
3000
,
0001
0100
0010
1000
,
0010
0100
0002
0000
,
0000
0003
1000
0010
,
0100
0001
1000
0010
,
2000
0000
0000
0000
0000
0000
0000
3000
,
0001
0100
0010
1000
,
0010
0100
0002
0000
,
0000
0003
1000
0000
,
0010
0000
0100
0000
,
0001
1000
0010
1000
,
0001
0000
0100
0000
0010
1000
0010
0000
,
0100
0000
0001
0000
1000
0010
1000
0000
,
0100
0000
0010
0000
0001
0010
0001
0000
,
1000
0000
0100
0000
0010
1000
0010
0000
,
0100
0000
0001
0000
0100
0010
1000
0000
,
0010
0100
0001
0000
0100
0010
1000
0000
,
0001
0010
0100
1000
,
0001
0010
1000
0010
,
0100
0000
0001
0000
1000
0010
1000
0000
,
0100
0000
0001
0000
0010
0001
0010
0000
,
1000
0000
0010
0000
0100
0010
0100
0000
,
1000
0000
0010
0000
0100
0010
0100
0000
,
0001
1000
0001
1000
,
0010
0100
1000
0001
,
0100
0010
1000
0010
,
0100
0001
1000
0010
,
0110
0000
1010
0000
,
0001
0010
0000
0000
1000
0010
1000
0000
,
0001
0000
0100
0000
0010
1000
0010
0000
,
0100
0000
0001
0000
1000
0001
1000
0000
,
0010
0100
0010
0000
1000
0010
1000
0000
,
0100
0001
0100
0000
0010
1000
0010
0000
,
0100
0101
0010
1010
,
0100
0001
0100
0001
,
1000
0000
0010
0000
0100
0010
0100
0000
,
1000
0001
0100
0100
,
0010
1000
0010
0100
,
0001
1000
0010
0000
0100
0010
0100
0000
,
0001
1000
1010
1010
,
0100
0001
0101
0101
,
0010
1000
0010
0100
,
1000
0001
0100
0000
0010
1000
0001
0000
,
1001
0000
1010
0000
,
0101
0000
1010
0000
,
0001
0100
1000
0001
,
0100
0010
1000
0000
0001
0100
0001
0000
,
1001
0000
1010
0000
,
0101
0000
0110
0000
,
1000
0001
1000
0010
,
0100
1000
0000
0001
0100
0000
1000
0000
,
1001
1001
0000
0000
;

//---------------dance-single - Copied from----------------
#NOTES:
     dance-single:
     Copied from:
     Hard:
     9:
     0.569,0.965,0.271,0.068,0.125: // measure 1
0000
0000
0000
0000
,  // measure 2
0000
0000
0000
0000
,  // measure 3
0000
0000
1000
0001
,  // measure 4
1000
0010
0110
0001
,  // measure 5
2001
0001
0001
3001
,  // measure 6
0100
0010
1000
0001
,  // measure 7
0110
0100
1002
1000
,  // measure 8
1000
0000
1000
0003
1000
0000
0000
0000
,  // measure 9
0000
0000
1000
0100
1000
0000
0010
1000
,  // measure 10
0010
0000
0001
0010
0001
0000
0100
0001
,  // measure 11
0100
0000
0010
0100
0010
0000
1000
0010
,  // measure 12
1000
0000
0010
0100
0010
0000
0001
0010
,  // measure 13
0100
0000
1000
0100
0010
0000
0001
0010
,  // measure 14
0100
0000
1000
0100
0010
0000
0001
0010
,  // measure 15
0100
0000
1000
0010
1000
0000
1000
0100
,  // measure 16
1000
0000
0001
0010
0001
0000
0001
0100
,  // measure 17
0001
0000
0100
0010
0100
0000
0100
1000
,  // measure 18
0100
0000
0010
0100
0010
0000
0010
0001
,  // measure 19
0010
0000
0000
0000
0100
1000
0000
0000
1000
0000
0000
0000
0010
0001
0000
0000
,  // measure 20
0001
0000
0000
0000
0100
1000
0000
0000
1000
0000
0000
0000
0010
0001
0000
0000
,  // measure 21
0001
0000
0000
0000
1000
0100
0000
0000
1000
0000
0000
0000
0001
0100
0000
0000
,  // measure 22
0001
0000
0000
0000
1000
0010
0000
0000
1000
0000
0000
0000
0100
0001
0000
0000
,  // measure 23
0100
0000
0000
0000
0010
1000
0000
0000
0010
0000
0000
0000
0001
0100
0000
0000
,  // measure 24
0001
0000
1000
0010
1000
0000
0110
0000
,  // measure 25
0110
0000
0001
0000
0011
0000
1000
0010
,  // measure 26
1000
0000
0100
0000
1100
0000
0001
0100
,  // measure 27
0001
0000
1000
0000
1100
0000
0100
0001
,  // measure 28
0100
0000
0010
0000
0011
0000
0001
1000
,  // measure 29
0001
0000
1000
0000
1010
0000
1000
0100
,  // measure 30
1000
0000
0001
0000
0101
0000
0001
0010
,  // measure 31
0001
0000
0100
0000
0110
0000
0010
0100
,  // measure 32
0010
0000
0110
0000
1000
0100
0010
0001
,  // measure 33
0010
0000
1000
1000
1000
0000
0001
0000
,  // measure 34
1001
0000
0001
0001
0001
0000
1000
0000
,  // measure 35
1001
0000
0010
0010
0010
0000
0100
0000
,  // measure 36
0110
0000
0100
0100
0100
0000
0010
0000
,  // measure 37
0110
0000
1000
0010
1000
0000
1000
0010
,  // measure 38
1000
0000
0100
0001
0100
0000
0100
0001
,  // measure 39
0100
0000
0010
1000
0010
0000
0010
1000
,  // measure 40
0010
0000
0100
0001
0100
0000
0100
0001
,  // measure 41
0200
0000
0010
1000
,  // measure 42
0010
1000
0010
1000
,  // measure 43
0010
1000
0010
1000
,  // measure 44
0010
1000
0010
0300
,  // measure 45
0002
1000
0100
1000
,  // measure 46
0100
1000
0100
1000
,  // measure 47
0100
1000
0100
1000
,  // measure 48
0100
1000
0100
1003
,  // measure 49
0010
0001
0100
0001
,  // measure 50
0100
0001
2020
0000
,  // measure 51
0000
3030
0100
0001
,  // measure 52
0100
0010
0100
0001
,  // measure 53
2020
0000
0000
0000
0000
0000
0000
3030
,  // measure 54
0001
0100
0001
0100
,  // measure 55
0001
0100
2002
0000
,  // measure 56
0000
3003
1000
0000
,  // measure 57
0010
0000
0100
0000
,  // measure 58
0001
1000
0010
1000
,  // measure 59
0100
0010
0100
0000
0100
0001
0100
0000
,  // measure 60
0100
0010
0100
0000
0100
0001
0100
0000
,  // measure 61
0010
1000
0010
0000
0010
0100
0010
0000
,  // measure 62
0010
1000
0010
0000
0010
0100
0010
0000
,  // measure 63
0001
1000
0100
0010
0001
1000
0001
0010
,  // measure 64
0100
1000
0001
1000
0100
0010
0001
0000
,  // measure 65
0001
0100
0001
0000
0100
0001
0100
0000
0001
0100
0001
0000
1000
0000
0000
0000
,  // measure 66
1001
0010
1010
0100
,  // measure 67
0101
0000
0001
0000
1000
0010
1000
0000
,  // measure 68
0110
0000
0110
0000
0001
0100
0001
0000
,  // measure 69
0110
0000
0110
0000
0010
1000
0010
0000
,  // measure 70
1100
0000
1100
0000
0100
0001
0100
0000
,  // measure 71
0001
1000
0001
1000
0010
1000
0010
1000
,  // measure 72
0010
0100
0010
0100
0010
0100
0001
1000
,  // measure 73
0010
0100
1000
0010
0001
0010
0100
1000
,  // measure 74
0100
0010
0001
0100
0010
1000
0100
0010
,  // measure 75
0001
0100
0001
0100
0001
0100
0001
0000
1000
0010
1000
0010
1000
0010
1000
0000
,  // measure 76
0100
0001
0100
0001
0100
0001
0100
0000
0010
1000
0010
1000
0010
1000
0010
0000
,  // measure 77
0001
0100
0010
1000
0100
0010
0100
0000
,  // measure 78
0001
1000
0010
0100
1000
0100
0001
0000
,  // measure 79
1000
0010
1000
0010
1000
0010
1000
0000
0001
0100
0001
0100
0001
0100
0001
0000
,  // measure 80
0010
1000
0010
1000
0010
1000
0010
0000
0100
0001
0100
0001
0100
0001
0100
0000
,  // measure 81
0010
1000
0010
0100
0010
0100
0001
0000
,  // measure 82
1000
0010
0100
0010
1000
0001
0100
0000
,  // measure 83
0010
1010
0100
0101
,  // measure 84
0010
1000
0010
0000
0100
0001
0100
0000
,  // measure 85
1000
0000
0100
0000
0010
1000
0010
0000
,  // measure 86
0100
0001
1000
0000
0010
0100
0001
0000
,  // measure 87
1000
0010
0100
0000
0001
0000
1001
0000
,  // measure 88
0010
0100
0010
0000
1000
0000
1100
0000
,  // measure 89
0001
0100
0010
0000
0100
0001
0001
0000
,  // measure 90
1000
0010
0100
0000
0010
0000
1010
0000
,  // measure 91
0100
0000
0001
0000
1000
0010
1000
0000
,  // measure 92
0001
0100
0001
0000
0010
1000
0010
0000
,  // measure 93
0100
0001
0010
0100
1000
0100
0010
0000
,  // measure 94
0001
0100
0010
1000
0010
0100
0001
0000
,  // measure 95
1000
1010
0100
0101
,  // measure 96
0001
0011
0100
1100
,  // measure 97
0010
0100
0010
1000
0001
0100
0010
0000
,  // measure 98
1000
0001
0100
0010
1000
0001
0001
0000
,  // measure 99
1000
1001
0000
0000
;
