#VERSION:0.82;
#TITLE:回レ!雪月花;
#SUBTITLE:;
#ARTIST:歌組雪月花;
#TITLETRANSLIT:Maware! Setsugetsuka;
#SUBTITLETRANSLIT:;
#ARTISTTRANSLIT:Utagumi Setsugetsuka;
#GENRE:回レ!回レ!回レ!回レ!回レ!回レ!回レ!回レ!回レ!回レ!;
#ORIGIN:;
#CREDIT:;
#BANNER:Maware! Setsugetsuka-bn.png;
#BACKGROUND:Maware! Setsugetsuka-bg.png;
#PREVIEWVID:;
#JACKET:Maware! Setsugetsuka-jk.png;
#CDIMAGE:;
#DISCIMAGE:;
#LYRICSPATH:;
#CDTITLE:darkanine.png;
#MUSIC:Maware! Setsugetsuka.ogg;
#OFFSET:-0.180000;
#SAMPLESTART:58.450001;
#SAMPLELENGTH:17.145000;
#SELECTABLE:YES;
#BPMS:0.000=160.000,
88.000=80.000,
96.000=160.000,
132.000=80.000,
140.000=160.000,
188.000=80.000,
204.000=160.000,
236.000=80.000,
239.000=160.000;
#STOPS:240.000=0.375;
#DELAYS:;
#WARPS:;
#TIMESIGNATURES:0.000=4=4;
#TICKCOUNTS:0.000=4;
#COMBOS:0.000=1;
#SPEEDS:0.000=1.000=0.000=0;
#SCROLLS:0.000=1.000,
95.000=0.000,
96.000=1.000,
132.000=1.250,
136.000=0.750,
140.000=1.000,
188.000=1.250,
204.000=0.750,
240.000=1.000,
272.000=0.000,
272.750=1.000,
276.000=0.000,
276.750=1.000,
300.000=0.000,
300.250=1.250,
301.000=0.000,
301.250=1.250,
302.000=0.000,
302.250=1.000,
304.000=0.000,
304.250=1.250,
305.000=0.000,
305.250=1.250,
306.000=0.000,
306.250=1.000;
#FAKES:;
#LABELS:0.000=Song Start;
#BGCHANGES:;
#KEYSOUNDS:;
#ATTACKS:
;

//---------------dance-single - ----------------
#NOTEDATA:;
#CHARTNAME:;
#STEPSTYPE:dance-single;
#DESCRIPTION:;
#CHARTSTYLE:;
#DIFFICULTY:Hard;
#METER:10;
#RADARVALUES:0.654086,0.913667,0.557147,0.121429,0.400003,546.000000,78.000000,17.000000,0.000000,0.000000,0.000000,0.000000,0.000000,0.654086,0.913667,0.557147,0.121429,0.400003,546.000000,78.000000,17.000000,0.000000,0.000000,0.000000,0.000000,0.000000;
#CREDIT:;
#NOTES:
// measure 0
0000
0000
0000
0000
,  // measure 1
0010
0010
1000
0001
0010
0010
0100
1000
,  // measure 2
0001
0000
0001
0000
1000
0000
0010
0000
0100
0000
0100
0000
0001
1000
0001
1000
,  // measure 3
0010
0010
1000
0001
0010
0010
0001
1000
,  // measure 4
0200
0000
0000
0000
0000
0300
0110
0000
,  // measure 5
1000
1000
0010
0010
0001
0001
0010
0010
,  // measure 6
1000
1000
0100
0100
0001
0100
1000
0100
,  // measure 7
0001
0001
0100
0100
0010
0010
0001
0001
,  // measure 8
0010
0100
1000
0100
0000
0110
0110
0110
,  // measure 9
1000
0000
0010
1000
0010
0000
0100
0000
0001
0000
0010
0001
0010
0000
0100
0000
,  // measure 10
1000
0000
0001
1000
0001
0000
0100
0000
0020
0000
0000
0000
0030
0000
0000
0000
,  // measure 11
1000
0000
0100
1000
0100
0000
0010
0000
0100
0000
1000
0010
1000
0000
0001
0000
,  // measure 12
0100
0000
0010
0100
0010
0000
1000
0000
0002
0000
0000
0000
0003
0000
0000
0000
,  // measure 13
1000
0000
0100
1000
0100
0000
0010
0000
0001
0000
0100
0000
1000
0000
0000
0000
,  // measure 14
0001
0000
0100
0001
0100
0000
0010
0000
1000
0000
0100
0000
0010
0000
0010
0000
,  // measure 15
0001
0000
0010
0001
0010
0000
0001
0000
1000
0000
0010
0000
0001
0000
0000
0000
,  // measure 16
1000
0000
0010
0100
0010
0000
1000
0000
0001
0000
1000
0000
0100
0010
0100
0010
,  // measure 17
0001
0000
1000
0100
0000
0000
0001
0000
2002
0000
0000
0000
3003
0000
0000
0000
,  // measure 18
1000
0010
0100
0010
1000
0100
0010
0100
,  // measure 19
1000
0010
0100
0010
1000
0100
0010
0100
,  // measure 20
1000
0000
0011
0100
0000
1010
0001
0000
,  // measure 21
1100
0001
0000
0110
0100
0000
1001
0000
,  // measure 22
1000
0100
1000
0100
1100
0000
0010
0000
0001
0100
0010
0100
0101
0000
0100
0000
,  // measure 23
1000
0100
0001
0100
1100
0000
0001
0000
1000
0010
0001
0010
1001
0000
0000
0000
,  // measure 24
0000
0000
0000
0000
1000
0000
1000
0010
0000
0010
0100
0000
0010
0000
0010
0000
,  // measure 25
1000
0001
0000
0001
0100
0000
0100
0010
0000
0010
0100
0000
0001
0000
1000
0000
,  // measure 26
0001
0010
0000
0010
0100
0000
0100
0010
0000
0010
0001
0000
1001
0000
0000
0000
,  // measure 27
1000
0001
0000
0001
0010
0000
0010
0001
0000
0001
1000
0000
0010
0100
0010
0100
,  // measure 28
0010
0000
0000
1010
0000
0000
0101
0000
0110
0000
0000
0000
0000
0000
0000
0000
,  // measure 29
1000
0000
1000
0000
1000
0001
1000
0001
,  // measure 30
0100
0100
0010
0010
,  // measure 31
1001
0000
0000
0000
0100
0000
0000
0000
1001
0000
0000
0000
0100
0000
0010
0100
,  // measure 32
0010
0200
0302
0023
,  // measure 33
1030
1010
0001
0011
,  // measure 34
0100
0000
0000
0000
,  // measure 35
1000
0000
0001
0100
0000
1000
0100
0000
0001
0100
0000
1000
0100
0000
0001
0100
,  // measure 36
0000
1000
0100
0000
0001
0100
0000
1000
0100
0000
0000
0100
0000
0000
0010
0000
,  // measure 37
0000
0000
0100
0000
1000
0000
0001
0000
0100
0000
0000
0100
0000
0000
0010
0000
,  // measure 38
1000
0100
0001
0100
0020
0000
0030
0000
,  // measure 39
0001
0000
1000
0100
0000
0001
0100
0000
1000
0100
0000
0001
0100
0000
1000
0100
,  // measure 40
0000
0001
0100
0000
1000
0100
0000
0001
0100
0000
0000
0100
0000
0000
0010
0000
,  // measure 41
0000
0000
0100
0000
0001
0000
1000
0000
0100
0000
0000
0100
0000
0000
0010
0000
,  // measure 42
0001
0100
1000
0000
0110
0000
1001
0000
,  // measure 43
0010
0100
0010
0100
0010
0000
0000
0000
1000
0000
0000
0000
1001
0000
0000
0000
,  // measure 44
0100
0000
1000
0000
0100
0000
0000
0000
0100
0000
0000
0001
0000
0000
0010
0000
,  // measure 45
1100
0000
0000
0000
0101
0000
0000
0000
1000
0000
0000
0001
0000
0000
1000
0000
,  // measure 46
1010
0101
0011
0100
,  // measure 47
1000
0000
1000
0000
1001
0000
0100
0000
0000
0001
0001
0000
1001
0100
0100
0000
,  // measure 48
1000
0000
1000
0000
1010
0000
0000
0000
0000
0100
0100
0000
0011
0000
0000
0000
,  // measure 49
1000
0000
1000
0000
1001
0100
0001
0100
0000
0010
0010
0000
0110
0000
0000
1000
,  // measure 50
1001
0000
0110
0000
0100
0000
0001
0000
0000
0100
0100
0000
0010
0000
0000
0000
,  // measure 51
1000
0000
0000
0100
0000
0000
1000
0000
1001
0000
0000
0000
0000
0000
0000
0000
,  // measure 52
0001
0000
0000
0100
0000
0000
0001
0000
0101
0000
0000
0100
0000
0000
0010
0000
,  // measure 53
1000
0000
0000
0001
0000
0000
0100
0000
0110
0000
0000
0000
0000
0000
0000
0000
,  // measure 54
1000
0000
0000
1000
0000
0000
0010
0000
0001
0000
0000
0001
0000
0000
0100
0000
,  // measure 55
1000
0000
0000
0001
0000
0000
0010
0000
0011
0000
0000
0000
0000
0000
0010
0000
,  // measure 56
1000
0000
0000
0001
0000
0000
0100
0000
0010
0000
0000
1000
0000
0000
0010
0000
,  // measure 57
1000
0000
0000
1000
0000
0000
0100
0000
0110
0000
0000
0000
0000
0000
0000
0000
,  // measure 58
0001
0000
0000
0001
0000
0000
0010
0000
0110
0000
0000
0000
0000
0000
0000
0000
,  // measure 59
0000
0020
0032
2003
,  // measure 60
3000
0000
0001
0010
0000
1000
0010
0000
0001
0010
0000
1000
0010
0000
0001
0010
,  // measure 61
0000
1000
0010
0000
0001
0010
0000
1000
0010
0000
0000
0010
0000
0000
0110
0000
,  // measure 62
0000
0000
0001
0000
0100
0000
0001
0000
1000
0000
0000
0100
0000
0000
0001
0000
,  // measure 63
1000
0010
0001
0010
1000
0000
1001
0000
,  // measure 64
0001
0000
1000
0010
0000
0001
0010
0000
1000
0010
0000
0001
0010
0000
1000
0010
,  // measure 65
0000
0001
0010
0000
1000
0010
0000
0001
0010
0000
0000
0010
0000
0000
0110
0000
,  // measure 66
0000
0000
1000
0000
0010
0000
0100
0000
0001
0000
0000
0100
0000
0000
1000
0000
,  // measure 67
0001
0010
0100
0000
1001
0000
0110
0000
,  // measure 68
2002
0000
0000
0000
3003
0000
0000
0000
1000
0000
0000
1000
0000
0000
1000
0000
,  // measure 69
0022
0000
0000
0000
0033
0000
0000
0000
0100
0000
0000
0100
0000
0000
0100
0000
,  // measure 70
1001
0000
0010
0001
0010
0000
1000
0001
,  // measure 71
0100
0100
0010
0000
0110
0000
1001
0000
,  // measure 72
0010
0100
0010
0100
0010
0000
0000
0000
1001
0000
0000
0000
0100
0000
0000
0000
,  // measure 73
1010
0000
1000
0000
0001
0000
0100
0000
0010
0000
0000
0100
0000
0000
1001
0000
,  // measure 74
0000
0000
1000
0000
0100
0000
0001
0000
0100
0000
0000
0100
0000
0000
0010
0000
,  // measure 75
0110
1001
0110
0000
,  // measure 76
1010
0101
1010
0000
,  // measure 77
0011
1100
1010
0101
,  // measure 78
1001
0000
0000
0000
0000
0000
0000
0000
0001
1000
0001
1000
0100
0000
0000
0000
,  // measure 79
1000
0010
1001
0010
1000
0010
1001
0010
,  // measure 80
1000
0010
1001
0010
1000
0010
1001
0010
,  // measure 81
1100
0000
0011
0101
0000
1010
1100
0000
,  // measure 82
0021
0100
0000
0100
0001
0000
1030
0000
,  // measure 83
0000
0000
0000
0000
,  // measure 84
0000
0000
0000
0000
,  // measure 85
0000
0000
0000
0000
,  // measure 86
0000
0000
0000
0000
,  // measure 87
0000
0000
0000
0000
,  // measure 88
0000
0000
0000
0000
,  // measure 89
0000
0000
0000
0000
,  // measure 90
0000
0000
0000
0000
,  // measure 91
0000
0000
0000
0000
,  // measure 92
0000
0000
0000
0000
,  // measure 93
0000
0000
0000
0000
,  // measure 94
0000
0000
0000
1000
;

//---------------dance-single - ----------------
#NOTEDATA:;
#CHARTNAME:;
#STEPSTYPE:dance-single;
#DESCRIPTION:;
#CHARTSTYLE:;
#DIFFICULTY:Medium;
#METER:7;
#RADARVALUES:0.475514,0.472861,0.371431,0.192859,0.032143,387.000000,52.000000,27.000000,0.000000,0.000000,0.000000,0.000000,0.000000,0.475514,0.472861,0.371431,0.192859,0.032143,387.000000,52.000000,27.000000,0.000000,0.000000,0.000000,0.000000,0.000000;
#CREDIT:;
#NOTES:
0000
0000
0000
0000
,
1000
0100
1000
0000
0001
0100
0001
0000
,
1000
0100
1000
0000
0001
0100
0001
0010
,
1000
0010
1000
0000
0001
0010
0001
0000
,
0200
0000
0000
0310
,
0000
1000
0000
0010
0000
0001
0000
0100
,
0000
1000
0000
0001
0000
1000
0010
0001
,
0000
1000
0000
0100
0000
0001
0000
0010
,
0200
0000
0000
0000
0000
0010
0010
0310
,
0000
0100
0010
0100
0001
1000
0010
1000
,
0001
0100
0010
0100
0002
0000
0000
0000
,
1003
0100
0010
0100
1000
0001
0010
0001
,
1000
0100
0010
0100
2000
0000
0000
0000
,
3001
0000
0001
0100
0000
0100
1000
0000
,
0010
0000
0010
0100
0000
0100
0001
0000
,
1000
0000
1000
0100
0000
0100
0001
0000
,
0011
1100
0110
2000
,
3001
0000
0000
1000
0000
0000
0001
0000
1001
0000
0000
0000
0000
0000
0000
0000
,
0000
0100
1000
0010
0000
0010
1000
0100
,
0000
0100
0001
0010
0000
0010
0001
1000
,
0100
0000
0001
0001
0000
1000
1000
0000
,
0010
0010
0000
0100
0100
0000
1001
0000
,
1000
1000
1100
0000
0001
0001
0101
0000
,
0010
0010
0110
0000
0001
0010
1001
0000
,
0000
0000
1000
0100
0000
0100
1000
0000
,
0001
0000
0001
0100
0000
0100
0001
0000
,
1000
0000
1000
0100
0000
0100
1000
0000
,
1001
0110
1001
0020
,
0130
0000
0000
0010
0000
0000
0100
0000
0110
0000
0000
0000
0000
0000
0000
0000
,
1000
0000
1000
0000
1000
0001
1000
0001
,
0100
0100
0010
0010
,
0200
0010
0302
0010
,
2003
0100
0010
3100
,
0001
0101
1000
1100
,
0020
0000
0030
0000
,
1000
0100
0001
0100
1000
0100
0001
0100
,
1000
0000
0100
0000
0001
0000
0100
0000
1000
0000
0000
0100
0000
0000
0010
0000
,
0000
1000
0010
0100
0001
0000
0001
0000
,
1000
0010
0100
0010
2000
0000
3000
0000
,
0001
0100
1000
0100
0001
0100
1000
0100
,
0001
0000
0100
0000
1000
0000
0100
0000
0001
0000
0000
0100
0000
0000
0010
0000
,
0000
0001
1000
0000
0100
0000
0010
0000
,
1001
0100
0001
1000
,
0220
0330
1000
0010
,
0100
0001
0100
0000
0010
1000
0010
0000
,
1000
0001
0100
0000
0001
1000
0100
0000
,
1001
0110
1001
0000
,
1000
1000
1100
0000
0001
0001
0101
0000
,
0010
0010
1010
0000
0100
0100
0110
0000
,
0001
0001
0011
0000
1000
1000
1010
0000
,
0100
0100
0101
0000
0010
0100
0110
0000
,
1000
0000
0000
0100
0000
0000
1000
0000
0001
0000
0000
0000
0000
0000
0000
0000
,
0001
0000
0000
0100
0000
0000
0001
0000
1000
0000
0000
0000
0000
0000
0000
0000
,
0100
0100
0010
0010
,
2000
0000
0000
3002
0000
0000
0003
0000
,
0010
0000
0000
0001
0000
0000
0010
0000
0100
0000
0000
0000
0000
0000
0100
0000
,
0000
1000
0100
0000
1000
0000
0000
0000
,
1001
0010
0100
0010
,
2000
0000
3001
0000
,
0000
0000
0000
0000
0020
0000
0000
0030
0002
0000
0000
0003
2000
0000
0000
0000
,
3000
0000
0001
0010
1000
0010
0001
0010
,
1000
0010
0001
0010
1000
0000
0110
0000
,
0000
1000
0100
0010
0001
0000
1000
0000
,
1010
0101
1001
0000
,
1000
0010
0001
0010
1000
0010
0001
0010
,
1000
0010
0001
0010
1000
0000
0110
0000
,
0000
0001
0100
0010
1000
0000
0100
0000
,
1001
0110
0001
0100
,
2020
0000
0000
0000
3030
0000
0000
0000
0001
0000
0000
1000
0000
0000
0001
0000
,
0022
0000
0000
0000
0033
0000
0000
0000
0001
0000
0000
0100
0000
0000
0001
0000
,
1000
0000
1000
0100
1000
0000
1000
0001
,
1000
0010
0110
0101
,
2002
3003
0100
0100
,
1000
0100
1000
0000
0001
0010
0001
0000
,
1000
0010
0001
0100
,
1010
0101
1010
0000
,
0011
1100
0011
0000
,
1001
0110
1010
0011
,
1100
0000
0200
0310
,
0000
0100
0000
0100
0000
0100
0000
0100
,
0000
0100
0000
0100
0000
0100
0000
0100
,
0000
0001
0000
0010
0000
1000
0000
0001
,
0200
0000
0000
0310
;

//---------------dance-single - ----------------
#NOTEDATA:;
#CHARTNAME:;
#STEPSTYPE:dance-single;
#DESCRIPTION:;
#CHARTSTYLE:;
#DIFFICULTY:Easy;
#METER:4;
#RADARVALUES:0.361227,0.413753,0.321431,0.250002,0.000000,274.000000,45.000000,35.000000,0.000000,0.000000,0.000000,0.000000,0.000000,0.361227,0.413753,0.321431,0.250002,0.000000,274.000000,45.000000,35.000000,0.000000,0.000000,0.000000,0.000000,0.000000;
#CREDIT:;
#NOTES:
0000
0000
0000
0000
,
1000
0100
0001
0100
,
1000
0100
0001
0010
,
1000
0100
0001
0100
,
2000
0000
0000
3010
,
0001
0100
1000
0100
,
0001
0100
1000
0010
,
0001
0100
1000
0100
,
0020
0000
0000
0030
,
1000
1000
0001
0001
,
0100
0100
0010
0000
,
0001
0001
1000
1000
,
0100
0100
0110
0000
,
1000
1000
1000
0100
,
0001
0001
0001
0100
,
1000
1000
1000
0100
,
0001
0010
0100
1000
,
2002
3003
0220
0330
,
1000
0010
1000
0010
,
0100
0001
0100
0001
,
1000
0100
0010
0001
,
0200
0000
0000
0310
,
1000
0100
1100
0000
0001
0100
0001
0000
,
0010
0001
0011
0000
0100
0000
1001
0000
,
0000
0100
0100
1000
,
0100
0100
0100
0001
,
0010
0010
0010
0100
,
1001
0110
1001
0200
,
0310
0000
0110
0000
,
2000
0000
0000
3200
,
0320
0230
2300
3002
,
0203
0000
0320
0000
,
2030
0000
0000
0000
,
3001
0101
1000
0110
,
0000
0000
0000
0000
,
0100
0100
0100
0100
,
0100
0100
0100
1001
,
0100
0010
1000
0001
,
0010
0100
2000
0000
,
3100
0100
0100
0100
,
0100
0100
0100
1001
,
0001
0100
0010
0100
,
0101
0000
1010
0000
,
2002
3003
0100
0100
,
0010
0010
1000
0001
,
0010
0100
0010
0100
,
1100
1001
1100
0000
,
2000
3100
0002
0103
,
2000
3010
0002
0013
,
2000
3001
0200
0310
,
0002
0103
0020
1030
,
0001
0000
0101
0000
,
1000
0000
1100
0000
,
0001
0000
0011
0000
,
0100
0000
0110
0000
,
1000
0000
1010
0000
,
0001
0000
0011
0000
,
1000
0000
1001
0000
,
0010
0000
0110
0000
,
0000
2000
3002
0203
,
0300
0010
0010
0010
,
0010
0010
0010
1001
,
0100
1000
0001
0100
,
0010
0100
0001
0000
,
0010
0010
0010
0010
,
0010
0010
0010
1001
,
1000
0010
0100
0001
,
0010
0010
0100
0100
,
1100
0000
0100
0100
,
0101
0000
0100
0100
,
1001
0100
1000
0001
,
0100
0001
0010
0100
,
2002
3003
1000
0010
,
0100
0001
0010
0010
,
0100
1000
0010
1000
,
1010
1100
1010
0000
,
0011
1001
0011
0000
,
1001
0110
1001
0011
,
1100
0000
0002
0103
,
0000
0010
0000
0010
0000
0010
0000
0010
,
0000
0010
0000
0010
0000
0010
0000
0010
,
0000
0001
0000
1000
0000
0010
0000
0100
,
0002
0000
0000
1003
;
