#TITLE:回レ!雪月花;
#SUBTITLE:(tomatomerde another Remix);
#ARTIST:tomatomerde;
#TITLETRANSLIT:Maware! Setsugetsuka;
#SUBTITLETRANSLIT:;
#ARTISTTRANSLIT:;
#GENRE:;
#CREDIT:;
#BANNER:banner.png;
#BACKGROUND:bg.png;
#LYRICSPATH:;
#CDTITLE:cdtitle.png;
#MUSIC:Maware! Setsugetsuka (tomatomerde another Remix).mp3;
#OFFSET:-0.115000;
#SAMPLESTART:53.907001;
#SAMPLELENGTH:12.000000;
#SELECTABLE:YES;
#BPMS:0.000000=174.000000
;
#STOPS:
;
#BGCHANGES:;
#KEYSOUNDS:;
#ATTACKS:;

//---------------dance-single - ----------------
#NOTES:
     dance-single:
     :
     Beginner:
     2:
     0.218750,0.230616,0.324811,0.046402,0.000000,125.000000,35.000000,5.000000,0.000000,0.000000,0.000000,0.218750,0.230616,0.324811,0.046402,0.000000,125.000000,35.000000,5.000000,0.000000,0.000000,0.000000:
0000
0000
0000
0000
,
0000
0000
0000
0000
,
0000
0000
0000
0000
,
0000
0000
0000
0000
,
0000
0000
0000
0000
,
0001
0000
0000
0000
,
1000
0000
0000
0000
,
0001
0000
0000
0000
,
1000
0000
0000
0000
,
0010
0000
0010
0000
,
0010
0000
0000
0000
,
0100
0000
0100
0000
,
0100
0000
0000
0000
,
0001
0000
0001
0000
,
0001
0000
1001
0000
,
1000
0000
1000
0000
,
0010
0000
0110
0000
,
0001
0000
1001
0000
,
1000
0000
0000
0000
,
0001
0000
0000
0000
,
0100
0000
0100
0000
,
0100
0000
0000
1001
,
1000
0000
0000
0000
,
0100
0000
0000
0000
,
0010
0000
0000
0000
,
0001
0000
0000
0000
,
0001
0000
0100
0000
,
0010
0000
1000
0000
,
1000
0000
0001
0000
,
0100
0000
0110
0000
,
1000
0000
1001
0000
,
2000
0000
3000
0000
,
0002
0000
0003
0000
,
0100
0000
0100
0000
,
0200
0000
0300
0000
,
0010
0000
0010
0000
,
2000
0000
3000
0000
,
0002
0000
0003
0000
,
0001
0000
1001
0000
,
1000
1000
1000
1000
,
1000
1000
1000
1000
,
1000
0000
0100
0000
,
0010
0000
0001
0000
,
1000
1000
1000
1000
,
1000
1000
1000
1000
,
1000
0000
0010
0000
,
0100
0000
0001
0000
,
0010
0000
0110
0000
,
0010
0000
0001
0000
,
1000
0000
1001
0000
,
1000
0000
0010
0000
,
0100
0000
0110
0000
,
0100
0000
0001
0000
,
1000
0000
0001
0000
,
0010
0010
0010
0000
,
0001
0000
1001
0000
,
1001
0000
1001
0000
,
0010
0000
0110
0000
,
0110
0000
0110
0000
,
0100
0000
1001
0000
,
1001
0000
1001
0000
,
1000
0000
0110
0000
,
0110
0000
0110
0000
,
0010
0000
1001
0000
,
0110
0000
1001
0000
,
0001
0000
0110
0000
,
1001
0000
0110
0000
,
0100
0000
1001
0000
,
1001
0000
0110
0000
,
0010
0000
0110
0000
,
0110
0000
1001
0000
,
1001
0000
0000
0000
;

//---------------dance-single - ----------------
#NOTES:
     dance-single:
     :
     Easy:
     4:
     0.373864,0.329451,0.315531,0.111364,0.000000,236.000000,34.000000,12.000000,0.000000,0.000000,0.000000,0.373864,0.329451,0.315531,0.111364,0.000000,236.000000,34.000000,12.000000,0.000000,0.000000,0.000000:
0000
0000
0000
0000
,
0000
0000
0000
0000
,
0000
0000
0000
0000
,
0000
0000
0000
0000
,
0000
0000
0000
0000
,
0000
0001
0000
1000
0000
0001
0000
1000
,
0000
0010
0000
0100
0000
0010
0000
0100
,
0000
0001
0000
1000
0000
0001
0000
1000
,
0000
0100
0000
0100
0000
0100
1000
0000
,
0002
0103
0200
0301
,
0001
0100
0010
1000
,
0200
1300
2000
3100
,
1000
0100
0010
0001
,
1000
1000
0001
0001
,
0100
0100
0010
0010
,
1000
0100
0010
0001
,
1000
1000
1020
0000
,
0130
0100
0101
0000
,
0001
1000
0000
0001
0000
1000
0000
0001
,
0000
0010
0000
0100
0000
0010
0000
0100
,
0000
1000
0000
1000
0000
1000
0000
1000
,
0000
1000
0000
1000
0000
1000
0001
0000
,
0100
0000
0110
0000
,
0010
1000
1001
0000
,
0001
0000
0011
0000
,
0010
0100
0110
0000
,
1000
0001
0100
0001
,
1000
0001
0010
0001
,
1000
0010
0100
0001
,
0010
0010
0011
0000
,
0001
1000
0010
1000
,
0002
0000
0010
0000
,
2003
0000
0010
0000
,
3002
0000
0010
0000
,
0203
0000
0010
0000
,
0301
0000
1000
0100
,
0020
0000
0130
1000
,
0001
0001
1000
1000
,
2002
0000
3003
0000
,
0001
1000
0001
1000
,
0001
0000
1000
0000
0001
1000
0001
1000
,
0000
0001
0010
0001
,
1000
0010
1000
0100
,
0010
0100
0010
0100
,
0010
0000
0100
0000
0010
0100
0010
0100
,
0000
1000
0001
0100
,
0001
1000
0100
1000
,
1001
0000
0101
0000
,
0010
0010
1010
0000
,
1001
0000
0011
0000
,
0100
0100
1100
0000
,
1001
0000
0101
0000
,
0010
0010
1010
0000
,
1000
0001
1000
0001
,
0010
0010
0010
0000
,
1001
1001
0100
0100
,
0010
0010
0100
0100
,
1001
1001
0010
0010
,
0100
0100
0010
0010
,
1001
1001
1000
0100
,
0010
0001
1000
0010
,
0110
0110
0010
1000
,
0001
0010
0100
1000
,
1001
0110
1000
0001
,
0010
0001
1000
0010
,
0110
1001
1000
0010
,
1000
0001
0010
0001
,
1001
1010
0010
0010
,
1000
1000
0001
0001
,
1001
0011
0010
0010
,
0001
0001
1000
1000
,
1001
0000
0000
0000
;

//---------------dance-single - ----------------
#NOTES:
     dance-single:
     :
     Medium:
     7:
     0.515720,0.527122,0.250568,0.139205,0.097443,347.000000,27.000000,15.000000,0.000000,0.000000,0.000000,0.515720,0.527122,0.250568,0.139205,0.097443,347.000000,27.000000,15.000000,0.000000,0.000000,0.000000:
0000
0000
0000
0000
,
0000
0000
0000
0000
,
0000
0000
0000
0000
,
0000
0000
0000
0000
,
0000
0000
0000
0000
,
0000
0001
0000
0001
0000
0001
0000
0001
,
0000
1000
0000
1000
0000
1000
0001
1000
,
0000
0010
0000
0010
0000
0100
0000
0100
,
0000
0001
0000
1000
0000
1000
0001
0001
,
0020
0031
2000
3010
,
1000
0100
0010
0100
1000
0001
0100
0001
,
0200
0301
2000
3100
,
1000
0010
0100
0010
1000
0001
0010
0001
,
1000
0010
1010
0101
,
0001
0010
0011
1100
,
1000
0000
0000
1000
0000
0000
1000
0000
0001
0000
0100
0000
0010
0000
0100
0000
,
0001
0010
0100
1000
1001
0000
1000
1000
,
0010
0000
0000
0010
0000
0000
0010
0000
1000
0000
0001
0000
0010
0000
0001
0000
,
0001
0010
0000
0010
0000
0010
0000
0010
,
0000
0100
0000
0100
0000
0100
0010
0100
,
0000
1000
0000
1000
0000
1000
0000
1000
,
0000
1000
0000
1000
0000
1000
0001
0000
,
0001
0000
0100
0000
,
0010
1000
0100
1000
0010
0100
0001
0010
,
0001
0000
0100
0000
,
0010
1000
0001
1000
0010
0100
0001
0010
,
0100
0100
1000
0001
,
0100
0100
0001
1000
,
0001
0000
0000
0001
0000
0000
0001
0000
1000
0000
0010
0000
0100
0000
0010
0000
,
1000
0100
0010
0001
1001
0000
0001
0001
,
0100
0000
0000
0100
0000
0000
0100
0000
0001
0000
1000
0000
0100
0000
1000
0000
,
0020
0000
0000
0000
0130
0001
1000
0001
,
0020
0100
0130
0100
,
1002
0000
0103
0000
,
1002
0000
0010
0010
,
0013
0100
1000
0001
,
0100
0100
0010
1000
,
0001
0001
1000
1000
,
1001
0000
0002
0000
,
1003
0100
1000
0001
0100
0001
1000
0100
,
1000
0001
0100
0001
1000
0000
0001
0010
,
0000
0100
1000
0000
0001
0000
0100
0000
,
0010
1000
0010
0100
0020
0000
0030
0000
,
1000
0100
1000
0001
0100
0001
1000
0100
,
1000
0001
0100
0001
1000
0000
0001
0010
,
0000
0100
1000
0000
0001
0000
0010
0000
,
0100
1000
0100
0001
0100
0000
1000
0000
,
1020
0000
0001
0000
,
1030
0100
1000
0100
1000
0001
0010
0100
,
2000
0000
0001
0000
,
0010
3100
1001
0101
,
1200
0000
0001
0000
,
1300
0000
0010
0000
1000
0000
0010
0000
1000
0000
0000
0001
0000
0000
0001
0000
,
0000
0000
0010
0000
0001
0000
1000
0000
0010
0000
0000
0010
0000
0000
0010
0000
,
1000
0001
1001
0000
,
1001
0000
0000
0000
0101
0000
0000
0000
0001
0000
0000
0001
0000
0000
0001
0000
,
1000
0000
0000
1000
0000
0000
1000
0000
0100
0000
0000
0100
0000
0000
0100
0000
,
1100
0000
0000
0000
1001
0000
0000
0000
0001
0000
0000
0001
0000
0000
0001
0000
,
1000
0010
0100
0001
1000
0100
0100
0100
,
1000
1000
0001
1000
0020
0000
0130
0010
,
1000
0000
0000
1000
0000
0000
0100
0000
1000
0000
0000
1000
0000
0000
0010
0000
,
0110
0000
0000
0000
0101
0000
0000
0000
0001
0000
0000
0001
0000
0000
0010
0000
,
0001
0000
0000
0001
0000
0000
0100
0000
0010
0000
0100
0000
0010
0000
1000
0000
,
1001
0000
0000
0000
0110
0000
0000
0000
1000
0000
0000
0100
0000
0000
0100
0000
,
0010
0000
0000
0100
0000
0000
0100
0000
1000
0000
0000
0010
0000
0000
0010
0000
,
0110
0000
0000
0000
0101
0000
0000
0000
0001
0000
0000
0100
0000
0000
0100
0000
,
0001
0010
1000
0010
0001
1000
1000
1000
,
0001
0100
0010
0100
0002
0000
1003
0000
,
1000
0000
0000
0001
0000
0000
0001
0000
0100
0000
0000
1000
0000
0000
1000
0000
,
0101
0000
0000
0000
1001
0000
0000
0000
1000
0000
0000
1000
0000
0000
0100
0000
,
0010
0001
1000
0010
0100
0001
1000
0000
,
1001
0000
0000
0000
;

//---------------dance-single - ----------------
#NOTES:
     dance-single:
     :
     Hard:
     9:
     0.660228,0.757738,0.380493,0.296970,0.199527,425.000000,41.000000,32.000000,0.000000,0.000000,0.000000,0.660228,0.757738,0.380493,0.296970,0.199527,425.000000,41.000000,32.000000,0.000000,0.000000,0.000000:
// measure 0
0000
0000
0000
0000
,  // measure 1
0000
0000
0000
0000
,  // measure 2
0000
0000
0000
0000
,  // measure 3
0000
0000
0000
0000
,  // measure 4
0000
0000
0000
0000
,  // measure 5
0000
1001
0000
1001
0000
1000
0010
0100
,  // measure 6
0000
1001
0000
1001
0000
0001
0010
0100
,  // measure 7
0000
1001
0000
1010
0000
1001
0000
0011
,  // measure 8
0000
1001
0000
0110
0000
0001
0001
0001
,  // measure 9
2000
0100
3002
0100
,  // measure 10
1003
0100
0001
0100
1000
0010
0001
0010
,  // measure 11
2000
0010
3002
0010
,  // measure 12
1003
0010
0001
0010
1000
0100
0001
0100
,  // measure 13
1000
0010
0100
0001
0010
0001
0011
0000
,  // measure 14
0001
0010
0100
1000
0010
1000
1010
1000
,  // measure 15
0001
0000
0000
0010
0000
0000
1000
0000
0010
0000
0001
0000
1000
0000
0010
0000
,  // measure 16
0100
0100
0001
0001
1001
0000
1000
0001
,  // measure 17
0010
0000
0000
0010
0000
0000
0010
0000
0100
0000
1000
0000
0001
0000
0100
0000
,  // measure 18
0010
0001
0010
1000
0010
0001
0010
1000
,  // measure 19
0100
0001
0100
1000
0100
0001
0100
1000
,  // measure 20
0020
0100
0000
0100
0000
0100
0000
0100
,  // measure 21
0000
0100
0000
0100
0030
0100
1001
0000
,  // measure 22
1001
0000
1000
0100
1000
0001
1000
0001
,  // measure 23
1000
0010
0001
0010
1000
0100
0001
0100
,  // measure 24
1000
0001
1000
0001
0100
0001
0100
0001
,  // measure 25
1000
0100
0001
0100
1000
0010
0001
0010
,  // measure 26
1000
0000
0100
0000
1000
0001
0000
0100
0000
0001
0000
0010
0000
0001
0000
1000
,  // measure 27
0010
1000
0100
1000
0001
0100
0010
0100
,  // measure 28
0001
0000
0000
0010
0000
0000
1000
0000
0010
0000
0001
0000
1000
0000
0010
0000
,  // measure 29
0100
0100
0001
0001
1001
0000
1000
0100
,  // measure 30
0010
0000
0000
0010
0000
0000
0010
0000
0001
0000
1000
0000
0010
0000
0100
0000
,  // measure 31
0002
0000
0000
0000
1003
1000
1000
0100
,  // measure 32
0020
0230
2300
3002
,  // measure 33
0203
0000
0000
0000
0000
0000
0000
0000
0010
0000
0000
0000
0300
0000
0001
0010
,  // measure 34
0002
0000
0010
0010
,  // measure 35
2003
3200
0010
1300
,  // measure 36
0001
0000
0100
0010
0100
0000
0001
0000
,  // measure 37
2000
3200
0320
0032
,  // measure 38
2000
0000
0000
0000
3003
1000
0001
0000
,  // measure 39
0001
0100
0010
0001
0010
0100
0001
0100
,  // measure 40
0010
0001
0010
0100
0001
0001
0010
0100
,  // measure 41
0000
0000
1000
0000
1000
0000
1000
0000
0001
0000
0000
0100
0000
0000
0010
0000
,  // measure 42
1000
0100
0001
0100
2000
0000
3001
0000
,  // measure 43
1000
0100
0010
1000
0010
0100
1000
0100
,  // measure 44
0010
1000
0010
0100
1000
1000
0010
0100
,  // measure 45
0000
0000
0010
0000
0100
0000
0001
0000
1000
0000
0000
0100
0000
0000
0010
0000
,  // measure 46
0001
0100
1000
0000
1100
0000
0101
0000
,  // measure 47
1001
0000
0000
0000
0000
0000
0001
1000
0001
0000
0000
0000
0000
0000
0001
0100
,  // measure 48
0001
0001
0010
0010
0100
0100
1000
1000
,  // measure 49
0000
0000
0001
0000
0100
0000
0010
0000
0100
0000
0000
0100
0000
0000
0001
0000
,  // measure 50
1000
0100
0010
0000
1100
0000
1001
0000
,  // measure 51
0101
0000
0000
0000
0000
0000
0001
0100
0001
0000
0000
0000
0000
0000
1000
0100
,  // measure 52
1000
0000
1000
0000
0010
0000
0001
0000
0010
0000
0000
1000
0000
0000
0100
0000
,  // measure 53
1000
0000
0001
0000
1000
0000
0001
0000
0100
0000
0000
0010
0000
0000
1000
0000
,  // measure 54
0001
0001
1001
0000
,  // measure 55
1001
0000
0000
0000
1001
0000
0000
0000
0100
0000
0000
0101
0000
0000
0001
0000
,  // measure 56
0100
0000
0000
1100
0000
0000
0100
0000
0001
0000
0000
1001
0000
0000
1001
0000
,  // measure 57
1002
0000
0000
0000
0203
0000
0000
0000
0310
0000
0100
0010
0000
0100
0010
0000
,  // measure 58
1000
0100
0001
0100
1000
0001
0001
0001
,  // measure 59
1000
0010
0100
0001
2000
0000
3001
0000
,  // measure 60
1000
0000
0000
1100
0000
0000
0100
0000
1000
0000
0100
0000
0010
0000
0001
0000
,  // measure 61
1001
0000
0000
0000
1001
0000
0000
0000
0001
0000
0000
0101
0000
0000
0100
0000
,  // measure 62
0001
0000
1000
0001
0000
1000
0001
0000
0001
0100
0001
0100
0001
0000
0001
0000
,  // measure 63
2000
0000
3200
0000
0302
0000
0203
0000
1300
0000
0000
0010
0000
0000
1010
0000
,  // measure 64
1000
0000
0000
0100
0000
0000
1100
0000
1000
0000
0000
0001
0000
0000
1001
0000
,  // measure 65
0002
0000
0203
0000
2300
0000
3200
0000
0301
0000
0000
0010
0000
0000
0011
0000
,  // measure 66
0001
0100
1000
0100
0001
1000
1000
1000
,  // measure 67
1000
0100
0010
0100
2000
0000
3001
0000
,  // measure 68
0001
0000
0000
0011
0000
0000
0010
0000
1000
0000
0000
1010
0000
0000
0010
0000
,  // measure 69
0001
1000
0100
1000
0001
0100
0001
1000
,  // measure 70
0100
1000
0100
1000
0001
1000
0001
1000
0001
0100
1000
0100
0001
0000
0000
0000
,  // measure 71
1001
0000
0000
0000
;

//---------------dance-single - ----------------
#NOTES:
     dance-single:
     :
     Challenge:
     11:
     0.819319,0.790683,0.259849,0.250568,0.686743,563.000000,28.000000,27.000000,0.000000,0.000000,0.000000,0.819319,0.790683,0.259849,0.250568,0.686743,563.000000,28.000000,27.000000,0.000000,0.000000,0.000000:
0000
0000
0000
0000
,
0000
0000
0000
0000
,
0000
0000
0000
0000
,
0000
0000
0000
0000
,
0000
0000
0000
0000
,
1000
0010
0100
0010
0001
0020
1000
1030
,
1000
0100
0010
0100
0001
0200
1000
1300
,
1000
0010
0100
0010
0001
0010
0100
0010
,
1000
0100
0001
0100
1000
0001
0001
0001
,
1000
0000
0001
0010
0001
1000
0001
0100
0000
0000
0001
0100
0001
1000
0100
1000
,
0001
0000
0100
0000
0010
0000
1000
0010
0000
1000
0000
0010
1000
0000
1000
0000
,
0001
0000
0010
0001
1000
0010
1000
0001
0000
0010
0000
0100
0000
1000
0001
0100
,
0001
0000
0100
0000
1000
0000
0100
0000
0001
0000
0001
1000
0000
1000
0001
0000
,
1000
0100
0010
0100
1000
0100
0010
0000
0001
0000
0001
0000
0011
0000
0000
0000
,
0001
0100
0010
0100
0001
1000
0010
1000
0001
0000
0001
0000
0010
0000
0001
0000
,
1000
0000
0000
0010
0000
0000
0001
0000
0010
0000
0010
0000
1000
0000
1000
0000
,
0100
0001
0100
1000
1001
0000
0001
0001
,
0100
0000
0000
0100
0000
0000
0100
0000
0010
0000
1000
0000
0001
0000
0001
0000
,
1000
0010
0100
0010
0001
0010
0100
0010
,
1000
0100
0010
0100
0001
0100
0010
0100
,
1000
1010
0000
0110
0000
0101
0000
1001
,
0000
0011
0000
0110
0000
0110
1001
0000
,
0001
0000
0100
0010
0100
0001
1000
0100
0010
0000
0100
1000
0001
1000
0010
0100
,
0001
0000
1000
0001
1000
0000
1000
0000
0100
0000
0010
0001
0000
0010
0100
0000
,
1000
0000
0010
0000
1000
0000
0001
1000
0001
0010
0001
0000
1000
0000
0010
0000
,
0100
0001
0100
0010
0100
0000
0001
0000
1000
0000
0100
1000
0100
0000
0100
0000
,
1000
0001
0000
0100
0000
0010
0000
1000
0000
0010
0000
0100
0001
1000
0100
1000
,
0001
0100
0001
0100
0001
0000
0001
1000
0100
1000
0100
1000
0100
0000
0010
0000
,
0001
0000
0000
0100
0000
0000
1000
0000
0100
0000
0001
0000
1000
0000
1000
0000
,
0100
0001
0100
1000
1001
0000
0001
0001
,
0100
0000
0000
0100
0000
0000
0100
0000
0001
0000
1000
0000
0100
0000
1000
0000
,
0002
0000
0000
0000
1003
0010
0100
0010
,
2000
0000
0100
0100
0001
0000
0010
0000
,
3020
0000
0000
0000
0000
0000
0000
0000
0032
0000
0000
0000
0000
0000
0013
1000
,
0002
0010
1000
0100
,
0013
0101
0110
1010
,
1000
0000
0100
0001
0100
0000
0100
0000
,
1000
0001
1000
0001
0100
0010
0100
0010
1000
0100
0010
0100
1000
0010
0001
0010
,
2000
0000
0000
0000
3000
1000
0001
0000
,
1000
0000
0001
1000
0000
0001
1000
0000
0100
1000
0000
0100
1000
0000
0001
1000
,
0000
0001
1000
0000
0001
0100
0000
0001
1000
0000
1000
0000
0200
0000
0001
0000
,
0300
0000
1000
0000
0010
0000
1000
0000
0001
0000
0000
0001
0000
0000
0100
0000
,
0100
1000
0010
0001
0020
0000
1030
0000
,
0001
0000
1000
0001
0000
1000
0001
0000
1000
0100
0000
1000
0100
0000
1000
0001
,
0000
1000
0001
0000
0100
0001
0000
0100
0001
0000
0100
0000
1000
0000
0200
0000
,
0000
0000
0301
0000
0010
0000
0001
0000
0100
0000
0000
0100
0000
0000
1000
0000
,
0001
0010
1000
0000
1100
0000
0101
0000
,
2001
0000
0000
0000
0000
0000
3100
1000
0200
0000
0000
0000
0000
0000
0301
0100
,
0001
0001
0100
0100
1000
1000
0001
0001
,
0000
0000
0100
0000
0001
0000
1000
0000
0001
0000
0000
0001
0000
0000
0001
0000
,
0010
0010
0100
0000
0110
0000
1100
0000
,
1002
0000
0000
0000
0000
0000
0103
0001
0200
0000
0000
0000
0000
0000
1300
0100
,
1000
0000
1000
0000
0100
0000
0100
0000
0001
0000
0000
0001
0000
0000
0001
0000
,
1000
0100
0010
0100
1000
0001
0100
0001
,
1001
1001
1001
0000
,
1000
0001
1000
0000
1000
0100
1000
0000
1100
0000
0100
1000
0000
1000
0100
0000
,
1001
0000
0001
1000
0000
1000
0001
0000
0100
0001
0100
0001
0000
0001
0100
0000
,
0001
0100
0001
0000
1000
0001
1000
0000
1100
0000
0100
1000
0000
1000
0100
0000
,
2000
3200
0302
0203
2300
0001
0001
3001
,
1000
0001
0100
0001
1000
0000
1000
0000
2001
0000
0000
0000
3100
0000
0100
0000
,
1100
0000
1000
0001
0000
0001
1000
0000
1000
0001
0100
0001
0000
0001
0100
0000
,
0001
0100
0001
0000
1000
0100
1000
0000
0001
0000
1000
0001
0000
0001
1000
0000
,
1000
0000
0010
0100
0000
0100
0001
0000
1000
0100
0010
0100
1000
0001
0100
0001
,
1000
0000
0001
0100
0001
0000
0001
0000
1000
0000
0100
0010
0000
0100
1000
0000
,
0001
0000
0100
0010
0000
0100
0001
0000
1000
0100
0010
0100
0000
0100
1000
0000
,
1000
0001
1000
0000
0001
0100
0001
0000
0001
0000
0100
0010
0000
0100
0001
0000
,
2000
3200
0302
0203
2300
0001
0001
3001
,
1000
0010
0001
0010
2000
0000
3001
0001
,
1000
0000
0100
0001
0000
0100
1000
0000
0001
0100
1000
0100
0000
0100
0001
0000
,
1000
0001
1000
0000
1000
0100
1000
0000
0001
0100
0010
0000
1000
0100
0010
0000
,
1000
0100
0001
0100
1000
0010
0001
0010
1000
0100
0001
0100
0010
0001
0100
0010
,
0100
0000
0000
0000
;
