#TITLE:Beautiful;
#SUBTITLE:;
#ARTIST:Ferry Corsten;
#TITLETRANSLIT:;
#SUBTITLETRANSLIT:;
#ARTISTTRANSLIT:;
#GENRE:;
#CREDIT:;
#BANNER:[Round 10] - Beautiful.png;
#BACKGROUND:[Round 10] - Beautiful-bg.png;
#LYRICSPATH:;
#CDTITLE:;
#MUSIC:[Round 10] - Beautiful.mp3;
#OFFSET:-1.823002;
#SAMPLESTART:16.045223;
#SAMPLELENGTH:14.222223;
#SELECTABLE:YES;
#BPMS:0.000000=135.000000
;
#STOPS:
;
#BGCHANGES:;
#KEYSOUNDS:;
#ATTACKS:;

//---------------dance-single - ----------------
#NOTES:
     dance-single:
     :
     Hard:
     8:
     0.486115,0.534390,0.015717,0.125739,0.451874,415.000000,2.000000,16.000000,0.000000,0.000000,0.000000,0.486115,0.534390,0.015717,0.125739,0.451874,415.000000,2.000000,16.000000,0.000000,0.000000,0.000000:
0000
0000
0000
0000
,
0000
0000
0000
0000
,
0000
0000
0000
0000
,
0000
0000
0000
0000
,
1000
0100
0010
0000
0001
0100
0010
0000
,
1000
0001
0010
0100
1000
0010
0100
0000
,
0010
1000
0001
0000
0010
0100
1000
0000
,
0010
0000
0100
0000
0001
0000
1000
0000
0100
0000
0010
0000
0001
0100
0001
0100
,
0002
0000
0000
0000
,
0203
0000
0000
0000
,
0320
0000
0000
0000
,
2030
0000
0000
0000
,
3200
0000
0000
0000
,
0320
0000
0000
0000
,
0032
0000
0000
0000
,
2003
0000
0000
0000
,
3002
0000
0000
0000
,
0203
0000
0000
0000
,
0320
0000
0000
0000
,
2030
0000
0000
0000
,
3200
0000
0000
0000
,
0320
0000
0000
0000
,
0032
0000
0000
0000
,
0203
0000
0000
0000
,
0310
0000
0000
1000
0010
0000
0100
0001
0100
0000
0000
0001
0010
0000
0100
1000
,
0100
0000
0000
0010
0100
0000
1000
0001
1000
0000
0000
0010
0100
0000
0010
1000
,
0010
0000
0000
0100
0001
0000
1000
0010
1000
0000
0000
0001
0010
0000
0100
1000
,
0100
0000
0000
0010
0100
0000
1000
0001
1000
0000
0000
0010
1000
0000
0001
0100
,
0001
0000
0000
1000
0100
0000
0010
0001
0010
0000
0000
0001
1000
0000
0010
0100
,
0010
0000
0000
0100
0001
0000
1000
0010
1000
0000
0000
0100
0010
0000
0001
1000
,
0001
0000
0000
0010
0100
0000
1000
0001
1000
0000
0000
0010
0100
0000
0001
1000
,
0001
0000
0000
1000
0100
0000
0010
0001
0010
0000
0000
0100
1000
0000
0001
0010
,
0001
0000
0000
0100
0001
0000
0000
0001
0010
0000
0000
0010
0100
0000
0000
0100
,
1000
0000
0000
1000
0001
0000
0000
0001
0100
0000
0000
0100
0010
0000
0000
0010
,
1000
0000
0000
1000
0001
0000
0000
0001
1000
0000
0000
1000
0100
0000
0000
0100
,
1000
0000
0000
1000
0010
0000
0000
0010
0100
0000
0000
0100
0001
0000
0010
0100
,
0010
0000
0000
0100
1000
0000
0000
0100
0010
0000
0000
0001
0010
0000
0000
0100
,
1000
0000
0000
1000
0010
0000
0000
0010
0100
0000
0000
0001
0010
0000
0000
0010
,
0100
0000
0000
0100
0010
0000
0000
0010
1000
0000
0000
1000
0010
0000
0000
0010
,
0001
0000
0000
0001
0010
0000
0000
0100
1000
0000
0000
0010
0100
0000
0010
1000
,
0001
0000
0000
0001
0100
0000
0000
0100
0010
0000
0000
0100
0001
0000
0000
0010
,
0100
0000
0000
1000
0100
0000
0000
1000
0001
0000
0000
0010
0001
0000
0100
0010
,
0100
0000
0000
0010
1000
0000
0000
0001
1000
0000
0000
0100
0010
0000
0000
0001
,
0010
0000
0000
0001
0100
0000
0000
0010
0100
0000
0000
0001
0100
0000
0010
1000
,
0010
0000
0000
0100
0001
0000
0010
0100
0010
0000
0000
0100
0010
0000
0100
1000
,
0100
0000
0000
0010
0001
0000
0100
0010
0100
0000
0000
0010
1000
0000
0001
0100
,
0001
0000
0000
1000
0100
0000
0010
0100
0010
0000
0000
0001
0100
0000
0010
0100
,
0010
0000
0000
1000
0010
0000
0000
0100
0001
0000
0000
0010
0100
0000
1000
0001
,
1000
0000
0000
0010
0100
0000
0001
0000
0100
0000
0010
0000
1000
0000
0100
0000
,
0010
0000
0100
0000
1000
0000
0001
0000
0100
0000
0010
0000
0100
0000
0001
1000
,
0001
0000
0000
0010
0100
0000
1000
0000
0001
0000
0100
0000
0010
0000
0100
0000
,
0001
0000
1000
0000
0100
0000
0010
0000
0001
0000
1000
0000
0010
0000
0100
0010
,
0100
0000
0000
0001
0100
0000
0010
0000
0100
0000
0001
0000
1000
0000
0100
0000
,
0010
0000
0100
0000
1000
0000
0010
0000
0100
0000
0001
0000
0100
0000
0010
0100
,
0010
0000
0000
1000
0001
0000
0010
0000
0100
0000
0010
0000
0001
0000
0100
0000
,
0010
0000
0100
0000
0001
0000
1000
0000
0010
0000
0100
0000
0001
0000
1000
0100
,
1000
0000
0000
0001
0100
0000
0010
0000
0100
0000
0001
0000
1000
0000
0100
0000
,
1000
0000
0010
0000
0100
0000
0001
0000
0100
0000
0010
0000
0100
0000
0001
1000
,
0001
0000
0000
0010
0100
0000
1000
0000
0001
0000
0100
0000
0010
0000
0100
0000
,
0001
0000
0010
0000
0100
0000
1000
0000
0001
0000
0100
0000
0010
0000
0100
0001
,
0100
0000
0000
0010
1000
0000
0100
0000
1000
0000
0001
0000
0100
0000
0001
0000
,
0010
0000
0100
0000
1000
0000
0001
0000
1000
0000
0100
0000
1000
0000
0001
0010
,
0001
0000
0000
1000
0010
0000
0100
0000
0001
0000
0100
0000
0010
0000
1000
0000
,
1100
0000
0000
0000
0000
0000
0000
0000
0000
0000
0000
0000
0100
1000
0001
0010
,
0100
0100
0100
1000
,
0010
0010
0010
0100
,
0001
0001
0001
1000
,
0100
0000
0100
0000
0100
1000
0001
1000
,
0110
0000
0000
0000
;

//---------------dance-single - ----------------
#NOTES:
     dance-single:
     :
     Medium:
     5:
     0.285157,0.320634,0.015717,0.133597,0.000000,235.000000,2.000000,17.000000,0.000000,0.000000,0.000000,0.285157,0.320634,0.015717,0.133597,0.000000,235.000000,2.000000,17.000000,0.000000,0.000000,0.000000:
0000
0000
0000
0000
,
0000
0000
0000
0000
,
0000
0000
0000
0000
,
0000
0000
0000
0000
,
1000
0001
0100
0001
,
0010
0001
0100
0001
,
0010
0100
1000
0001
,
0100
0000
0010
0000
0100
0000
0001
1000
,
0200
0000
0000
0000
,
0320
0000
0000
0000
,
0032
0000
0000
0000
,
0203
0000
0000
0000
,
0320
0000
0000
0000
,
0230
0000
0000
0000
,
0302
0000
0000
0000
,
2003
0000
0000
0000
,
3002
0000
0000
0000
,
2003
0000
0000
0000
,
3200
0000
0000
0000
,
0320
0000
0000
0000
,
0230
0000
0000
0000
,
2300
0000
0000
0000
,
3002
0000
0000
0000
,
0203
0000
0000
0000
,
0310
0000
0001
1000
0001
0000
0100
0010
,
0100
0000
0010
1000
0010
0000
0100
0001
,
0100
0000
0010
1000
0010
0000
1000
0100
,
1000
0000
0100
0010
0100
0000
1000
0001
,
1000
0000
0001
0100
0001
0000
0100
0010
,
0100
0000
0010
1000
0010
0000
0100
0010
,
0100
0000
0001
0010
0001
0000
1000
0100
,
1000
0000
0100
0010
0100
0000
1000
0001
,
1000
0010
0100
0001
,
0100
0010
0100
0001
,
1000
0010
0100
0001
,
0010
0100
0010
1000
,
0010
0001
0100
0001
,
1000
0100
1000
0010
,
0100
0001
0100
0010
,
1000
0001
0100
0001
,
0010
0100
1000
0001
,
0100
0001
0010
0001
,
1000
0100
0010
0001
,
0100
0010
0100
0001
,
1000
0001
0100
0001
,
0010
0100
1000
0001
,
1000
0010
0100
0001
,
0100
0010
1000
0001
,
0101
0000
0100
0000
0010
1000
0001
0100
,
0001
0010
0100
0000
1000
0000
0010
0000
,
0100
0000
0001
0000
0010
0100
0010
0001
,
1000
0100
0010
0000
0001
0000
1000
0000
,
0010
0000
0100
0000
0001
1000
0100
0010
,
0100
1000
0001
0000
1000
0000
0010
0000
,
0100
0000
0010
0000
1000
0010
0100
0001
,
0100
0010
1000
0000
0100
0000
0010
0000
,
0001
0000
1000
0000
0010
0100
0010
1000
,
0001
0010
0100
0000
1000
0000
0001
0000
,
0100
0000
0010
0000
0100
0001
0100
0010
,
1000
0100
1000
0000
0001
0000
0100
0000
,
0010
0000
0100
0000
0001
1000
0001
0100
,
0001
0010
0100
0000
1000
0000
0001
0000
,
0100
0000
0010
0000
0100
0001
0100
0010
,
2000
0000
0000
0000
,
3100
0000
0000
0000
,
0010
0000
0000
0000
,
0001
0000
0000
0000
,
1000
0000
0000
0000
0000
0000
0000
0001
,
1001
0000
0000
0000
;

//---------------dance-single - ----------------
#NOTES:
     dance-single:
     :
     Easy:
     3:
     0.147069,0.213756,0.007859,0.007859,0.000000,129.000000,1.000000,1.000000,0.000000,0.000000,0.000000,0.147069,0.213756,0.007859,0.007859,0.000000,129.000000,1.000000,1.000000,0.000000,0.000000,0.000000:
// measure 0
0000
0000
0000
0000
,  // measure 1
0000
0000
0000
0000
,  // measure 2
0000
0000
0000
0000
,  // measure 3
0000
0000
0000
0000
,  // measure 4
1000
0000
0001
0000
,  // measure 5
0100
0000
0010
0000
,  // measure 6
0100
0000
0001
0000
,  // measure 7
1000
0000
0100
0000
,  // measure 8
0010
0000
0000
0000
,  // measure 9
0100
0000
0000
0000
,  // measure 10
1000
0000
0000
0000
,  // measure 11
0001
0000
0000
0000
,  // measure 12
0100
0000
0000
0000
,  // measure 13
0010
0000
0000
0000
,  // measure 14
0100
0000
0000
0000
,  // measure 15
0001
0000
0000
0000
,  // measure 16
1000
0000
0000
0000
,  // measure 17
0010
0000
0000
0000
,  // measure 18
0100
0000
0000
0000
,  // measure 19
0001
0000
0000
0000
,  // measure 20
0100
0000
0000
0000
,  // measure 21
0010
0000
0000
0000
,  // measure 22
1000
0000
0000
0000
,  // measure 23
0010
0000
0000
0000
,  // measure 24
0100
0000
0010
0000
,  // measure 25
1000
0000
0001
0000
,  // measure 26
0100
0000
0001
0000
,  // measure 27
0010
0000
0001
0000
,  // measure 28
1000
0000
0010
0000
,  // measure 29
0100
0000
0001
0000
,  // measure 30
0010
0000
0001
0000
,  // measure 31
1000
0000
0010
0000
,  // measure 32
0100
0000
0001
0000
,  // measure 33
1000
0000
0001
0000
,  // measure 34
0100
0000
0010
0000
,  // measure 35
0100
0000
0001
0000
,  // measure 36
1000
0000
0100
0000
,  // measure 37
1000
0000
0001
0000
,  // measure 38
0100
0000
0001
0000
,  // measure 39
0010
0000
0100
0000
,  // measure 40
1000
0000
0001
0000
,  // measure 41
0100
0000
0001
0000
,  // measure 42
0010
0000
0100
0000
,  // measure 43
1000
0000
0001
0000
,  // measure 44
0100
0000
0010
0000
,  // measure 45
0100
0000
0001
0000
,  // measure 46
1000
0000
0010
0000
,  // measure 47
1000
0000
0001
0000
,  // measure 48
0100
0010
1000
0000
,  // measure 49
0100
0010
0001
0000
,  // measure 50
1000
0010
0100
0001
,  // measure 51
0100
0010
1000
0001
,  // measure 52
0010
0100
0010
0000
,  // measure 53
0100
1000
0100
0000
,  // measure 54
0010
0001
0100
0001
,  // measure 55
0010
0100
1000
0001
,  // measure 56
0100
0010
0100
0000
,  // measure 57
0001
1000
0001
0000
,  // measure 58
0010
0100
1000
0001
,  // measure 59
0100
0010
1000
0001
,  // measure 60
1000
0010
1000
0000
,  // measure 61
0001
0010
0001
0000
,  // measure 62
0100
0010
0100
0001
,  // measure 63
2000
0000
0000
0000
,  // measure 64
3001
0000
0000
0000
,  // measure 65
0000
0000
0000
0000
,  // measure 66
0010
0000
0000
0000
,  // measure 67
0000
0000
0000
0100
,  // measure 68
1001
0000
0000
0000
;
