#TITLE:ApolloN;
#SUBTITLE:;
#ARTIST:sun3;
#TITLETRANSLIT:;
#SUBTITLETRANSLIT:;
#ARTISTTRANSLIT:;
#GENRE:;
#CREDIT:;
#BANNER:ApolloN-bn.png;
#BACKGROUND:ApolloN-bg.png;
#LYRICSPATH:;
#CDTITLE:loodeecdtitle.png;
#MUSIC:ApolloN.ogg;
#OFFSET:-1.561;
#SAMPLESTART:68.222;
#SAMPLELENGTH:22.657;
#SELECTABLE:YES;
#BPMS:0.000=180.000;
#STOPS:;
#BGCHANGES:;
#KEYSOUNDS:;

//---------------dance-single - Loodee----------------
#NOTES:
     dance-single:
     Loodee:
     Challenge:
     12:
     1.000,1.000,1.000,1.000,1.000:
0000
0000
0000
0000
,
0000
0000
0000
0000
,
0000
0000
0000
0000
,
0000
0000
0000
0000
,
0000
0000
0000
0000
,
0000
0000
0000
0000
,
0000
0000
0000
0000
,
0000
0000
0000
0000
,
0000
0000
0000
0000
,
1000
0100
0010
0100
1000
0001
0100
0010
,
0100
0001
0010
0100
0010
0001
1000
0001
,
1000
0010
0100
0001
1000
0100
0010
0001
,
1000
0001
0100
0010
1000
0100
0010
0001
,
0100
0010
0100
0010
1000
0001
1000
0001
,
1000
0010
0100
0001
1000
0100
0010
0000
,
0001
0100
0010
1000
0010
0100
0001
1000
0100
0010
0001
0100
0001
1000
0100
1000
,
0004
0103
0001
1000
0100
0010
0001
1000
0010
0100
0001
1000
0010
0100
0001
0100
,
0010
1000
0000
0001
0000
0000
0010
0000
0100
1000
0000
0001
0000
0000
0100
0000
,
0010
1000
0000
0100
0000
0000
0010
0000
0100
1000
0010
1000
0001
1000
0010
0100
,
0001
0100
0000
0001
0000
0000
0010
0000
0100
1000
0000
0100
0000
0000
1000
0000
,
0010
0100
0000
0001
0000
0000
0100
0000
0001
0010
0001
0100
0001
1000
0100
0010
,
0001
1000
0000
0010
0000
0000
0100
0000
0010
1000
0000
0001
0000
0000
0010
0000
,
0100
1000
0000
0001
0000
0000
1000
0000
0010
0100
0010
1000
0001
1000
0010
1000
,
0100
0010
0000
0001
0000
0000
0100
0000
0001
0010
0000
0100
0000
0000
0010
0000
,
0001
1000
0000
0010
0000
0000
0100
0000
0110
0000
0000
1010
0000
0000
0011
0000
,
1001
0000
0000
1000
0000
0000
0100
0000
0010
0100
0000
1000
0000
0000
0010
0000
,
0100
0001
0000
0010
0000
0000
0001
0000
0010
0100
1000
0001
1000
0010
1000
0001
,
0100
0010
0000
0100
0000
0000
0001
0000
0100
0010
0000
1000
0000
0000
0100
0000
,
1000
0001
0000
0100
0000
0000
0001
0000
1000
0100
1000
0010
1000
0001
1000
0010
,
0100
0001
0000
0100
0000
0000
0001
0000
0010
0100
0000
1000
0000
0000
0100
0000
,
0010
0100
0000
1000
0000
0000
0001
0000
0100
0001
1000
0001
0010
0001
1000
0010
,
1000
0001
0000
0010
0000
0000
0100
0000
1000
0001
0000
0100
0000
0000
0010
0000
,
1000
0010
0000
1000
0000
0000
0100
0000
0010
0001
0000
0100
0000
0000
0001
0000
,
1001
0000
0000
1000
0000
0000
1000
0000
0200
0000
0000
0300
0010
0001
0000
0000
,
0100
0000
0100
0000
0020
0000
0000
0030
1000
0000
0001
0010
0001
0000
0100
0000
,
0010
0000
0000
0010
0000
0000
0010
0000
2000
0000
0000
3000
0001
0100
0000
0000
,
0001
0000
0001
0000
0020
0000
0000
0030
1000
0000
0010
0100
1000
0000
0000
0000
,
0001
0000
0000
0001
0000
0000
0001
0000
0200
0000
0000
0300
0010
0100
0000
0000
,
0010
0000
0010
0000
2000
0000
0000
3000
0100
0000
0010
0100
0010
0000
0001
0000
,
0100
0000
0000
0100
0000
0000
0100
0000
0020
0000
0000
0030
1000
0001
0000
0000
,
1000
0001
1000
0001
0100
1000
0100
0001
,
0101
0000
0000
0000
0100
0000
0000
0000
0001
0000
0000
0000
1000
0000
0010
0100
,
0010
0000
1000
0000
0100
0010
0100
0004
,
0103
0000
0000
0000
1000
0000
0000
0000
0001
0000
0000
0000
0100
0000
0010
1000
,
0001
0000
0000
0000
1000
0000
0000
0000
0100
0000
0001
0000
0100
0000
1000
0100
,
1000
0100
0000
1000
0001
1000
0000
0010
0100
0010
0000
1000
0100
0010
0000
0001
,
0100
0010
0000
1000
0001
0100
0000
0001
0010
0100
0000
1000
0001
1000
0000
0001
,
0100
0001
0100
0001
1000
0001
1000
0001
1000
0100
1000
0100
0010
0001
0010
0001
,
1000
0010
0100
0001
1000
0100
0010
0100
1000
0000
0010
0100
0000
0001
0100
0000
,
2002
0000
0000
0000
0000
0000
0000
3003
,
1000
0100
0010
0100
0010
0001
1000
0100
0010
0100
1000
0001
0100
0010
1000
0001
,
0100
0001
0000
1000
0000
0000
0100
0000
0010
0001
0000
1000
0000
0000
0010
0000
,
0100
0010
0000
1000
0000
0000
0100
0000
1000
0100
1000
0100
0010
0001
0100
0010
,
0100
0001
0000
1000
0000
0000
0100
0000
0010
0001
0000
0010
0000
0000
0001
0000
,
1000
0010
0000
0100
0000
0000
0010
0000
0100
0001
0100
0010
0100
0001
0010
0100
,
1000
0001
0000
0010
0000
0000
0100
0000
0010
0001
0000
1000
0000
0000
0010
0000
,
0100
0001
0000
1000
0000
0000
0001
0000
0010
0100
1000
0010
0100
0001
1000
0100
,
0010
0100
0000
1000
0000
0000
0010
0000
0100
0010
0000
0100
0000
0000
0001
0000
,
0010
0100
0000
1000
0000
0000
0010
0000
0001
0000
0000
1000
0000
0000
0100
0000
,
0110
0000
0000
0010
0000
0000
1000
0000
0100
0010
0000
0001
1000
0000
1000
0000
,
1010
0000
0000
0010
0000
0000
0100
0000
0010
0000
0010
0000
0010
1000
0100
0010
,
0001
0100
0000
0010
0000
0000
1000
0000
0100
0010
0000
0100
0000
1000
0001
0000
,
0101
0000
0000
0100
0000
0000
0001
0000
1000
0000
1000
0000
1000
0100
1000
0001
,
0100
0001
1000
0001
0010
0100
1000
0001
,
0100
0001
1000
0001
0010
0100
0010
0001
,
1000
0100
0010
0001
0010
0001
0100
0001
1000
0100
1000
0010
1000
0001
0010
0100
,
4000
0004
0000
0000
0000
0000
0000
0000
0000
0000
0000
0000
0000
0000
3003
0000
0101
0000
0000
0000
0000
0000
0011
0000
0000
0000
0000
0000
1010
0000
0000
0000
,
1100
0000
0100
0000
0000
1000
0000
0000
0010
0000
0000
0100
0000
0000
1000
0000
,
0100
0000
0001
0000
0000
0100
0000
0000
0001
0000
0000
0010
0000
0000
1000
0000
,
0010
0000
0100
0000
0000
1000
0000
0000
0001
0000
0000
0100
0000
0000
1000
0000
,
0100
0000
0010
0000
0000
0100
0000
0000
0001
0000
0000
0010
0000
0001
0100
0010
,
1000
0000
0010
0000
0000
0100
0000
0000
0001
0000
0000
0010
0000
0000
1000
0000
,
0010
0000
0100
0000
0000
1000
0000
0000
0010
0000
0000
0100
0000
0000
1000
0000
,
0100
0000
0001
0000
0000
1000
0000
0000
0010
0000
0000
0100
0000
0000
1000
0000
,
0100
0000
0001
0000
0000
0010
0000
0000
0100
0000
0000
0010
0000
0001
0010
0100
,
1000
0000
0010
0000
0000
1000
0000
0000
0001
0000
0000
0100
0000
0000
1000
0000
,
0100
0000
0001
0000
0000
0010
0000
0000
0100
0000
0000
0010
0000
0000
1000
0000
,
0010
0000
0100
0000
0000
0010
0000
0000
0001
0000
0000
0100
0000
0000
1000
0000
,
0100
0000
0010
0000
0000
1000
0000
0000
0001
0000
0000
1000
0000
0100
1000
0010
,
1000
0000
0001
0000
0000
0010
0000
0000
0100
0000
0000
0010
0000
0000
1000
0000
,
0010
0000
0001
0000
0000
0100
0000
0000
0010
0000
0000
0100
0000
0000
1000
0000
,
0100
0000
0010
0000
0100
0000
0001
0000
1000
0001
1000
0000
0100
0000
0010
0001
,
0010
0001
0100
0010
1000
0001
0100
0010
1000
0100
0010
0001
0010
0100
1000
0010
,
0100
0000
0001
0000
1000
0000
0001
0000
0010
0100
0010
0000
0001
0000
1000
0000
,
0010
0100
0010
1000
0100
0010
0100
0000
,
0000
0000
000M
0000
0000
0000
000M
0000
000M
000M
000M
0000
000M
0000
000M
0000
,
0000
000M
0000
000M
000M
0000
000M
0000
;

//---------------dance-single - Loodee----------------
#NOTES:
     dance-single:
     Loodee:
     Hard:
     9:
     1.000,1.000,1.000,1.000,1.000:
0000
0000
0000
0000
,
0000
0000
0000
0000
,
0000
0000
0000
0000
,
0000
0000
0000
0000
,
0000
0000
0000
0000
,
0000
0000
0000
0000
,
0000
0000
0000
0000
,
0000
0000
0000
0000
,
0000
0000
0000
0000
,
0002
0000
0000
0003
0002
0000
0000
0003
1000
0000
0010
0000
0200
0000
0000
0300
,
0002
0000
0000
0003
0002
0000
0000
0003
1000
0000
0100
0000
0020
0000
0000
0030
,
0002
0000
0000
0003
0002
0000
0000
0003
1000
0000
0010
0000
0200
0000
0000
0300
,
0002
0000
0000
0003
0002
0000
0000
0003
1000
0000
0001
0000
2000
0000
0000
3000
,
0001
0100
0001
0100
0001
1000
0001
1000
,
0100
0010
0001
0010
0100
1000
0001
0000
,
1000
0010
0001
0010
1000
0100
0001
0100
,
4000
3010
0001
1000
0100
0001
1000
0001
,
1001
1000
0010
1000
0001
1000
0100
0010
,
0001
0010
0100
1000
0010
0001
0010
1000
,
0001
0010
0100
0010
0001
1000
0010
0100
,
0001
0000
1000
0000
0100
0000
0010
0000
0001
0000
0010
0000
1000
0000
0010
0100
,
0010
0100
1000
0001
0100
0010
1000
0001
,
0010
0001
0010
0001
1000
0010
0001
0010
,
0100
0001
1000
0001
1000
0100
0010
0100
,
1000
0000
0001
0000
0100
0000
0010
0000
1000
0000
0000
0110
0000
0000
1001
0000
,
1001
0001
0010
0100
0010
0001
1000
0100
,
1000
0010
0100
0010
1000
0100
0001
0100
,
1000
0010
0100
0001
0100
0010
1000
0100
,
0010
0000
0100
0000
1000
0000
0001
0000
0100
0000
0010
0000
0001
0000
0010
0100
,
0010
1000
0001
0100
0001
0010
0100
1000
,
0100
0010
0001
1000
0010
0100
1000
0100
,
0001
1000
0100
0010
0100
1000
0001
1000
,
0010
0100
0001
0100
0010
0010
1000
1000
,
1010
0000
0000
0010
0000
0000
1000
0000
0001
0000
0000
0000
0010
0000
0000
0000
,
0100
0000
0100
0000
1000
0000
0000
0000
0001
0000
0100
0001
0100
0000
0000
0000
,
0010
0000
0000
0010
0000
0000
1000
0000
0100
0000
0000
0000
0010
0000
0000
0000
,
0001
0000
0001
0000
1000
0000
0000
0000
0001
0000
0010
0001
0010
0000
0000
0000
,
0100
0000
0000
0100
0000
0000
1000
0000
0001
0000
0000
0000
0100
0000
0000
0000
,
0010
0000
0010
0000
0100
0000
0000
0000
0001
0000
1000
0001
1000
0000
0000
0000
,
0100
0000
0000
0100
0000
0000
0010
0000
0001
0000
0000
0000
1000
0000
0000
0000
,
0010
0100
0010
0100
0001
0010
0100
1000
,
1100
0000
0100
0000
1000
0001
0400
0000
,
0310
0000
0100
0000
0001
0010
1000
0040
,
0031
0000
0100
0000
0001
0000
1000
0010
,
0100
0000
0010
0000
1000
0100
0010
0004
,
0103
0110
0101
0101
,
1001
1001
1100
1100
,
1000
0000
0001
0100
0001
0000
1000
0100
1000
0000
0001
0100
0001
0000
1000
0000
,
0001
0000
0010
0000
0100
0000
1000
0000
0001
0000
0000
0101
0000
0000
0011
0000
,
0022
0000
0000
0000
0000
0000
0000
0033
,
1000
0100
0001
1000
0010
0001
0100
1000
,
0100
0001
0100
0001
1000
0001
0010
0100
,
1000
0100
0010
0001
0100
1000
0100
0001
,
1000
0100
0010
0100
1000
0001
0100
0010
,
1000
0000
0001
0000
0010
0000
0100
0000
1000
0000
0100
0000
0001
0000
0100
0010
,
0001
0010
0001
1000
0010
0100
0001
1000
,
0010
1000
0100
1000
0001
0100
1000
0100
,
0010
1000
0001
0100
0001
0010
0100
0010
,
0001
0000
1000
0000
0010
0000
0100
0000
0001
0000
0000
0010
0000
0000
1000
0000
,
1000
0010
0100
1000
0100
1000
0001
0001
,
0001
0000
0010
0000
0100
0000
1000
0000
0010
0000
0010
0000
1000
0001
1000
0000
,
0001
0100
0010
1000
0100
0010
0001
0001
,
0001
1000
0010
0100
0001
0001
4000
0000
,
3001
1000
0001
1000
0001
0010
0001
0010
,
0100
1000
0100
1000
0010
0100
0001
1000
,
0001
0010
1000
0001
0100
1000
0010
0100
,
0004
0000
0000
0000
0000
0000
0003
0000
0011
0000
0000
0110
0000
0000
1100
0000
,
0100
0000
1000
0000
0000
0010
0000
0000
0100
0000
0000
0001
0000
0000
1000
0000
,
0001
0000
0100
0000
0000
0010
0000
0000
1000
0000
0000
0010
0000
0000
0100
0000
,
0001
0000
1000
0000
0000
0100
0000
0000
0010
0000
0000
0001
0000
0000
0010
0000
,
0001
0000
0100
0000
0000
0010
0000
0000
1000
0000
0000
0001
0000
0000
1000
0000
,
0100
0000
0010
0000
0000
0100
0000
0000
1000
0000
0000
0010
0000
0000
0100
0000
,
0001
0000
0100
0000
0000
0001
0000
0000
1000
0000
0000
0100
0000
0000
0010
0000
,
0100
0000
1000
0000
0000
0001
0000
0000
0100
0000
0000
0010
0000
0000
0100
0000
,
0001
0000
1000
0000
0000
0001
0000
0000
0010
0000
0000
0001
0000
0000
0100
0000
,
0010
0000
0100
0000
0000
0001
0000
0000
1000
0000
0000
0100
0000
0000
1000
0000
,
0001
0000
0100
0000
0000
0010
0000
0000
1000
0000
0000
0001
0000
0000
0010
0000
,
0100
0000
1000
0000
0000
0100
0000
0000
1000
0000
0000
0010
0000
0000
0100
0000
,
0001
0000
1000
0000
0000
0001
0000
0000
0010
0000
0000
0100
0000
0000
1000
0000
,
0100
0000
0010
0000
0000
0001
0000
0000
0100
0000
0000
0010
0000
0000
0100
0000
,
0001
0000
1000
0000
0000
0100
0000
0000
0010
0000
0000
0001
0000
0000
0100
0000
,
0010
1000
0001
1000
0010
1000
0100
1000
,
0001
0100
0001
0000
1000
0100
1000
0100
1000
0000
0000
1100
0000
0000
1001
0000
,
1002
0000
0000
0000
,
0000
0000
0000
0000
,
0000
0000
0000
0000
,
0000
0000
0000
0000
,
0003
0000
0000
0000
;

//---------------dance-single - Loodee----------------
#NOTES:
     dance-single:
     Loodee:
     Medium:
     7:
     1.000,1.000,1.000,1.000,1.000:
0000
0000
0000
0000
,
0000
0000
0000
0000
,
0000
0000
0000
0000
,
0000
0000
0000
0000
,
0000
0000
0000
0000
,
0000
0000
0000
0000
,
0000
0000
0000
0000
,
0000
0000
0000
0000
,
0000
0000
0000
0000
,
0002
0000
0000
0003
0002
0000
0000
0003
1000
0000
0010
0000
1000
0000
0000
0000
,
0002
0000
0000
0003
0002
0000
0000
0003
1000
0000
0100
0000
0010
0000
0000
0000
,
0002
0000
0000
0003
0002
0000
0000
0003
1000
0000
0001
0000
1000
0000
0000
0000
,
0002
0000
0000
0003
0002
0000
0000
0003
0010
0000
0100
0000
1000
0000
0000
0000
,
0001
0100
0010
0100
0001
1000
0001
1000
,
0100
0010
0100
1000
0010
0100
0001
0000
,
4000
0000
0000
0000
,
3004
0000
0000
0000
0000
0000
0000
0003
,
1001
0000
0000
1000
0000
0000
0001
0000
0100
0000
0000
0010
0000
0000
1000
0000
,
0001
0000
0000
0010
0000
0000
0100
0000
1000
0000
0001
0000
1000
0000
0001
0000
,
0100
0000
0000
0010
0000
0000
1000
0000
0001
0000
0000
1000
0000
0000
0100
0000
,
0010
0000
0000
0001
0000
0000
0010
0000
0001
0000
0100
0000
0010
0000
1000
0000
,
0001
0000
0000
1000
0000
0000
0010
0000
1000
0000
0000
0100
0000
0000
0010
0000
,
0001
0000
0000
1000
0000
0000
0001
0000
0100
0000
0010
0000
0100
0000
0010
0000
,
1000
0000
0000
0001
0000
0000
1000
0000
0100
0000
0000
1000
0000
0000
0001
0000
,
0100
0000
0000
0010
0000
0000
0100
0000
0010
0000
0000
1000
0000
0000
0001
0000
,
0001
0000
0000
1000
0000
0000
0010
0000
0100
0000
0000
0001
0000
0000
0010
0000
,
0100
0000
0000
0010
0000
0000
0001
0000
1000
0000
0100
0000
0010
0000
0001
0000
,
1000
0000
0000
0001
0000
0000
0100
0000
0010
0000
0000
0100
0000
0000
0001
0000
,
1000
0000
0000
0001
0000
0000
1000
0000
0100
0000
0010
0000
0001
0000
0100
0000
,
0001
0000
0000
1000
0000
0000
0010
0000
0100
0000
0000
0010
0000
0000
1000
0000
,
0001
0000
0000
1000
0000
0000
0100
0000
0010
0000
0001
0000
0010
0000
0001
0000
,
1000
0000
0000
0010
0000
0000
0100
0000
0001
0000
0000
0100
0000
0000
0010
0000
,
1000
0000
0000
0100
0000
0000
1000
0000
0001
0000
0100
0000
0001
0000
0100
0000
,
0001
0000
0000
1000
0001
0000
0100
0000
,
0001
0010
0100
0000
1000
0001
1000
0000
,
0001
0000
0000
0001
1000
0000
0100
0000
,
0010
0001
0010
0000
0001
0001
0000
0000
,
1000
0000
0000
0010
1000
0000
0001
0000
,
0010
0001
0010
0000
0001
1000
0001
0000
,
0100
0000
0000
0010
0100
0000
0001
0000
,
1000
0100
1000
0100
0010
0001
0010
0001
,
1000
0001
0100
0040
,
1030
0100
0010
0001
,
0001
0100
0010
1000
,
0001
1000
0010
0100
,
0010
1000
0001
0010
,
0100
1000
0100
1000
,
0010
0100
0010
0000
0100
0010
0100
0000
,
0004
0000
0000
0000
0000
0000
0003
0000
0011
0000
0000
0001
0000
0000
1000
0000
,
0002
0000
0000
0003
,
2000
3200
0302
0203
,
1300
0000
0000
0001
0000
0000
1000
0000
0010
0000
0000
0100
0000
0000
0001
0000
,
1000
0000
0000
0100
0000
0000
0010
0000
0001
0000
1000
0000
0001
0000
1000
0000
,
0010
0000
0000
0100
0000
0000
0001
0000
1000
0000
0000
0001
0000
0000
0010
0000
,
0100
0000
0000
1000
0000
0000
0100
0000
1000
0000
0010
0000
0100
0000
0001
0000
,
1000
0000
0000
0001
0000
0000
0100
0000
0001
0000
0000
0010
0000
0000
0100
0000
,
1000
0000
0000
0001
0000
0000
1000
0000
0010
0000
0100
0000
0010
0000
0100
0000
,
0001
0000
0000
1000
0000
0000
0001
0000
0010
0000
0000
0001
0000
0000
1000
0000
,
0010
0000
0000
0100
0000
0000
0010
0000
0100
0000
0000
0001
0000
0000
0100
0000
,
0100
0000
0001
0000
1000
0000
0010
1000
,
0100
0000
0010
0000
0001
1000
0001
1000
,
0001
0000
0100
0000
0001
0000
0010
0001
,
0100
0000
0010
0000
1000
0100
4000
0000
,
3100
0010
0001
1000
0001
1000
0100
0010
,
0001
1000
0001
1000
0001
0100
0010
1000
,
0004
0000
0000
0000
,
4000
0000
0000
0000
0000
0000
3003
0000
1001
0000
0000
1000
0000
0000
0100
0000
,
0020
0001
0001
0001
,
0100
0100
0100
0100
,
0032
1000
1000
1000
,
0203
0010
0001
0010
,
0302
0010
1000
1000
,
2003
0100
3020
1000
,
0230
0001
0001
0000
,
0320
0000
1000
0000
1000
0000
1030
0001
,
0020
0100
0100
0100
,
0001
0001
0001
0001
,
0230
1000
1000
1000
,
2300
0010
0001
0010
,
3020
0100
0100
0100
,
2030
0010
3002
0100
,
0023
0000
0000
0000
,
0200
0000
0000
0000
0000
0000
0000
0330
1001
0000
0000
1001
0000
0000
1001
0000
,
2002
0000
0000
0000
,
0000
0000
0000
0000
,
0000
3003
0000
0000
;

//---------------dance-single - Loodee----------------
#NOTES:
     dance-single:
     Loodee:
     Easy:
     5:
     1.000,1.000,1.000,1.000,1.000:
0000
0000
0000
0000
,
0000
0000
0000
0000
,
0000
0000
0000
0000
,
0000
0000
0000
0000
,
0000
0000
0000
0000
,
0000
0000
0000
0000
,
0000
0000
0000
0000
,
0000
0000
0000
0000
,
0000
0000
0000
0000
,
1000
0010
0100
0001
,
1000
0001
1000
0100
,
1000
0100
0010
0001
,
1000
0010
0100
0001
,
0010
0001
0010
0001
0010
0001
0010
0000
,
0001
1000
0001
1000
0001
1000
0001
0000
,
0100
0100
0010
0010
,
1000
0100
0010
0001
,
1001
1000
0010
0100
,
0010
0000
1000
0000
0100
1000
0010
0000
,
1000
0001
0100
0010
,
1000
0000
0001
0000
0010
0100
0010
0000
,
0001
1000
0010
1000
,
0100
0000
0010
0000
0001
1000
0001
0000
,
0100
0010
1000
0010
,
1000
0000
0000
0000
0100
0000
0000
0000
1000
0000
0000
0001
0000
0000
1000
0000
,
0001
0010
0001
0100
,
0010
0000
0100
0000
0001
1000
0001
0000
,
0010
0100
1000
0100
,
1000
0000
0010
0000
0100
0001
0100
0000
,
0010
1000
0001
0010
,
0100
0000
0010
0000
0001
1000
0100
0000
,
1000
0010
0100
0001
,
0100
0000
0000
0000
0001
0000
0000
0000
1000
0000
0000
0100
0000
0000
0010
0000
,
0001
1000
0000
0001
0000
1000
0000
0001
,
0000
0010
0000
0100
0000
0010
0000
0001
,
0000
1000
0000
0010
0000
0100
0000
0001
,
0000
1000
0000
0001
0000
1000
0000
0100
,
0000
0010
0000
0001
0000
0010
0000
0001
,
0000
1000
0000
0010
0000
1000
0000
0010
,
0000
0100
0000
0001
0000
1000
0000
0100
,
0010
0001
1000
0001
1000
0001
0100
0010
,
1000
0000
0001
0000
1000
0000
0001
0010
,
0100
1000
0100
1000
,
1000
0001
0100
0010
,
0100
0000
0001
0000
1000
0100
0010
0000
,
0001
0001
1000
1000
,
0010
0010
0100
0100
,
0001
1000
0001
1000
0010
0100
0010
0100
,
0002
0000
0000
0000
0000
0000
0000
0000
1003
0000
0000
0100
0000
0000
0010
0000
,
0002
0000
0000
0003
,
2000
0000
0000
0000
0020
0000
0000
3030
,
1000
0001
0100
0001
,
1000
0000
0100
0000
1000
0001
0100
0000
,
0001
1000
0010
1000
,
0100
0000
0010
0000
0001
0010
0001
0000
,
0100
0010
1000
0001
,
1000
0000
0001
0000
0010
0100
1000
0000
,
0010
0100
0010
0100
,
0001
0000
0000
0000
1000
0000
0000
0000
0001
0000
0000
0010
0000
0000
0100
0000
,
1000
0000
0010
0000
0100
0000
0010
1000
,
0010
0000
1000
0000
0100
0010
0001
0010
,
0100
0000
1000
0000
0001
0000
0100
0010
,
0100
0000
0001
0000
1000
0001
2000
0000
,
3100
0010
0100
0010
0001
1000
0001
1000
,
0001
0100
0001
0100
0001
1000
0001
1000
,
0002
0000
0000
0000
,
2000
0000
0000
0000
0000
0000
3003
0000
1001
0000
0000
0001
0000
0000
1000
0000
,
0002
0010
0000
0100
,
0000
0010
0000
0100
,
0203
0010
0000
0010
,
0302
1000
0000
0010
,
0023
0100
0000
0100
,
0230
1000
2300
0100
,
3002
0100
0000
0100
,
2003
0010
0000
0010
,
3002
1000
0000
1000
,
0000
0100
0000
0100
,
2003
0100
0000
0100
,
3020
1000
0000
1000
,
0230
0001
0000
0001
,
0302
1000
2003
0100
,
3010
0100
0010
0100
,
0001
0000
0010
0000
0100
0000
1000
0000
0001
0000
0000
0010
0000
0000
0100
0000
,
2000
0000
0000
0000
,
0000
0000
0000
3000
;
