#TITLE:Airbrushed;
#SUBTITLE:;
#ARTIST:Anamanaguchi;
#TITLETRANSLIT:;
#SUBTITLETRANSLIT:;
#ARTISTTRANSLIT:;
#GENRE:;
#CREDIT:;
#BANNER:;
#BACKGROUND:;
#LYRICSPATH:;
#CDTITLE:;
#MUSIC:[Round 10] - Airbrushed.mp3;
#OFFSET:-0.074000;
#SAMPLESTART:47.419987;
#SAMPLELENGTH:20.479992;
#SELECTABLE:YES;
#BPMS:0.000000=187.500000
;
#STOPS:
;
#BGCHANGES:;
#KEYSOUNDS:;
#ATTACKS:;

//---------------dance-single - ----------------
#NOTES:
     dance-single:
     :
     Hard:
     9:
     0.702185,0.697409,0.402644,0.113956,0.015194,579.000000,53.000000,15.000000,0.000000,0.000000,0.000000,0.702185,0.697409,0.402644,0.113956,0.015194,579.000000,53.000000,15.000000,0.000000,0.000000,0.000000:
// measure 0
0000
0000
0000
0000
,  // measure 1
0000
0000
0000
0000
,  // measure 2
0000
0000
0000
0000
,  // measure 3
0000
0000
0000
0000
,  // measure 4
0000
0000
0000
0000
,  // measure 5
0001
1000
0100
0000
1000
0001
0010
0000
,  // measure 6
0001
1000
0010
0000
0100
0001
1000
1001
,  // measure 7
0000
0000
0110
0000
0010
0001
0100
0000
,  // measure 8
0010
1000
0100
0000
0010
0100
1000
0001
,  // measure 9
0000
0001
0100
0010
0000
0010
1000
0001
,  // measure 10
0000
0001
0010
0100
0000
0100
1000
0001
,  // measure 11
0000
0001
0100
1000
0000
1000
0100
0001
,  // measure 12
0000
0001
0010
1000
0000
1000
0010
0001
,  // measure 13
0000
0001
1000
0010
0000
0010
0100
0001
,  // measure 14
0000
0001
1000
0100
0000
0100
0010
0001
,  // measure 15
0000
0001
0100
1000
0000
1000
0100
0001
,  // measure 16
0000
0001
0010
1000
0000
0010
0001
0000
,  // measure 17
0011
0110
1100
1001
,  // measure 18
0101
0110
1010
1001
,  // measure 19
0001
0010
0001
0010
1000
0010
1000
0010
,  // measure 20
0100
0001
0100
1000
0001
0000
1001
0000
,  // measure 21
0110
0000
0100
0000
0001
1000
0100
0000
,  // measure 22
0020
0000
0032
0000
2003
0000
3010
0200
,  // measure 23
0000
0000
0310
0000
0100
0001
0100
0000
,  // measure 24
0010
0000
1000
0000
0001
0010
0100
0000
,  // measure 25
1000
0000
0001
0100
0010
0000
0100
0001
,  // measure 26
2000
0000
3000
0010
0100
0000
0001
1000
,  // measure 27
0000
1000
0100
0000
1000
0001
0100
0010
,  // measure 28
0000
0010
0100
0000
0101
0000
1010
0000
,  // measure 29
1000
0001
0100
0001
1000
0000
0100
1000
,  // measure 30
0010
0100
0001
0000
0100
0000
0010
2000
,  // measure 31
0000
0000
0000
0000
3001
0000
0100
0000
0010
0000
0100
0000
0001
0000
1000
0100
,  // measure 32
0000
1000
0010
0100
0010
0001
0010
0100
,  // measure 33
0002
0010
2003
0100
,  // measure 34
3002
0000
0100
0000
2003
0000
0000
0002
,  // measure 35
3000
0000
1003
0000
1001
0000
0000
0110
,  // measure 36
0000
0100
0001
1000
0100
0010
0001
1000
,  // measure 37
0010
0100
0010
1000
0100
0010
0001
0010
,  // measure 38
0100
1000
0001
0100
1000
0100
0000
0110
,  // measure 39
0000
0010
1000
0001
0000
0001
0010
0000
,  // measure 40
0100
0000
1000
0100
1000
0000
0001
0100
,  // measure 41
0001
0100
0010
0100
1000
0100
0001
0010
,  // measure 42
0100
1000
0001
0010
1000
0010
0000
0110
,  // measure 43
0000
0100
1000
0001
0000
0001
0100
0000
,  // measure 44
0010
1000
0100
1000
0001
0010
0100
0000
,  // measure 45
0100
1000
0010
0001
0010
0100
0001
0010
,  // measure 46
1000
0010
0100
1000
0001
0100
0000
0110
,  // measure 47
0000
0010
1000
0001
0000
0001
0010
0100
,  // measure 48
1000
0100
1000
0000
0001
0100
0001
0000
,  // measure 49
0101
0101
1010
1010
,  // measure 50
0110
0000
0110
0000
1001
0000
1000
0001
,  // measure 51
0011
0000
0000
0000
1000
0000
0100
0000
1000
0000
0010
0000
0100
0000
0001
2000
,  // measure 52
0000
0000
0000
3001
0000
0100
0020
0000
,  // measure 53
1030
0000
1100
0000
1000
0001
0100
0010
,  // measure 54
0000
0010
0100
0000
0001
1000
0100
0000
,  // measure 55
0011
0000
1100
0000
1000
0001
0100
0010
,  // measure 56
0000
0010
1000
0000
0001
0010
0100
0000
,  // measure 57
1100
1001
0101
1010
,  // measure 58
1000
0001
0010
0000
0011
0000
0100
1000
,  // measure 59
0000
0001
0100
0000
0100
0010
0100
0001
,  // measure 60
0000
0001
1000
0100
0010
0000
1001
0000
,  // measure 61
0010
0000
0011
0000
0100
1000
0001
0100
,  // measure 62
0010
0000
1010
0000
0100
0001
1000
0000
,  // measure 63
0100
0000
0011
0000
0100
1000
0010
1000
,  // measure 64
0001
0000
0101
0000
0010
1000
0001
0000
,  // measure 65
0010
0000
1100
0000
0001
0100
0010
0100
,  // measure 66
0001
0000
1001
0000
0100
0010
0001
1000
,  // measure 67
0000
0010
0100
0000
0001
0100
0001
1000
,  // measure 68
0000
1000
0100
0001
0100
0010
0001
1000
,  // measure 69
0010
1000
0100
1000
0010
0100
0001
0100
,  // measure 70
0010
1000
0001
1000
0000
1100
0000
0011
,  // measure 71
0000
0001
0100
0010
1000
0001
1000
0100
,  // measure 72
0010
0001
1000
0010
0100
0001
0010
0001
,  // measure 73
0100
0010
1000
0100
1000
0010
0100
0001
,  // measure 74
0010
0100
1000
0010
1000
0001
0010
0001
,  // measure 75
0100
0100
0010
0010
1000
1000
0001
0001
,  // measure 76
0010
0010
0100
0100
1000
1000
0001
0001
,  // measure 77
0100
0001
0100
1000
0000
1000
0100
0001
,  // measure 78
0000
0001
0100
1000
0000
1000
0100
0001
,  // measure 79
0000
0001
0010
1000
0000
1000
0010
0001
,  // measure 80
0000
0001
0010
1000
0010
0001
0100
0010
,  // measure 81
1000
0100
0001
0100
0000
0100
1000
0100
,  // measure 82
0000
0100
0001
0100
0000
0100
1000
0100
,  // measure 83
0000
0010
0001
0010
0000
0010
1000
0010
,  // measure 84
0001
0000
0100
0000
0010
1000
1001
0000
,  // measure 85
0001
1000
0100
0000
0010
0001
1000
0000
,  // measure 86
0010
0100
0001
0000
1000
0100
0010
0110
,  // measure 87
0000
0010
0100
0000
0100
1000
0001
0000
,  // measure 88
0001
0100
0010
0000
0010
1000
0001
0000
,  // measure 89
0010
0001
1000
0000
0100
1000
0010
0000
,  // measure 90
0100
0001
0010
0000
0001
1000
0010
0110
,  // measure 91
0000
0010
0100
0000
0001
0100
0010
0000
,  // measure 92
1000
0100
0010
0000
0001
1000
0100
0000
,  // measure 93
0010
0001
1000
0100
0000
1000
0001
0100
,  // measure 94
0000
0001
1000
0100
0000
1000
0001
0010
,  // measure 95
0000
0001
1000
0010
0000
1000
0001
0010
,  // measure 96
0000
0001
0100
0010
0000
1000
0100
0010
,  // measure 97
0000
0001
1000
0100
0000
1000
0010
0100
,  // measure 98
0000
0001
0010
0100
0000
0010
0001
1000
,  // measure 99
0000
0010
0100
0001
0000
0010
0100
1000
,  // measure 100
1100
0000
0011
0000
1000
0010
0100
0000
,  // measure 101
0101
0000
0110
0000
1010
0000
2002
0000
0000
0000
0000
0000
,  // measure 102
3003
0000
0000
0000
;

//---------------dance-single - ----------------
#NOTES:
     dance-single:
     :
     Medium:
     7:
     0.485126,0.464940,0.167135,0.159538,0.011396,404.000000,22.000000,21.000000,0.000000,0.000000,0.000000,0.485126,0.464940,0.167135,0.159538,0.011396,404.000000,22.000000,21.000000,0.000000,0.000000,0.000000:
0000
0000
0000
0000
,
0000
0000
0000
0000
,
0000
0000
0000
0000
,
0000
0000
0000
0000
,
0000
0000
0000
0000
,
1000
0100
1000
0100
,
0010
0000
0001
0000
0010
0001
0000
0101
,
0000
0100
0010
1000
,
0100
0010
0001
1000
,
0010
0000
1000
0000
0000
0010
1000
0000
,
0001
0000
0010
0000
0000
0001
0010
0000
,
0100
0000
0010
0000
0000
0100
0010
0000
,
0001
0000
1000
0000
0000
0001
1000
0000
,
0001
0000
0100
0000
0000
0001
0100
0000
,
0010
0000
1000
0000
0000
0010
1000
0000
,
0100
0000
0010
0000
0000
0100
0010
0000
,
0001
0000
1000
0000
0001
1000
0001
0000
,
0100
0010
0100
0001
,
1000
0100
0010
0001
,
1000
1000
0001
0001
,
0100
0010
0100
0010
0100
0000
0010
0000
,
1000
0000
0100
0000
0010
0001
1000
0000
,
0020
0000
0230
0000
0302
0000
2003
0100
,
0000
0001
0000
3002
,
0000
1000
1000
1003
,
0010
0000
0010
0100
0001
0000
1000
0100
,
2000
0000
3000
0010
0100
0000
0001
2000
,
0000
0100
0000
3100
,
0000
0020
0001
0001
,
0031
0000
1000
0100
1000
0000
0001
0100
,
0001
0100
0010
0000
1000
0000
0100
0020
,
0000
0100
0000
0130
,
2000
0001
0001
0001
,
3002
0000
0203
0000
,
0320
0000
0000
0000
2030
0000
0000
0002
,
0000
0000
3003
0000
1001
0000
0000
0220
,
0000
0000
0000
0330
,
0010
0000
0100
0000
0001
1000
0100
0000
,
0010
0000
0001
0000
1000
0010
0000
0100
,
0000
0001
1000
0100
0000
0000
0010
0000
,
0001
0000
0000
1000
0000
0000
0010
0000
,
0100
0000
0001
0000
0010
0100
1000
0000
,
0010
0000
0100
0000
0001
1000
0000
0100
,
0000
1000
0010
0100
0000
0000
0001
0000
,
1000
0000
0000
0100
0000
0000
1000
0000
,
0010
0000
0100
0000
0001
1000
0100
0000
,
0010
0000
0001
0000
1000
0010
0000
0100
,
0000
0001
0010
0100
0000
0000
1000
0000
,
0001
0000
0000
0100
0000
0000
0010
0000
,
1000
1000
0001
0001
,
0010
0010
0100
0100
,
1000
0000
0000
0000
1000
0000
0000
0000
0001
0000
1000
0000
0001
0000
0000
1000
,
0000
0000
0000
0010
0000
0100
0001
0000
,
1000
0000
0100
0000
0000
1000
0100
0000
,
0010
0000
0001
0000
0000
0010
0001
0000
,
0100
0000
0010
0000
0000
0100
0010
0000
,
1000
0000
0001
0000
1000
0001
1000
0000
,
0001
0000
0010
0000
0000
0001
0010
0000
,
0100
0000
1000
0000
0000
0100
1000
0000
,
0010
0000
0100
0000
0000
0010
0100
0000
,
0001
0000
1000
0001
0000
1000
0001
0000
,
0010
0000
0001
0000
1000
0010
1000
0000
,
0001
0000
0010
0000
0100
1000
0100
0000
,
0010
0000
0001
0000
1000
0010
1000
0000
,
0010
0000
0100
0000
0001
1000
0100
0000
,
0010
0000
0001
0000
1000
0010
0100
0000
,
0001
0000
1000
0000
0100
0010
0001
0000
,
1000
0000
0001
0000
0100
0010
1000
0001
,
0000
1000
0100
0000
0110
0000
1001
0000
,
0001
0100
0001
0000
1000
0100
1000
0000
,
0001
0100
0001
0000
0000
0101
0000
0201
,
0000
0010
0001
0010
,
0302
1000
0100
1000
,
1003
0010
1000
0000
0001
0010
0001
0000
,
0100
0010
0100
0000
0001
1000
0001
0000
,
0010
0100
1000
0010
,
0100
0001
0010
0100
,
1000
1100
0100
1100
,
0010
0110
0100
0110
,
0010
0011
0001
0011
,
0001
0000
1001
0000
1000
0001
1000
0000
,
0001
0101
0100
0101
,
0001
1001
1000
1001
,
0100
0110
0010
0110
,
0200
0000
1000
1300
,
0001
0100
0010
1000
,
0001
0000
0010
0000
0100
1000
0000
1100
,
0000
1000
0010
0100
,
0001
1000
0100
0010
,
0001
1000
0010
0100
,
0001
0000
0010
0000
0100
0010
0000
0011
,
0000
0001
1000
0010
,
0100
0001
1000
0100
,
0010
0000
0001
0000
0000
0010
0001
0000
,
1000
0000
0010
0000
0000
1000
0010
0000
,
0100
0000
0010
0000
0000
0100
0010
0000
,
1000
0000
0001
0000
0000
1000
0001
0000
,
0010
0000
0001
0000
0000
0010
0001
0000
,
1000
0000
0010
0000
0000
1000
0010
0000
,
0100
0000
0001
0000
0000
1000
0100
0000
,
0010
0000
0001
0000
1000
0001
0100
0000
,
0010
0000
0100
0000
0010
0000
0200
0000
0000
0000
0000
0000
,
0300
0000
0000
0000
;

//---------------dance-single - ----------------
#NOTES:
     dance-single:
     :
     Easy:
     4:
     0.334270,0.308440,0.000000,0.075971,0.000000,298.000000,0.000000,10.000000,0.000000,0.000000,0.000000,0.334270,0.308440,0.000000,0.075971,0.000000,298.000000,0.000000,10.000000,0.000000,0.000000,0.000000:
0000
0000
0000
0000
,
0000
0000
0000
0000
,
0000
0000
0000
0000
,
0000
0000
0000
0000
,
0000
0000
0000
0000
,
0000
1000
0000
1000
,
0000
0000
0001
0000
0000
0001
0000
0001
,
0000
0100
0000
0100
,
0000
0010
0010
0010
,
0000
1000
0000
0001
,
0000
1000
0000
0001
,
0000
0010
0000
0100
,
0000
0010
0000
0100
,
0000
1000
0000
0100
,
0000
0010
0000
0001
,
0000
1000
0000
0010
,
0000
0100
0000
0001
,
1000
1000
1000
0000
,
0001
0001
0001
0000
,
0100
0100
0010
0010
,
1000
0010
0100
0001
,
0000
0000
1000
0100
,
0010
0000
0001
0000
1000
0000
0000
0020
,
0000
0100
0000
0100
,
0000
0100
0100
0130
,
0000
0000
0100
0001
,
1000
0000
0100
0000
0010
0000
0000
0002
,
0000
1000
0000
1000
,
0000
1000
1000
1000
,
1003
0010
0100
0001
,
1000
0000
0100
0000
0010
0000
0000
0002
,
0000
1000
0000
1003
,
0010
0100
0001
0010
,
0200
0000
2300
0000
,
3002
0000
0000
0000
0203
0000
0000
0320
,
0000
0000
0000
0000
0100
0000
0000
0130
,
0000
0000
0000
0000
,
0100
0001
1000
0100
,
0010
0000
0001
0000
1000
0000
0000
0001
,
0000
1000
0010
0100
,
0001
0000
0000
1000
0000
0000
0100
0000
,
0010
0001
0100
0010
,
1000
0000
0100
0000
0010
0000
0000
0100
,
0000
1000
0001
0100
,
0010
0000
0000
1000
0000
0000
0001
0000
,
0010
0100
1000
0001
,
0100
0000
0010
0000
0100
0000
0000
0001
,
0000
1000
0100
0010
,
0001
0000
0000
1000
0000
0000
0010
0000
,
0100
0100
0010
0010
,
1000
1000
0001
0001
,
0010
0010
0100
0100
,
2000
0000
0001
3001
,
0001
0100
0010
1000
,
0001
0010
0100
1000
,
0010
1000
0100
0010
,
0001
1000
0010
0000
,
0100
0001
0010
0001
,
1000
0010
0100
0001
,
1000
0100
0010
0001
,
1000
1000
0001
0001
,
0100
0010
0100
0001
,
1000
0100
0010
0100
,
1000
0010
0100
0001
,
1000
0100
0010
0000
,
0010
0001
0010
0001
,
1000
0010
1000
0010
,
0100
0001
1000
0100
,
0010
0010
0100
0100
,
1000
0100
0010
0001
,
1000
0000
0001
0000
0000
0100
0000
0100
,
0000
0010
1000
0100
,
0010
0001
1000
0000
,
0010
0100
0001
1000
,
0100
0010
0001
0100
,
0010
0010
0100
0100
,
0001
0001
1000
1000
,
0010
0010
0010
0010
,
0100
0100
0100
0100
,
0001
0001
0001
0001
,
1000
1000
1000
0000
,
0001
0001
0001
0001
,
0010
0010
0010
0010
,
0100
0100
0100
0100
,
0100
0000
0000
0000
,
0000
1000
0000
1000
,
0000
0000
0001
0000
0000
0001
0000
0001
,
0000
0100
0000
0100
,
0000
0010
0000
0010
,
0000
0100
0000
0100
,
0000
0000
0010
0000
0000
0010
0000
0010
,
0000
1000
0000
1000
,
0000
0001
0000
0001
,
0000
0010
0000
0001
,
0000
0010
0000
0001
,
0000
1000
0000
0010
,
0000
1000
0000
0010
,
0000
0100
0000
0001
,
0000
1000
0000
0100
,
0000
0010
0000
0001
,
1000
0010
0100
0001
,
2000
0000
3001
0000
;
