#TITLE:Velvet Sentiment;
#SUBTITLE:;
#ARTIST:seiya-murai;
#TITLETRANSLIT:;
#SUBTITLETRANSLIT:;
#ARTISTTRANSLIT:;
#GENRE:;
#CREDIT:brunobg24;
#MENUCOLOR:;
#METERTYPE:DDR;
#BANNER:[Round 1] - Velvet Sentiment.png;
#BACKGROUND:[Round 1] - Velvet Sentiment-bg.png;
#JACKET:[Round 1] - Velvet Sentiment-jacket.png;
#LYRICSPATH:;
#CDTITLE:;
#MUSIC:[Round 1] - Velvet Sentiment.mp3;
#OFFSET:-0.678;
#SAMPLESTART:7.980;
#SAMPLELENGTH:12.188;
#SELECTABLE:YES;
#LISTSORT:;
#BPMS:0.000=160.000,104.000=80.000,120.000=160.000;
#STOPS:;
#BGCHANGES:;
#ATTACKS:;

//---------------dance-single - ----------------
#NOTES:
     dance-single:
     :
     Challenge:
     9:
     0.671,0.696,0.386,0.119,0.574: // measure 1
0000
0000
0000
0000
,  // measure 2
0000
0000
0000
0000
,  // measure 3
0000
0000
0000
0000
,  // measure 4
0000
0000
0000
0000
,  // measure 5
0000
0000
0000
0000
0000
0000
0000
0000
0000
0000
0000
0000
0000
0000
1000
0001
,  // measure 6
1000
1000
0100
0100
0001
0001
0100
0100
,  // measure 7
0010
0000
0010
0000
0100
0000
0100
0000
1000
0000
0001
0000
1000
0010
0100
0010
,  // measure 8
1000
0000
0001
0010
0000
0010
0100
0000
,  // measure 9
0010
0000
0000
0000
0001
0000
1000
0000
0000
0000
1000
0000
0100
0000
0010
0001
,  // measure 10
0010
0010
0001
0001
0010
0010
1000
1000
,  // measure 11
0010
0000
0010
0000
0100
0000
0100
0000
0010
0000
0001
0000
1000
0100
0010
0100
,  // measure 12
1000
0000
0000
0010
0000
0000
0100
0000
0000
0001
0000
0000
0010
0000
0000
0000
,  // measure 13
0001
0100
0000
0001
0000
1000
0010
0000
0000
1000
0100
1000
0100
0000
0010
0001
,  // measure 14
0010
0010
0100
0100
1000
1000
0100
0100
,  // measure 15
0001
0000
0001
0000
0100
0000
0100
0000
0010
0000
0001
0000
1000
0001
0010
0001
,  // measure 16
1000
0000
0000
0010
0000
0000
0100
0000
0001
0000
0000
0010
0000
0000
0100
0000
,  // measure 17
1000
0000
0000
0001
0000
0000
0100
0000
0010
0000
0000
0000
1000
0000
0001
0100
,  // measure 18
0001
0001
0010
0010
1000
1000
0010
0010
,  // measure 19
0001
0000
0001
0000
0100
0000
0100
0000
0001
0010
0001
0010
0100
1000
0100
1000
,  // measure 20
0020
0000
0000
0000
0030
0000
1000
0010
1000
0010
0100
0001
0100
0000
0000
0000
,  // measure 21
0001
1000
0000
0001
0000
0100
0010
0000
0000
0000
1000
0000
0010
0000
0000
0000
,  // measure 22
1100
0000
0000
0011
0000
0000
1001
0000
0000
0001
0100
0001
0100
0010
1000
0010
,  // measure 23
1000
0000
0000
1010
0000
0000
0101
0000
0000
1000
0100
1000
0100
0010
0001
0010
,  // measure 24
0001
0011
1001
1010
,  // measure 25
1000
0000
0010
0000
1000
0000
0001
0000
0010
0000
0001
0000
1000
0000
0100
0000
0010
0000
0001
0000
0000
1001
0000
0000
,  // measure 26
0000
0000
0010
0000
0010
0000
1000
0010
1000
0010
0000
0100
0001
0100
0000
0001
,  // measure 27
2000
0000
0000
0000
0000
0000
0000
0000
0000
0000
0000
0000
3000
0000
0000
0000
0000
0000
0001
0000
0000
0100
0000
0000
0002
0000
0000
0000
0000
0000
0000
0000
0000
0000
0000
0000
0003
0000
0000
0000
0000
0000
1000
0000
0100
0000
0010
0000
,  // measure 28
0001
0000
0000
0000
0000
0000
1000
0000
0000
0000
0000
0000
0010
0000
0000
0000
0100
0000
0000
0000
0000
0000
0001
1000
0001
0000
0000
0000
0000
0000
0000
0000
,  // measure 29
1000
0000
0100
0000
0010
0000
0001
0000
0010
0000
0100
0000
1000
0000
0010
0000
0100
0000
0001
0000
0000
0100
0000
0000
,  // measure 30
0220
0000
0000
0000
0000
0000
0000
0000
0330
0000
0000
0000
0000
0000
1000
0001
1000
0000
0000
0000
0000
0000
0000
0000
0010
0000
0000
0000
0000
0000
1000
0100
,  // measure 31
1000
0000
0100
0010
0000
0010
0001
1000
,  // measure 32
0001
0000
0000
0000
0000
0000
0100
0000
0000
0010
0000
0000
0000
0000
0000
0010
0000
0000
1000
0000
0100
0000
0010
0000
,  // measure 33
0001
0000
1000
0001
0000
0001
0010
0100
,  // measure 34
1000
0000
0001
0100
0000
0100
0010
0000
,  // measure 35
1000
0000
0010
0000
1000
0000
0001
0000
0100
0000
0001
0000
,  // measure 36
1000
0000
0100
0000
1000
0000
0001
0000
0000
0010
0000
0000
,  // measure 37
1001
0000
0000
0000
0100
0000
0001
0000
0000
0000
0001
0000
0010
0000
0001
1000
,  // measure 38
0002
0000
2003
0000
,  // measure 39
3001
0000
1000
0000
0001
0000
0100
0000
0010
0000
1000
0100
0000
0100
0010
0001
,  // measure 40
0010
0010
0001
0001
1000
1000
0100
0100
,  // measure 41
0001
0000
0001
0000
1000
0000
1000
0000
0010
0000
0001
0000
1000
0010
0100
0010
,  // measure 42
1000
0000
0001
0100
0000
0100
0010
0000
,  // measure 43
1000
0000
0000
0000
0001
0000
0010
0000
0000
0000
0010
0000
0100
0000
1000
0001
,  // measure 44
1000
1000
0010
0010
0001
0001
1000
1000
,  // measure 45
0001
0000
0001
0000
0010
0000
0010
0000
1000
0000
0001
0000
0100
0010
1000
0010
,  // measure 46
0100
0000
0000
0001
0000
0000
0010
0000
0000
0100
0000
0000
1000
0000
0000
0000
,  // measure 47
0001
1000
0000
0010
0000
0100
0010
0000
0000
1000
0001
1000
0001
0000
1000
0100
,  // measure 48
1000
1000
0001
0001
0010
0010
0100
0100
,  // measure 49
0001
0000
0001
0000
0100
0000
0100
0000
1000
0000
0010
0000
0100
0001
0010
0001
,  // measure 50
0100
0000
0000
0010
0000
0000
1000
0000
0100
0000
0000
0010
0000
0000
0001
0000
,  // measure 51
0100
0000
0000
0010
0000
0000
1000
0000
0001
0000
0000
0000
1000
0000
0010
1000
,  // measure 52
0010
0010
0100
0100
1000
1000
0100
0100
,  // measure 53
0001
0000
0001
0000
0010
0000
0010
0000
0100
1000
0100
1000
0100
0010
0100
0010
,  // measure 54
0002
0000
0000
0000
0003
0000
1000
0100
1000
0100
0010
0001
0010
0000
0000
0000
,  // measure 55
0100
1000
0000
0001
0000
0010
0000
0100
0000
0010
0000
0001
1000
0000
0010
0000
,  // measure 56
0110
0100
0101
0001
,  // measure 57
1001
1000
1010
0010
,  // measure 58
0110
0101
0011
1010
,  // measure 59
1100
0101
0011
1001
,  // measure 60
1000
0000
1100
0000
1100
0000
0001
0000
0101
0000
0101
0000
,  // measure 61
1000
0000
1010
0000
1010
0000
0001
0000
0011
0000
0011
0000
,  // measure 62
2002
0000
0000
0000
3003
0000
0010
0100
0010
0100
0010
0100
0010
0000
0000
0000
,  // measure 63
0220
0000
0000
0000
0330
0000
1000
0001
1000
0001
1000
0001
1000
0000
0000
0000
,  // measure 64
1100
0000
1000
1001
0000
0001
0101
0000
,  // measure 65
0100
0110
0000
0010
1010
1000
0002
0003
,  // measure 66
1100
0000
1000
1001
0000
0001
0101
0101
;

//---------------dance-single - ----------------
#NOTES:
     dance-single:
     :
     Hard:
     8:
     0.529,0.514,0.266,0.073,0.248:
0000
0000
0000
0000
,
0000
0000
0000
0000
,
0000
0000
0000
0000
,
0000
0000
0000
0000
,
0000
0000
0000
0000
0000
0000
0000
1000
,
0010
0010
0010
0010
0100
0100
0100
0100
,
0001
0001
0001
0001
1000
0010
0100
0001
,
0010
0000
0001
1000
0000
1000
0010
0000
,
0100
0000
0001
0010
0000
0010
0100
1000
,
0001
0001
0001
0001
0100
0100
0100
0100
,
0010
0010
0010
0010
1000
0001
0100
0001
,
0010
0000
0000
0010
0000
0000
0100
0000
0000
0100
0000
0000
1000
0000
0000
0000
,
0001
1000
0000
0010
0000
0100
0010
0000
0000
0000
1000
0000
0001
0000
0010
0000
,
0100
0100
0100
0100
1000
1000
1000
1000
,
0010
0010
0010
0010
0100
0001
0010
0001
,
1000
0000
0000
0010
0000
0000
0100
0000
0001
0000
0000
0010
0000
0000
0100
0000
,
1000
0000
0000
0001
0000
0000
0100
0000
0010
0000
0000
0000
1000
0000
0100
0000
,
0010
0010
0010
0010
0001
0001
0001
0001
,
1000
1000
1000
1000
0001
0010
0100
1000
,
0020
0000
0000
0000
1030
0100
0010
0000
,
0001
0100
0000
0010
0000
0100
0001
0000
0000
0000
1000
0000
0010
0000
0000
0000
,
1000
0000
0000
1100
0000
0000
1001
0000
0000
0000
1000
0000
0001
0000
0010
0000
,
0001
0000
0000
0101
0000
0000
1001
0000
0000
0000
0001
0000
1000
0000
0100
0000
,
0010
0011
1001
1100
,
0001
0000
0000
0000
0001
0000
0100
0000
0000
0000
0100
0000
0010
0000
0000
0000
0010
0000
1000
0000
0000
1001
0000
0000
,
0000
0100
0100
0001
0100
0010
1000
0000
,
1001
0000
0000
0000
0000
0000
0001
1000
0100
0000
0000
0000
0000
0000
0010
0000
,
0001
0000
0000
0100
0000
0000
0010
0000
1000
0000
0000
0001
0001
0000
0000
0000
,
1000
0000
0010
0000
1000
0000
0001
0000
0100
0000
0001
0000
1000
0000
0010
0000
1000
0000
0001
0000
0000
0100
0000
0000
,
0010
0000
0000
0000
0000
0000
0000
1000
0100
0000
0000
0000
0010
0000
0001
0000
,
0100
0000
0001
1000
0000
1000
0010
0000
,
0100
0000
0001
1000
0000
0100
1000
0000
,
0001
0000
1000
0100
0000
0100
0010
0000
,
0001
0000
1000
0010
0000
0100
0001
0000
,
1000
0000
0100
0000
0001
0000
0100
0000
1000
0000
0010
0000
,
0001
0000
0010
0000
1000
0000
0001
0000
0000
0100
0000
0000
,
0110
0000
0010
1000
,
2001
0000
0010
0000
,
3100
0000
1000
0000
0001
0100
0010
0100
,
0001
0001
0001
0001
0100
0100
0100
0100
,
0010
0010
0010
0010
1000
0100
0010
0001
,
0100
0000
0010
1000
0000
1000
0001
0000
,
0100
0000
0010
1000
0000
1000
0100
0010
,
0100
0100
0100
0100
1000
1000
1000
1000
,
0010
0010
0010
0010
0100
0001
1000
0010
,
1000
0000
0000
1000
0000
0000
0001
0000
0000
0001
0000
0000
0100
0000
0000
0000
,
0010
1000
0000
0010
0000
0100
0001
0000
0000
0000
1000
0000
0001
0000
0100
0000
,
0010
0010
0010
0010
1000
1000
1000
1000
,
0001
0001
0001
0001
0010
0100
1000
0010
,
0100
0000
0000
0001
0000
0000
1000
0000
0010
0000
0000
1000
0000
0000
0001
0000
,
0100
0000
0000
0010
0000
0000
1000
0000
0001
0000
0000
0000
1000
0000
0010
0000
,
0100
0100
0100
0100
0001
0001
0001
0001
,
0010
0010
0010
0010
0100
1000
0010
0100
,
0002
0000
0000
1003
0100
0010
0001
0000
,
1000
0001
0000
1000
0000
0001
0000
0100
0000
0010
0000
0100
0001
0000
1000
0000
,
0001
0100
0010
1000
,
0100
0010
0001
0100
,
0011
1001
1100
0110
,
1010
1001
0101
0110
,
0001
0000
0100
0000
0001
0000
1000
0000
0010
0000
1000
0000
,
0001
0000
0010
0000
0001
0000
1000
0000
0100
0000
1000
0000
,
0220
0000
0000
0330
,
2002
0000
0000
3003
,
1100
0000
0000
0101
0000
0000
0011
0000
,
0000
1010
0000
0000
1100
1000
0002
0003
,
0101
0000
0000
0110
0000
0000
1010
1000
;

//---------------dance-single - ----------------
#NOTES:
     dance-single:
     :
     Medium:
     6:
     0.369,0.424,0.147,0.073,0.161:
0000
0000
0000
0000
,
0000
0000
0000
0000
,
0000
0000
0000
0000
,
0000
0000
0000
0000
,
0000
0000
0000
0000
,
0001
0001
1000
1000
,
0010
0000
0010
0000
0100
0000
0010
1000
,
0010
0000
0000
0100
0000
0000
0001
0000
,
0010
0000
0000
0100
0000
0000
1000
0000
,
0001
0001
1000
1000
,
0100
0000
0100
0000
0010
0000
0001
1000
,
0010
0000
0000
0010
0000
0000
0100
0000
0000
0100
0000
0000
0010
0000
0000
0000
,
1000
0000
0000
0001
0000
0100
0001
0000
0000
0000
0010
0000
0100
0000
0000
0000
,
1000
1000
0010
0010
,
0100
0000
0100
0000
0001
0000
0010
0100
,
1000
0000
0000
1000
0000
0000
1000
0000
0010
0000
0000
0010
0000
0000
0010
0000
,
0100
0000
0000
0100
0000
0000
0100
0000
0001
0000
0000
0000
0010
0000
0000
0000
,
0100
0100
1000
1000
,
0010
0000
0010
0000
1000
0010
0100
0001
,
0020
0000
0000
0031
,
1000
0000
0000
0001
0000
0100
0001
0000
0000
0000
0010
0000
0100
0000
0000
0000
,
1000
0000
0000
0010
0000
0000
1000
0000
0000
0000
0000
0000
0000
0000
0000
0000
,
0001
0000
0000
0010
0000
0000
0001
0000
0000
0000
0000
0000
0000
0000
0000
0000
,
1000
1100
0001
0101
,
1000
0000
0000
0000
1000
0000
0001
0000
0000
0000
0001
0000
0100
0000
0000
0000
0100
0000
0010
0000
0000
0010
0000
0000
,
0000
1000
0100
0000
1000
0000
0001
0000
,
0110
0000
0000
0010
1000
0000
0000
0001
,
0100
0000
0000
0010
0000
0000
1000
0000
0100
0000
0000
0000
0010
0000
0000
0000
,
0001
1000
0010
0100
,
0110
0000
0010
0000
,
1000
0000
0000
0001
0000
0001
0100
0000
,
0010
0000
0000
1000
0000
1000
0010
0000
,
0100
0000
0000
0010
0000
0010
1000
0000
,
0001
0000
0000
0100
0000
0100
0010
0000
,
1000
0100
0001
0100
,
1000
0010
0001
0010
,
1010
0000
0000
1000
0000
0001
0100
0000
,
0020
0000
1000
0000
,
0130
0000
0001
0000
1000
0010
1000
0000
,
0001
0001
0100
0100
,
0010
0000
0010
0000
1000
0000
0010
0100
,
0010
0000
0000
1000
0000
0000
0100
0000
,
0010
0000
0000
0001
0000
0000
0100
0000
,
0010
0010
1000
1000
,
0100
0000
0100
0000
0010
0000
0001
1000
,
0001
0000
0000
0001
0000
0000
0100
0000
0000
0100
0000
0000
0010
0000
0000
0000
,
1000
0000
0000
0001
0000
0100
0010
0000
0000
0000
1000
0000
0100
0000
0000
0000
,
1000
1000
0010
0010
,
0100
0000
0100
0000
0001
0000
0010
0100
,
0010
0000
0000
0010
0000
0000
0010
0000
0001
0000
0000
0001
0000
0000
0001
0000
,
1000
0000
0000
1000
0000
0000
1000
0000
0100
0000
0000
0000
0010
0000
0000
0000
,
0001
0001
0010
0010
,
0100
0000
0100
0000
1000
0100
0010
0100
,
2000
0000
0000
3001
,
1000
0000
0000
0001
0000
0100
0000
0010
0000
0100
0000
0001
1000
0000
0001
0000
,
1000
0000
1001
0000
,
0110
0000
1001
0000
,
0001
0100
0110
1010
,
1000
0100
0110
0011
,
1000
0000
1000
0000
1000
0000
0010
0000
0010
0000
0010
0000
,
0100
0000
0100
0000
0100
0000
0001
0000
0001
0000
0001
0000
,
2002
0000
0000
3003
,
0220
0000
0000
0330
,
1000
0000
0000
0001
0000
0000
0100
0000
,
0000
0010
0000
0000
1000
0001
2000
3000
,
0011
0000
0000
0110
0000
0000
1000
1000
;

//---------------dance-single - ----------------
#NOTES:
     dance-single:
     :
     Easy:
     3:
     0.243,0.303,0.110,0.055,0.014:
0000
0000
0000
0000
,
0000
0000
0000
0000
,
0000
0000
0000
0000
,
0000
0000
0000
0000
,
0000
0000
0000
0000
,
1000
0000
1000
0000
,
0001
0000
0001
0100
,
0010
0000
0000
0010
0000
0000
0010
0000
,
1000
0000
0000
1000
0000
0000
1000
0000
,
0001
0000
0001
0000
,
0100
0000
0100
0010
,
1000
0001
1000
0001
,
1001
0000
0000
0010
,
0100
0000
0100
0000
,
0010
0000
0010
1000
,
0001
0010
0100
1000
,
0010
0100
0001
1000
,
0010
0000
0010
0000
,
1000
0000
1000
0001
,
0200
0000
0000
0300
,
1001
0000
0000
1000
,
0001
0000
0000
1000
0000
0000
0001
0000
0000
0000
0000
0000
0000
0000
0000
0000
,
1000
0000
0000
0001
0000
0000
1000
0000
0000
0000
0000
0000
0000
0000
0000
0000
,
0001
0100
0010
1000
,
0100
0000
0010
0000
0001
0000
1000
0001
,
0000
0000
0000
0000
,
1001
0000
0010
0000
,
1000
0000
0000
0100
0000
0000
0010
0000
0001
0000
0000
0000
0100
0000
0000
0000
,
0010
0100
0010
0100
,
0001
0000
1000
0100
,
0010
0000
0000
0001
0000
0000
1000
0000
,
0001
0000
0000
0100
0000
0000
0010
0000
,
1000
0000
0000
0100
0000
0000
0010
0000
,
0001
0000
0000
0100
0000
0000
0010
0000
,
1000
0000
0010
0000
,
0100
0000
0001
1000
,
0001
0000
0000
0100
0000
0000
0010
0000
,
2000
0000
0000
0000
,
3001
0001
1000
0010
,
0100
0000
0100
0000
,
0010
0000
0010
1000
,
0001
0000
0000
0001
0000
0000
0001
0000
,
0100
0000
0000
0100
0000
0000
0100
0000
,
0010
0000
0010
0000
,
1000
0000
1000
0001
,
0100
0010
1000
0010
,
0110
0000
0000
0010
,
1000
0000
1000
0000
,
0001
0000
0001
0100
,
0010
1000
0100
0010
,
0001
0100
0010
1000
,
0100
0000
0100
0000
,
0010
0000
0010
0001
,
0200
0000
0000
0300
,
0001
0010
0100
1000
,
1001
0000
0110
0000
,
1001
0000
0110
0000
,
1100
0000
0011
0000
,
1010
0000
0101
0000
,
1000
0000
0010
0000
,
0100
0000
0001
0000
,
0020
0000
0000
0030
,
0200
0000
0000
0300
,
1000
0000
0000
1000
0000
0000
0001
0000
,
0000
0001
0000
0000
0100
0010
0200
0300
,
0010
0000
0000
1000
0000
0000
0001
0001
;

//---------------dance-single - ----------------
#NOTES:
     dance-single:
     :
     Beginner:
     1:
     0.129,0.242,0.037,0.028,0.000:
0000
0000
0000
0000
,
0000
0000
0000
0000
,
0000
0000
0000
0000
,
0000
0000
0000
0000
,
0000
0000
0000
0000
,
0001
0000
0000
0000
,
1000
0000
0010
0000
,
0100
0000
0000
0000
,
0010
0000
0000
0000
,
1000
0000
0000
0000
,
0001
0000
1000
0000
,
0010
0000
0000
0000
,
0100
0000
0000
0000
,
0001
0000
0000
0000
,
1000
0000
0001
0000
,
0100
0000
0000
0000
,
0010
0000
0000
0000
,
1000
0000
0000
0000
,
0100
0000
0010
0000
,
0001
0000
0000
0000
,
1000
0000
0000
0000
,
1001
0000
0000
0000
,
0110
0000
0000
0000
,
1000
1000
0001
0001
,
0100
0000
0010
0100
,
0000
0000
0000
0000
,
0001
0000
1000
0000
,
0010
0000
1000
0001
,
1000
1000
0010
0010
,
0100
0000
0001
1000
,
0001
0000
0000
0000
,
1000
0000
0000
0000
,
0010
0000
0000
0000
,
0100
0000
0000
0000
,
0001
0000
0001
0000
,
1000
0000
1000
0000
,
0001
0000
0000
0000
,
0020
0000
0000
0000
,
0030
0000
0000
0000
,
1000
0000
0000
0000
,
0001
0000
0100
0000
,
0010
0000
0000
0000
,
1000
0000
0000
0000
,
0100
0000
0000
0000
,
0010
0000
0001
0000
,
1000
0000
0000
0000
,
0001
0000
0000
0000
,
0100
0000
0000
0000
,
0010
0000
1000
0000
,
0001
0000
0000
0000
,
1000
0000
0000
0000
,
0010
0000
0000
0000
,
0100
0000
0001
0000
,
1000
0000
0000
0000
,
0010
0000
0000
0000
,
0110
0000
0100
0000
,
0010
0000
1000
0000
,
1001
0000
0001
0000
,
1000
0000
0010
0000
,
1000
0000
0000
0000
,
0001
0000
0000
0000
,
0200
0000
0000
0300
,
0020
0000
0000
0030
,
1000
0000
0000
1000
0000
0000
1000
0000
,
0000
1000
0000
0000
1000
0000
0000
0000
,
0001
0000
0000
0001
0000
0000
0001
0000
;
