#VERSION:0.81;
#TITLE:Spooky Jack (And His Living Dead Symphony);
#SUBTITLE:;
#ARTIST:Varien & Razihel;
#TITLETRANSLIT:;
#SUBTITLETRANSLIT:;
#ARTISTTRANSLIT:;
#GENRE:;
#ORIGIN:;
#CREDIT:;
#BANNER:;
#BACKGROUND:;
#PREVIEWVID:;
#JACKET:Spooky Jack-jk.png;
#CDIMAGE:;
#DISCIMAGE:;
#LYRICSPATH:;
#CDTITLE:;
#MUSIC:Spooky Jack (And His Living Dead Symphony).mp3;
#OFFSET:-0.669000;
#SAMPLESTART:71.073044;
#SAMPLELENGTH:11.044838;
#SELECTABLE:YES;
#DISPLAYBPM:*;
#BPMS:0.000=348.000,
8.000=87.000,
40.000=174.000,
71.000=348.000,
73.000=49.714,
75.000=174.000,
76.000=87.000,
77.000=130.500,
80.000=174.000,
89.500=400.000,
90.000=200.000,
90.250=100.000,
90.375=62.500,
90.500=174.000,
103.500=87.000,
104.500=400.000,
105.000=200.000,
105.250=100.000,
105.375=62.500,
105.500=174.000,
120.500=400.000,
121.000=200.000,
121.250=100.000,
121.375=62.500,
121.500=174.000,
136.500=400.000,
137.000=200.000,
137.250=100.000,
137.375=62.500,
137.500=174.000,
138.500=348.000,
141.750=160.000,
141.875=91.000,
142.000=348.000,
142.250=160.000,
142.375=91.000,
142.500=348.000,
142.750=160.000,
142.875=91.000,
143.000=348.000,
143.250=160.000,
143.375=91.000,
143.500=174.000,
152.500=400.000,
153.000=200.000,
153.250=100.000,
153.375=62.500,
153.500=174.000,
154.500=348.000,
157.750=160.000,
157.875=91.000,
158.000=348.000,
158.250=160.000,
158.375=91.000,
158.500=348.000,
158.750=160.000,
158.875=91.000,
159.000=348.000,
159.250=160.000,
159.375=91.000,
159.500=174.000,
168.500=304.500,
172.000=174.000,
186.000=400.000,
186.500=200.000,
186.750=100.000,
186.875=62.500,
187.000=174.000,
202.000=87.000;
#STOPS:81.000=0.172,
138.750=0.043,
139.000=0.043,
139.250=0.043,
139.500=0.043,
139.750=0.043,
140.000=0.043,
140.250=0.043,
140.500=0.043,
140.750=0.043,
141.000=0.043,
141.250=0.043,
141.500=0.043,
154.750=0.043,
155.000=0.043,
155.250=0.043,
155.500=0.043,
155.750=0.043,
156.000=0.043,
156.250=0.043,
156.500=0.043,
156.750=0.043,
157.000=0.043,
157.250=0.043,
157.500=0.043;
#DELAYS:;
#WARPS:;
#TIMESIGNATURES:0.000=4=4;
#TICKCOUNTS:0.000=4;
#COMBOS:0.000=1;
#SPEEDS:0.000=1.000=0.000=0;
#SCROLLS:0.000=1.000;
#FAKES:;
#LABELS:0.000=Song Start;
#BGCHANGES:;
#KEYSOUNDS:;
#ATTACKS:
;

//---------------dance-single - ----------------
#NOTEDATA:;
#CHARTNAME:;
#STEPSTYPE:dance-single;
#DESCRIPTION:;
#CHARTSTYLE:;
#DIFFICULTY:Hard;
#METER:9;
#RADARVALUES:0.522690,0.738573,0.502025,0.442463,0.136142,319.000000,59.000000,52.000000,0.000000,0.000000,4.000000,0.000000,0.000000,0.522690,0.738573,0.502025,0.442463,0.136142,319.000000,59.000000,52.000000,0.000000,0.000000,4.000000,0.000000,0.000000;
#CREDIT:;
#DISPLAYBPM:*;
#NOTES:
0000
0000
0000
0000
,
0000
0000
0000
0000
,
1001
0000
1100
0000
1000
0000
0101
0100
,
0001
0000
0000
0000
1001
0000
0000
0000
0010
0000
0000
0000
0110
0000
1000
1000
,
1000
0000
0000
0000
1010
0000
0000
0000
0100
0000
0000
0000
0101
0000
1000
0001
,
1000
0000
0000
0000
0110
0000
0000
0000
0001
0000
0000
1000
1100
0000
1001
0000
,
0100
0110
0001
0101
,
1000
0000
1100
0000
0001
0000
0011
0010
,
0001
0000
1001
0000
0100
0000
0110
0100
,
0001
0000
0000
0000
1001
0000
0000
0000
0100
0000
0000
0100
0101
0000
0010
0000
,
0220
0000
0000
0000
,
0000
0000
0000
0330
,
2002
0000
0000
0000
,
0000
0000
0000
3003
,
0100
0100
1000
1000
,
0001
0001
0010
0010
,
1000
0010
0100
0010
1000
0100
0010
0100
,
1000
0000
0010
0000
0100
0000
0001
0000
1000
0001
1000
0001
0400
0000
0000
0000
,
0000
0310
0000
0100
,
1001
0000
0100
0010
0001
0100
0010
1000
,
1001
0100
0110
1000
0100
0010
0000
1001
,
0000
0100
0100
0001
1000
0010
0000
0110
,
0000
0000
1000
0000
1000
0001
0020
0000
0000
0030
1001
0000
0001
2000
0010
0000
,
0010
0010
0010
0010
0010
0010
0010
0010
,
0010
0100
3100
1000
0100
0010
0000
1001
,
0000
0010
0010
0001
0100
0010
0000
2000
,
0002
3003
0020
0000
0000
0000
0130
0000
1000
0010
2000
0000
3020
0000
0032
0000
,
2003
3200
0302
2003
3200
0302
2003
3001
,
0001
0100
0010
1000
0000
0110
0000
1000
,
1000
0100
0010
0001
0000
0110
0000
1000
,
1000
0001
0200
0000
0000
0000
0310
0000
1000
0000
0001
0010
0001
0010
0001
0000
,
1000
0010
1000
0010
1000
0000
0100
0010
0100
0010
0100
0000
0010
1000
0010
0000
,
0010
2000
0000
0100
0000
0001
0000
0010
,
0000
0000
3001
0000
0100
0000
0001
0000
1000
0000
0100
0000
0010
0000
0001
1000
,
0001
1000
0004
0000
0000
0003
1100
0000
1000
0100
0020
0000
0000
0000
0000
0000
,
0000
0000
0000
0032
2003
3200
0320
0031
,
0001
0100
0001
0010
0000
1100
0000
1000
,
1000
0100
1000
0010
0000
0101
0000
0001
,
0001
0000
4000
0000
0000
0000
3001
0000
0100
0010
2000
0000
0000
0000
0000
0000
,
0000
0000
0000
3002
0203
0320
2030
3100
,
0100
1000
0001
0100
0000
1001
0000
0100
,
0100
0001
1000
0100
0000
1001
0000
0010
,
0010
2002
0000
0000
0000
0000
0000
3003
,
0200
0000
0000
0000
0000
0000
2300
3002
,
0203
0320
1030
1000
0001
0010
0100
0000
,
1100
0000
0001
0001
1000
0010
0100
0000
,
0101
0000
0000
0000
1000
0000
1000
0000
0200
0000
0000
0300
1001
0000
1000
0001
,
1000
0010
1010
1000
0100
0000
0011
0100
,
0000
0100
1010
1000
0110
0000
1100
0000
,
0101
0000
0010
1000
0100
0000
1001
0000
,
0110
0000
0000
0000
1000
0001
1000
0001
1000
0000
0000
0000
1100
0000
0000
0000
,
0002
0000
0003
0000
0101
0100
0020
0030
1000
0000
0000
0000
0110
0000
0000
0000
,
0001
0000
0000
0000
1100
0100
0020
0030
0001
0000
0000
0000
1001
0000
0000
0000
,
0200
0000
0300
0000
1010
1000
0200
0300
1000
0000
0000
0000
0101
0000
0000
0000
,
0000
0000
0000
0100
0110
0100
0000
0001
0101
0000
0000
0000
2002
0000
0000
0000
,
3003
0100
0001
1000
,
0100
0000
0000
0100
0110
0000
0020
0030
0001
0000
0000
0000
0012
0000
0000
0000
,
2003
0000
0000
3020
0230
0000
0300
0000
,
0000
0000
0000
0100
0204
0000
0000
0000
0000
0000
0000
0000
0000
0000
0000
0000
,
0000
0000
0003
0000
,
0000
0000
0000
0000
,
0000
0000
0000
0000
,
0300
0000
0000
0000
;

//---------------dance-single - ----------------
#NOTEDATA:;
#CHARTNAME:;
#STEPSTYPE:dance-single;
#DESCRIPTION:;
#CHARTSTYLE:;
#DIFFICULTY:Medium;
#METER:7;
#RADARVALUES:0.431523,0.446611,0.297812,0.467990,0.008509,265.000000,35.000000,55.000000,0.000000,0.000000,0.000000,0.000000,0.000000,0.431523,0.446611,0.297812,0.467990,0.008509,265.000000,35.000000,55.000000,0.000000,0.000000,0.000000,0.000000,0.000000;
#CREDIT:;
#DISPLAYBPM:*;
#NOTES:
0000
0000
0000
0000
,
0000
0000
0000
0000
,
1000
0000
1001
0000
0001
0000
0100
0001
,
0100
0000
0110
0000
1000
0000
0010
0100
,
0100
0000
0000
0000
1001
0000
0000
0000
0001
0000
0000
0000
0010
0000
0001
1000
,
0001
0000
0000
0000
0110
0000
0000
0000
1000
0000
0000
0100
0010
0000
0100
0000
,
1000
0011
1000
0101
,
0100
1001
0010
1001
,
0020
0000
2030
0000
3002
0000
0000
0203
,
0320
0000
0030
0000
,
2002
0000
0000
0000
,
0000
0000
0000
3003
,
0220
0000
0000
0000
,
0000
0000
0000
0330
,
1000
0001
1000
0001
,
0100
0010
0100
0010
,
1000
0100
1000
0000
0001
0100
0001
0000
,
1000
0010
1000
0000
0010
0100
0020
0000
,
0000
0130
0000
0100
,
0110
0000
0001
1000
0001
1000
0001
1000
,
0001
0100
0010
1000
0010
1000
0000
1010
,
0000
0100
1000
0001
0010
0001
0000
0011
,
0000
0100
0000
2000
0000
3100
1000
0001
,
0010
0001
0100
0001
0010
0001
0100
0001
,
0010
0100
1000
0001
1000
0001
0000
1001
,
0000
0100
0010
1000
0001
1000
0000
2000
,
3002
0203
0000
0310
0100
0010
1000
0100
,
0010
0001
0100
0010
1000
0100
0010
0001
,
1000
0001
0100
0001
0000
0101
0000
1000
,
0001
1000
0100
1000
0000
1100
0000
1000
,
0001
0200
0000
0310
0100
0001
0010
0001
,
1000
0010
1000
0001
0010
0001
1000
0001
,
1000
0020
0000
0000
0000
2030
0000
0000
,
0000
3200
0000
0000
0000
0000
0000
0302
,
0000
0203
0000
0310
0000
0002
0000
0000
,
0000
0000
0000
2003
3200
0320
0230
1300
,
0001
0100
0010
0100
0000
0110
0000
1000
,
0001
0010
0100
0010
0000
0110
0000
1000
,
0001
0200
0000
0310
0000
2000
0000
0000
,
0000
0000
0000
3002
0203
0320
0230
0301
,
0010
0001
0100
0001
0000
1001
0000
1000
,
0010
1000
0100
1000
0000
1001
0000
1000
,
0001
0200
0000
0000
0000
0000
0000
0000
,
0320
0000
0000
0000
0000
0000
2030
3002
,
0203
0302
1003
0100
0010
0100
0010
0000
,
1001
0000
1000
0010
0100
0010
0100
0000
,
1001
0000
0100
0001
0200
0000
0301
1000
,
0100
0010
0100
0000
1000
0000
1000
0100
,
0000
0100
0010
0000
0002
0000
0203
0000
,
0320
0000
1030
0100
2000
0000
3200
0000
,
0320
0000
0032
2003
3100
0000
0110
0000
,
0010
0011
0001
0101
,
0100
0110
0010
1010
,
1000
1001
0001
0101
,
1000
1100
0001
0220
,
0330
1001
0100
0011
,
0100
1010
0002
0203
,
0320
0000
0000
2030
3200
0000
0310
0000
,
0000
2002
0000
0000
,
0000
0003
0000
0000
,
0000
0000
0000
0000
,
0000
0000
0000
3000
;

//---------------dance-single - ----------------
#NOTEDATA:;
#CHARTNAME:;
#STEPSTYPE:dance-single;
#DESCRIPTION:;
#CHARTSTYLE:;
#DIFFICULTY:Easy;
#METER:4;
#RADARVALUES:0.303889,0.378114,0.221231,0.323338,0.000000,186.000000,26.000000,38.000000,0.000000,0.000000,0.000000,0.000000,0.000000,0.303889,0.378114,0.221231,0.323338,0.000000,186.000000,26.000000,38.000000,0.000000,0.000000,0.000000,0.000000,0.000000;
#CREDIT:;
#DISPLAYBPM:*;
#NOTES:
// measure 0
0000
0000
0000
0000
,  // measure 1
0000
0000
0000
0000
,  // measure 2
0000
1000
0100
0001
,  // measure 3
0100
0010
0100
0001
,  // measure 4
1000
0010
0001
0010
,  // measure 5
0100
0010
0100
1001
,  // measure 6
0100
0010
1000
0010
,  // measure 7
0001
1000
0001
0100
,  // measure 8
1001
0000
0110
0000
1001
0000
0000
0100
,  // measure 9
0010
0000
0000
0101
,  // measure 10
2000
0000
0000
0000
,  // measure 11
0000
0000
0000
0000
,  // measure 12
3002
0000
0000
0000
,  // measure 13
0000
0000
0000
0000
,  // measure 14
1003
0001
1000
0001
,  // measure 15
0100
0010
0100
0010
,  // measure 16
1000
0100
0010
0100
,  // measure 17
1000
0001
0100
0002
,  // measure 18
0000
1003
0000
0100
,  // measure 19
0010
0200
0000
0000
,  // measure 20
0300
0000
1001
0000
0000
0100
0000
0001
,  // measure 21
0000
0100
0000
0010
0000
0100
0000
0001
,  // measure 22
0000
1000
0000
2002
0000
3003
0000
1000
,  // measure 23
0000
0100
0000
0001
0000
1000
0000
0010
,  // measure 24
0000
0001
0000
1000
0000
0100
0000
1000
,  // measure 25
0000
0100
0000
0001
0000
0100
0000
0001
,  // measure 26
0000
0220
0000
0330
0000
1000
0000
1000
,  // measure 27
0000
0001
0000
0001
0000
0100
0000
0100
,  // measure 28
0000
1000
0000
0100
0000
0010
0000
1000
,  // measure 29
0000
0001
0000
0100
0000
0010
0000
0001
,  // measure 30
0000
2200
0000
3300
0000
0002
0000
0000
,  // measure 31
2003
0000
0000
3002
0000
0000
0003
0100
,  // measure 32
0000
0020
0000
0000
0000
2030
0000
0000
,  // measure 33
0000
3002
0000
0000
0000
0000
0000
0103
,  // measure 34
0000
2000
0000
3100
0000
0002
0000
0000
,  // measure 35
0000
0000
0000
2003
3000
0200
0300
0010
,  // measure 36
0000
1000
0000
0100
0000
1000
0000
0001
,  // measure 37
0000
0001
0000
0100
0000
0001
0000
0010
,  // measure 38
0000
0020
0000
0130
0000
2000
0000
0000
,  // measure 39
0000
0000
0000
3002
0003
0200
0300
0010
,  // measure 40
0000
1000
0000
0100
0000
1000
0000
0010
,  // measure 41
0000
0001
0000
0100
0000
0001
0000
0010
,  // measure 42
0000
2002
0000
0000
0000
0000
3003
0000
,  // measure 43
0200
0000
0000
0000
0000
0000
0320
0030
,  // measure 44
0200
0300
0001
0000
1000
0000
0010
0000
,  // measure 45
1000
0100
0001
0010
,  // measure 46
0001
0100
0020
0130
,  // measure 47
0001
0101
1000
1100
,  // measure 48
0010
0110
1000
0100
,  // measure 49
0010
0000
0001
1000
0001
0000
0100
0000
,  // measure 50
0010
0000
1000
0001
1000
0000
1100
0000
,  // measure 51
0001
0101
1000
1010
,  // measure 52
0001
0011
1000
1100
,  // measure 53
0100
0110
0001
0101
,  // measure 54
0100
0110
0010
2002
,  // measure 55
3003
0110
1000
1010
,  // measure 56
0001
0000
0101
0000
0020
0030
2000
3000
,  // measure 57
0002
0003
0000
2000
3020
0030
1001
0000
,  // measure 58
0000
0200
0000
0000
,  // measure 59
0000
0300
0000
0000
;
