#VERSION:0.82;
#TITLE:Poochie;
#SUBTITLE:;
#ARTIST:kors k;
#TITLETRANSLIT:;
#SUBTITLETRANSLIT:;
#ARTISTTRANSLIT:;
#GENRE:;
#ORIGIN:;
#CREDIT:;
#BANNER:Poochie.png;
#BACKGROUND:Poochie-bg.png;
#PREVIEWVID:;
#JACKET:Poochie-jacket.png;
#CDIMAGE:;
#DISCIMAGE:;
#LYRICSPATH:;
#CDTITLE:;
#MUSIC:[ROUND 1] - Poochie.ogg;
#OFFSET:-0.557097;
#SAMPLESTART:96.555351;
#SAMPLELENGTH:12.000000;
#SELECTABLE:YES;
#BPMS:0.000=110.000;
#STOPS:;
#DELAYS:;
#WARPS:;
#TIMESIGNATURES:0.000=4=4;
#TICKCOUNTS:0.000=4;
#COMBOS:0.000=1;
#SPEEDS:0.000=1.000=0.000=0;
#SCROLLS:0.000=1.000;
#FAKES:;
#LABELS:0.000=Song Start;
#BGCHANGES:;
#KEYSOUNDS:;
#ATTACKS:
;

//---------------dance-single - ----------------
#NOTEDATA:;
#CHARTNAME:;
#STEPSTYPE:dance-single;
#DESCRIPTION:;
#CHARTSTYLE:;
#DIFFICULTY:Hard;
#METER:10;
#RADARVALUES:0.903682,0.958501,0.175949,0.821094,1.000000,636.000000,21.000000,98.000000,0.000000,0.000000,0.000000,0.000000,0.000000,0.903682,0.958501,0.175949,0.821094,1.000000,636.000000,21.000000,98.000000,0.000000,0.000000,0.000000,0.000000,0.000000;
#CREDIT:;
#NOTES:
0000
0000
0000
0000
,
0000
0000
0000
0000
,
1000
0010
0000
0100
0000
0010
0000
0000
0100
0001
0000
1000
0000
0001
0000
0000
,
0010
0000
0000
0000
1000
0000
0010
0000
0000
0001
0000
0000
0100
0000
0001
0000
0010
0000
0001
0000
0000
1000
0000
0000
0020
0000
0000
0100
0000
0000
0130
0000
0000
0002
0000
0000
1000
0000
0000
1003
0000
0000
0200
0000
0000
0010
0000
0000
,
0310
0000
0001
0100
0000
0010
0000
1000
0002
0100
0103
0020
1000
1030
0200
0010
,
0310
0000
0100
1000
0000
0001
0000
0200
0301
0010
0100
1000
0010
0100
0001
1000
,
0100
0000
0010
0001
0000
1000
0000
0000
0010
0100
0001
1000
0000
0100
0000
0000
,
2000
0001
3001
0010
0200
1000
1300
0001
0020
0100
0130
1000
0002
0100
0103
0010
,
1000
0001
0100
0010
0100
0001
0020
0000
0130
1000
0001
0100
0010
1000
0200
0000
,
1300
0001
0100
0010
1000
0100
0020
0000
0031
1000
0100
1000
0001
0100
0020
0000
,
0130
0001
0100
0010
1000
0010
1000
0100
1000
0001
0010
0001
0100
0010
0100
0001
,
1000
0100
0010
0001
1000
0100
0010
0001
2000
3010
0200
0310
2000
3001
0020
0030
,
0100
0000
0000
2000
0000
0000
0000
0000
0000
3001
0000
0000
0200
0000
0000
0000
0000
0000
0320
0000
0000
0000
0000
0000
0130
0000
0000
0000
0001
0000
0100
0000
0000
0010
0000
0000
1000
0000
0100
0000
1000
0000
0000
0000
0001
0000
0000
0000
,
0100
0020
0000
1030
0002
0000
0203
0000
0320
1030
0002
0103
0020
0000
0000
0000
,
1030
0000
0002
0000
0103
0010
1000
0100
0020
0000
0000
0000
0000
0000
0000
0000
0031
0000
2000
0000
3010
0100
0001
0010
0200
0000
0000
0000
0000
0000
0000
0000
,
2300
3001
0020
0031
0200
0310
0002
1003
,
0100
0000
0000
0020
0000
0000
0000
0000
0000
1030
0000
0000
0020
0000
0000
0000
0000
0000
0230
0000
0000
0000
0000
0000
0301
0000
0010
0000
0001
0000
0100
0000
0020
0000
0000
0000
0000
0000
0000
0000
0000
0000
0000
0000
0000
0000
0000
0000
,
0031
0000
0000
2000
0000
0000
0000
0000
0000
3100
0000
0000
2000
0000
0000
0000
0000
0000
3200
0000
0000
0000
0000
0000
0310
0000
1000
0000
0010
0000
0100
0000
0001
0000
0100
0000
0010
0000
2000
0000
0000
0000
0000
0000
0000
0000
0000
0000
,
3010
0000
0200
0000
1300
0100
0001
0100
0020
0000
0000
0000
0000
0000
0000
0000
0130
0000
0001
0000
1000
0000
0100
0000
0020
0000
0000
0000
0000
0000
0000
0000
,
0031
0200
0000
0000
0320
0000
0000
0000
2030
0000
3200
0000
0302
0000
0000
0003
,
0100
0000
0000
0020
0000
0000
0000
0000
0000
0031
0000
0000
0200
0000
0000
0000
0000
0000
0320
0000
0000
0000
0000
0000
0130
0000
0000
0000
0001
0000
0100
0000
0000
0010
0000
0000
0100
0000
0001
0000
1000
0000
0010
0000
0000
0000
0100
0000
,
0010
2000
0000
3001
0200
0000
0320
0000
2030
3001
2000
3010
2000
0000
0000
0000
,
3100
0000
0020
0000
0031
0100
0010
1000
0002
0000
0000
0000
0000
0000
0000
0000
1003
0000
0200
0000
1300
0010
0100
0001
0020
0000
0000
0000
0000
0000
0000
0000
,
0230
2300
3200
0320
0032
0203
0302
0203
,
0310
0000
0000
2000
0000
0000
0000
0000
0000
3001
0000
0000
0200
0000
0000
0000
0000
0000
0302
0000
0000
0000
0000
0000
0013
0000
0001
0000
1000
0000
0020
0000
0000
0000
0000
0000
0000
0000
0000
0000
0000
0000
0000
0000
0000
0000
0000
0000
,
0130
0000
0000
0002
0000
0000
0000
0000
0000
0103
0000
0000
0020
0000
0000
0000
0000
0000
2030
0000
0000
0000
0000
0000
3010
0000
0100
0000
0001
0000
0010
0000
0100
0000
1000
0000
0002
0000
0000
0000
0000
0000
0000
0000
0000
0000
0000
0000
,
1003
0000
0200
0000
0000
0000
0310
0000
0200
0000
0000
0000
0300
0000
0000
0000
1000
0000
0002
0000
0103
0010
1000
0001
0020
0000
0000
0000
0000
0000
0000
0000
,
0031
0200
0000
0000
0302
0000
0000
0000
0023
0000
2030
0000
3002
0000
0203
0300
,
1000
0000
0000
0001
0100
0000
0110
0000
0000
0000
1000
0000
0101
0000
0010
0000
,
1100
0000
0000
1000
0001
0000
0101
0000
0000
0000
0100
0000
1010
0000
0000
0000
,
0110
0000
0000
0010
1000
0000
1100
0000
0000
0000
0100
0000
0011
0000
0100
0000
,
1010
0000
0000
0010
0100
0000
0101
0000
0000
0000
0001
0000
0110
0000
0000
0000
,
0100
1000
0100
0010
0100
1000
0100
0000
0001
0010
0100
1000
0001
0010
0100
0000
,
0010
0100
0010
1000
0010
0100
0010
0000
0001
0100
0010
1000
0001
0100
0010
0000
,
0100
0001
1000
0010
0100
0001
1000
0010
0100
0010
1000
0001
0100
0010
1000
0001
,
0010
1000
0001
0100
0010
1000
0001
0100
2000
0000
0000
0000
0010
0000
0000
0000
,
3001
0000
0000
0100
0001
0100
0010
1000
0100
0010
0001
0000
0101
0000
0100
0000
,
0110
0000
0010
0000
1000
0100
0001
0100
1000
0010
0100
1000
0100
0001
0010
0100
,
1000
0000
0000
0001
0100
0001
1000
0010
0100
0010
1000
0000
1001
0000
0001
0000
,
0011
0000
0010
0000
0100
1000
0001
0100
1000
0100
0001
0010
0100
0001
0100
1000
,
0010
0000
0100
0001
0100
0000
0010
0000
1000
0100
1000
0000
0002
0000
0000
0000
1003
0000
0010
0100
0010
0000
1000
0000
0001
0100
0001
0000
0020
0000
0000
0000
,
0130
0000
1000
0001
1000
0000
0100
0000
0010
1000
0010
0000
0200
0000
0000
0000
0301
0000
1000
0100
1000
0000
0001
0000
1000
0100
1000
0000
0020
0000
0000
0000
,
0130
0000
0001
0010
0001
0000
0100
0000
0001
1000
0001
0000
0010
0000
0100
1000
0100
0000
0010
0000
0001
1000
0001
0000
0100
0000
0010
1000
0010
0000
0100
0000
,
0001
0010
0001
0100
0001
1000
0001
0100
0001
0010
0001
1000
0100
0010
0001
0100
0010
0000
1000
0000
0001
0000
0100
0000
0010
0000
1000
0000
0001
0000
0000
0000
,
1001
0000
0001
0100
1000
0100
0001
0010
0100
0010
0001
1000
0100
0010
0100
1000
,
0001
0000
0000
0100
0000
0000
0010
0000
0000
0100
0000
0000
0001
0000
0000
0100
0000
0000
1000
0000
0000
0100
0000
0000
0001
0000
0000
0010
0000
0000
0100
0000
0000
0000
1000
0000
0001
0000
0100
0000
0001
0000
0000
0000
0000
0001
0000
0000
,
0010
0000
0100
1000
0001
1000
0100
0010
0001
1000
0001
0010
0100
0010
0001
1000
,
0010
0000
0100
0000
0010
1000
0001
0010
0100
0000
0000
0000
1000
0000
0000
0000
0001
0000
0020
0000
0130
0000
0020
0000
1030
0000
0001
0000
0100
0000
1000
0000
,
0010
0001
0100
0001
0010
1000
0100
0010
0001
0100
0001
1000
0001
0100
0001
1000
,
0010
1000
0100
1000
0001
1000
0010
0100
0001
0100
0010
1000
0010
0001
0010
0100
,
0101
0000
0001
0000
0101
0000
0100
0001
1010
0000
1000
0000
1010
0000
0010
0000
,
0100
0001
0100
0010
1000
0010
0100
0001
0010
0100
1000
0001
0100
0010
1000
0100
,
0011
0000
0000
0000
;

//---------------dance-single - ----------------
#NOTEDATA:;
#CHARTNAME:;
#STEPSTYPE:dance-single;
#DESCRIPTION:;
#CHARTSTYLE:;
#DIFFICULTY:Medium;
#METER:7;
#RADARVALUES:0.509892,0.609955,0.125678,0.284869,0.251355,377.000000,15.000000,34.000000,0.000000,0.000000,0.000000,0.000000,0.000000,0.509892,0.609955,0.125678,0.284869,0.251355,377.000000,15.000000,34.000000,0.000000,0.000000,0.000000,0.000000,0.000000;
#CREDIT:;
#NOTES:
0000
0000
0000
0000
,
0000
0000
0000
0000
,
2000
0000
3000
0000
0000
0001
0000
0000
0020
0000
0030
0000
0000
0100
0000
0000
,
1000
0001
1000
0010
0100
0000
0000
0000
0100
0000
0001
0010
0000
0001
1000
0000
,
0001
0000
0100
0000
0001
0000
0010
0000
0100
0000
1000
0010
0000
0100
0010
0000
,
0100
0000
0001
0000
0010
0000
0100
0000
1000
0000
0001
0100
0000
0010
0100
0000
,
0010
0000
1000
0000
0100
0000
0010
0000
0001
0000
0100
0010
0000
0100
0001
0000
,
1000
0000
0000
0001
1000
0000
0010
0000
0100
0000
0000
0010
1000
0000
0001
0000
,
0100
0010
0100
0010
1000
0001
1000
0001
,
0010
0100
0010
0100
1000
0010
1000
0010
,
0100
0001
0010
0100
1000
0010
0100
0001
,
0010
0100
1000
0010
0200
0000
0000
0300
,
0110
0000
0000
0100
0001
0000
1000
0000
0100
0000
0110
0000
0020
0000
0030
0000
,
0011
0000
0000
0001
1000
0000
0010
0000
0100
0000
0101
0000
0002
0000
0000
0000
,
1003
0000
0001
0100
0020
0000
0030
0000
0100
0000
0001
1000
0020
0000
0030
0000
,
0100
0001
0100
1000
0100
0010
1000
0001
,
0101
0000
0000
0001
1000
0000
0100
0000
0020
0000
0000
0000
0030
0000
0000
0000
,
0011
0000
0000
0001
0100
0000
0010
0000
0200
0000
0302
0000
2003
0000
3010
0000
,
0100
0000
0001
0010
0200
0000
0300
0000
1000
0010
0100
0001
0020
0000
0030
0000
,
0200
0000
0000
0000
2300
0000
0000
0000
3002
0000
0023
0000
0230
0000
0000
0300
,
1100
0000
0000
1000
0001
0000
0100
0000
0010
0000
1000
0000
0020
0000
0030
0000
,
1010
0000
0000
0010
0100
0000
0001
0000
0100
0000
0110
0000
0020
0000
0030
0000
,
1000
0000
0001
0100
0020
0000
0030
0000
1000
0000
0100
0010
0002
0000
0003
0000
,
0100
0010
0100
0001
1000
0100
0010
0001
,
0101
0000
0000
0100
0010
0000
1000
0000
0002
0000
0003
0000
0000
0000
0000
0000
,
0101
0000
0000
0001
0010
0000
0200
0000
2300
0000
0000
0000
0000
0000
0000
0000
,
3001
0010
0000
0001
0100
0000
0010
0000
1000
0001
0000
0100
0001
0000
0010
0000
,
0200
0000
2300
0000
3002
0203
0320
0030
,
0100
0000
0001
0011
0000
0010
0100
1000
,
0001
0000
0100
0101
0000
0001
1000
0100
,
0010
0000
0100
1100
0000
1000
0010
0100
,
0001
0000
1000
1100
0000
0100
0010
0001
,
1000
0010
1000
0010
0100
0001
0100
0001
,
0010
0100
0010
0100
1000
0001
1000
0001
,
0100
0001
0010
0100
1000
0010
0100
0001
,
0020
0000
0000
0000
,
0130
0000
0000
1000
0100
0000
0010
0000
0001
0000
0100
0000
0001
0000
0010
0000
,
0100
0000
0000
0010
0100
0000
1000
0000
0001
0000
0100
0000
0010
0000
0100
0000
,
0001
0000
0000
1000
0001
0000
0100
0000
0010
0000
0100
0000
0001
0000
1000
0000
,
0010
0100
0010
0100
0001
1000
0001
1000
,
0010
0100
0010
1000
0010
0100
0001
0000
0010
0100
0010
0001
0100
0010
1000
0000
,
0100
1000
0001
0100
0010
1000
0100
0000
0010
0001
0100
0010
1000
0001
0010
0000
,
0100
1000
0001
1000
0100
1000
0010
1000
0100
1000
0001
1000
0010
1000
0001
1000
,
0100
0010
0100
0010
0001
1000
0001
1000
0002
0000
0000
0000
0000
0000
0000
0000
,
1003
0001
0100
0001
0010
0001
1000
0100
,
0010
0001
0010
0100
0010
1000
0010
0001
,
1000
0100
0010
0100
0001
0100
1000
0100
,
1000
0001
1000
0010
2000
0000
0000
0000
,
3100
0010
0001
0010
1000
0010
0100
0010
,
0001
0100
0001
1000
0001
0010
0001
0100
,
0001
0100
0001
0100
,
0010
1000
0020
0000
,
0130
0000
0000
0000
;

//---------------dance-single - ----------------
#NOTEDATA:;
#CHARTNAME:;
#STEPSTYPE:dance-single;
#DESCRIPTION:;
#CHARTSTYLE:;
#DIFFICULTY:Easy;
#METER:4;
#RADARVALUES:0.325565,0.348546,0.142435,0.201084,0.000000,231.000000,17.000000,24.000000,0.000000,0.000000,0.000000,0.000000,0.000000,0.325565,0.348546,0.142435,0.201084,0.000000,231.000000,17.000000,24.000000,0.000000,0.000000,0.000000,0.000000,0.000000;
#CREDIT:;
#NOTES:
// measure 0
0000
0000
0000
0000
,  // measure 1
0000
0000
0000
0000
,  // measure 2
0100
0000
0010
0000
,  // measure 3
1000
0001
0100
0010
,  // measure 4
0110
0100
0002
2003
,  // measure 5
3010
0100
0020
2030
,  // measure 6
3001
0100
0002
0023
,  // measure 7
0130
1100
0110
0011
,  // measure 8
1001
0001
0101
0001
,  // measure 9
0011
0010
0110
0010
,  // measure 10
1010
1000
1001
1000
,  // measure 11
1010
0010
0200
0000
,  // measure 12
1300
0000
0001
0100
0010
1000
0010
0100
,  // measure 13
0001
0000
0010
0100
0010
0001
2000
0000
,  // measure 14
3001
0100
0002
0000
1003
0010
2000
0000
,  // measure 15
3001
0000
0100
0001
0100
0010
0100
0001
,  // measure 16
0010
0000
0100
1000
0200
0000
0300
0000
,  // measure 17
1000
0000
0001
0100
0001
0010
0100
1000
,  // measure 18
0001
0100
0020
0000
1030
0100
0020
0000
,  // measure 19
0032
0000
2003
0000
,  // measure 20
3001
0000
1000
0001
0100
0010
0100
0001
,  // measure 21
0100
0000
0010
1000
0010
0100
0010
1000
,  // measure 22
0001
0010
0200
0000
1300
0010
0200
0000
,  // measure 23
0301
1000
0001
0100
0001
0010
0100
1000
,  // measure 24
0010
0000
0100
0001
0200
0300
0000
0000
,  // measure 25
0001
0000
1000
0010
0200
0000
0000
0000
,  // measure 26
0301
1001
0100
0110
,  // measure 27
0020
0000
0000
0000
,  // measure 28
0130
0001
0100
0001
,  // measure 29
0010
0100
0010
0100
,  // measure 30
1000
0010
1000
0010
,  // measure 31
0100
0001
0100
0001
,  // measure 32
0010
0100
0010
0001
0010
0100
1000
0100
,  // measure 33
0010
0001
0100
0001
0010
0100
0010
0100
,  // measure 34
0010
0001
0100
0001
0010
0100
1000
0010
,  // measure 35
1000
0001
1000
0001
2000
0000
0000
0000
,  // measure 36
3001
0100
0101
0001
,  // measure 37
1000
0100
1100
0100
,  // measure 38
0010
0001
0011
0010
,  // measure 39
0100
0010
0110
0100
,  // measure 40
1000
0010
1000
0010
,  // measure 41
0100
0010
0100
0010
,  // measure 42
0001
0010
0001
0010
,  // measure 43
1000
0010
0200
0000
,  // measure 44
0310
1000
0010
0001
,  // measure 45
0010
0100
0010
0001
,  // measure 46
1000
0100
0010
0100
,  // measure 47
0001
0100
0010
0200
,  // measure 48
1300
0100
0001
1000
,  // measure 49
0010
0001
0100
1000
,  // measure 50
0001
0010
0100
1000
,  // measure 51
0001
0010
2000
0000
,  // measure 52
3001
0000
0000
0000
;
