#TITLE:New York Fantasy;
#SUBTITLE:;
#ARTIST:Macho Robot;
#TITLETRANSLIT:;
#SUBTITLETRANSLIT:;
#ARTISTTRANSLIT:;
#GENRE:;
#CREDIT:;
#BANNER:New York Fantasy - Macho Robotbn.png;
#BACKGROUND:New York Fantasy - Macho Robotbg.png;
#LYRICSPATH:New York Fantasy - Macho Robot.lrc;
#CDTITLE:encorerebirth.png;
#MUSIC:New York Fantasy - Macho Robot.ogg;
#OFFSET:0.000;
#SAMPLESTART:61.885;
#SAMPLELENGTH:14.940;
#SELECTABLE:YES;
#BPMS:0.000=128.000
;
#STOPS:
;
#BGCHANGES:;
#KEYSOUNDS:;
#ATTACKS:;

//---------------dance-single - Spork!----------------
#NOTES:
     dance-single:
     :
     Beginner:
     1:
     0.098,0.128,0.009,0.126,0.000,61.000,1.000,14.000,0.000,0.000,0.000,0.098,0.128,0.009,0.126,0.000,61.000,1.000,14.000,0.000,0.000,0.000:
0000
0000
0000
0000
,
0000
0000
0000
0000
,
0000
0000
0000
0000
,
0000
0000
0000
0000
,
0001
0000
0000
0000
,
0100
0000
0000
0000
,
0001
0000
0000
0000
,
0001
0001
0001
0000
,
1000
0000
0000
0000
,
0010
0000
0000
0000
,
1000
0000
0000
0000
,
1000
1000
1000
0000
,
0002
0000
0000
0003
,
0000
0000
0000
0000
,
2000
0000
0000
3000
,
0000
0000
0000
0000
,
0020
0000
0000
0030
,
0100
0000
0000
0000
,
0200
0000
0000
0300
,
0010
0000
0000
0000
,
1000
0000
0000
0000
,
0100
0000
0000
0000
,
0010
0000
0000
0000
,
0001
0000
0000
0000
,
0001
0000
0000
0000
,
0100
0000
0000
0000
,
0010
0000
0000
0000
,
2002
0000
0000
0000
,
0000
0000
0000
0000
,
0000
0000
0000
0000
,
0000
0000
0000
0000
,
3003
0000
0000
0000
,
0000
0000
0000
0000
,
0001
0000
1000
0000
,
0100
0000
0000
0000
,
0100
0000
1000
0000
,
0001
0000
0000
0000
,
1000
0000
0001
0000
,
0100
0000
0000
0000
,
0100
0000
0001
0000
,
1000
0000
0000
0000
,
0001
0000
0001
0000
,
0010
0000
0010
0000
,
0001
0000
0001
0000
,
1000
0000
0001
0000
,
1000
0000
1000
0000
,
0010
0000
0010
0000
,
1000
0000
1000
0000
,
0001
0000
0000
0000
,
2000
0000
0000
3000
,
0200
0000
0000
0300
,
2000
0000
0000
3000
,
0020
0000
0000
0030
,
0200
0000
0000
0300
,
0002
0000
0000
0003
,
0020
0000
0000
0030
,
0002
0000
0000
0003
;

//---------------dance-single - Spork!----------------
#NOTES:
     dance-single:
     :
     Easy:
     4:
     0.286,0.331,0.297,0.153,0.000,172.000,33.000,17.000,0.000,0.000,0.000,0.286,0.331,0.297,0.153,0.000,172.000,33.000,17.000,0.000,0.000,0.000:
0000
0000
0000
0000
,
0000
0000
0000
0000
,
0000
0000
0000
0000
,
0000
0000
0000
0000
,
0011
0010
0000
0010
,
0110
0100
0000
0100
,
1100
1000
0000
1000
,
1001
0001
1000
0010
,
1010
0010
0000
0010
,
0110
0100
0000
0100
,
0101
0001
0000
0001
,
1001
1000
0001
0010
,
0100
0000
0100
0000
,
0010
0000
0010
0000
,
0001
0000
0001
0000
,
1000
0000
1000
0000
,
0010
1000
0100
0100
,
0010
0001
1000
0001
,
0100
0001
0010
0010
,
0100
1000
0001
1000
,
0020
0000
0130
0000
,
0200
0000
0301
0000
,
0002
0000
1003
0000
,
1000
0100
0010
0001
,
0200
0010
0310
0000
,
0020
1000
1030
0000
,
2000
0001
3001
0000
,
0002
1000
0000
0000
1000
0000
0000
1000
,
0000
0000
1000
0000
0000
1000
0000
0000
,
1000
0000
0000
1000
0000
0000
1000
0000
,
0000
1000
0000
0000
0000
0000
0000
0000
,
1003
1000
0001
0001
,
1000
0001
2002
3003
,
1100
1100
0101
0100
,
0001
0010
0100
0010
,
0011
0011
1010
0010
,
1000
0100
0010
0001
,
0101
0101
1100
0100
,
1000
0010
0100
0010
,
1010
1010
0011
0010
,
0001
0010
0100
1000
,
1001
0101
1001
1000
,
0100
0010
0001
0100
,
0110
1010
0110
0100
,
0001
1000
0001
0001
,
1001
1010
1001
0001
,
0010
0100
1000
0010
,
0110
0101
0110
0010
,
1000
1000
0001
0001
,
2000
0000
3010
0010
,
0200
0000
0301
1000
,
0200
0000
0310
0010
,
0002
0000
1003
1000
,
0002
0000
0103
0100
,
0020
0000
1030
0001
,
0020
0000
0130
0000
,
0200
0000
0310
0000
;

//---------------dance-single - Spork!----------------
#NOTES:
     dance-single:
     :
     Hard:
     7:
     0.449,0.464,0.288,0.216,0.131,293.000,32.000,24.000,0.000,0.000,0.000,0.449,0.464,0.288,0.216,0.131,293.000,32.000,24.000,0.000,0.000,0.000:
0000
0000
0000
0000
,
0000
0000
0000
0000
,
0000
0000
0000
0000
,
0000
0000
0000
0000
,
0110
0000
0000
0000
1000
0000
0000
0000
0010
0000
0000
0000
0100
0000
0000
0010
,
1000
0000
0000
0000
0001
0000
0000
0000
0010
0000
0000
0000
0100
0000
0000
0010
,
0001
1000
0001
0010
,
0101
0110
1010
0011
,
0110
0000
0000
0000
0001
0000
0000
0000
0100
0000
0000
0000
0010
0000
0000
0100
,
0001
0000
0000
0000
1000
0000
0000
0000
0100
0000
0000
0000
0010
0000
0000
0100
,
1000
0001
1000
0010
,
1100
0110
0011
1010
,
1000
0100
1000
0100
0010
0001
0010
0001
,
1000
0000
0010
0000
1000
0000
0010
0000
0100
0000
0001
0000
0010
0000
0010
0001
,
0000
0100
0001
0100
0010
1000
0010
1000
,
0001
0001
0001
0001
,
1001
0000
0010
1000
1100
0000
0010
0000
,
0110
0000
0001
1000
1010
0010
1000
0001
,
1001
0000
0100
0001
0011
0000
0100
0000
,
0210
0000
0010
0000
0010
0000
0010
0000
0310
0000
0001
1000
0001
0000
0100
0000
,
0010
0000
0010
1000
0100
0000
1000
0001
,
0010
0000
0110
0000
1001
0000
1000
0001
,
0010
0000
0010
0001
0100
0000
0001
1000
,
0010
1000
0001
0100
0010
0000
0110
0000
,
2001
0100
0001
3010
,
0200
0001
1000
0301
,
0002
0010
1000
0103
,
0020
0100
0000
0000
0100
0000
0000
0100
,
0000
0000
0100
0000
0000
0100
0000
0000
,
0100
0000
0000
0100
0000
0000
0100
0000
,
0000
0100
0000
0000
0100
0000
0000
0000
,
1030
1000
0001
0001
,
0100
0000
0100
0000
0010
0100
1001
0000
,
2000
0000
0000
0000
3200
0000
0000
0000
0320
0000
0000
0000
0031
1000
0000
0010
,
0000
0010
0100
0001
0100
0010
1000
1000
,
0002
0000
0000
0000
0023
0000
0000
0000
0230
0000
0000
0000
1300
0001
0000
0100
,
0000
0100
0010
0100
0001
0010
0110
0000
,
0002
0000
0000
0000
0203
0000
0000
0000
0320
0000
0000
0000
1030
0001
0000
0010
,
0000
0010
0100
1000
0100
0010
0001
0001
,
2000
0000
0000
0000
3020
0000
0000
0000
0230
0000
0000
0000
0301
1000
0000
0100
,
0000
0000
0100
0000
0000
0100
0000
0000
0010
0000
0100
0000
1001
0000
0000
0000
,
1000
0100
1000
0010
1000
0001
0100
0100
,
0001
0000
0010
0000
0000
0010
0000
0000
0010
0000
0001
0000
0100
0000
0100
0000
,
0001
0010
0001
0100
0001
1000
0010
0010
,
1000
0000
0100
0000
0000
0100
0000
0000
0100
0000
0010
0000
1001
0000
1001
0000
,
0001
0000
0100
0000
0001
0000
0010
0000
0001
0000
1000
0000
0100
0010
0000
0001
,
0000
0000
0100
0000
0000
0001
0000
0000
0001
0000
1000
0000
0002
0000
0000
0000
,
1003
1010
1001
0011
,
0001
0001
0001
0000
1000
1000
1000
0000
,
0002
0000
0000
0000
0100
0000
0000
0000
0100
0000
0000
0000
0103
0000
0000
0010
,
0000
0000
1000
0000
0000
0001
0000
0000
0010
0000
0001
0000
0101
0000
0000
0000
,
2100
0000
0000
0000
0010
0000
0000
0000
0010
0000
0000
0000
3010
0000
0000
0100
,
0000
0000
0001
0000
0000
1000
0000
0000
0100
0000
1000
0000
1001
0000
0000
0000
,
0200
0000
0000
0000
0010
0000
0000
0000
0001
0000
0000
0000
0310
0000
0010
1000
,
0000
1000
0001
0000
0000
0010
0000
0000
0001
0000
0100
0000
0100
0000
0010
0000
,
0020
0000
0000
0000
0100
0000
0000
0000
1000
0000
0000
0000
0130
0000
0100
0001
,
0000
0000
1000
0000
0000
0100
0000
0000
0010
0000
0010
0000
0002
0000
2000
0000
,
0000
3003
0000
0000
;

//---------------dance-single - Spork!----------------
#NOTES:
     dance-single:
     :
     Medium:
     6:
     0.363,0.361,0.414,0.234,0.000,210.000,46.000,26.000,0.000,0.000,0.000,0.363,0.361,0.414,0.234,0.000,210.000,46.000,26.000,0.000,0.000,0.000:
0000
0000
0000
0000
,
0000
0000
0000
0000
,
0000
0000
0000
0000
,
0000
0000
0000
0000
,
1020
0000
0130
0001
,
0021
0000
0130
1000
,
1002
0000
0013
0001
,
0101
0110
1010
1001
,
0201
0000
0310
1000
,
1200
0000
0310
0001
,
2001
0000
3010
1000
,
1100
0110
0011
1001
,
1000
0100
1000
0001
,
0100
0000
0001
0000
0010
0100
0010
0000
,
0001
0010
0001
1000
,
0010
0000
1000
0000
0100
0010
0100
0000
,
1000
0000
0000
1000
0001
0000
0000
0000
,
0001
0000
0000
0001
1000
0000
0010
0000
,
0100
0100
0010
0010
,
1000
0000
0001
0000
1000
0001
1000
0000
,
1001
0000
0101
0000
,
1010
0000
1100
0000
,
0011
0000
0110
0000
,
1001
0000
1000
0001
,
2000
0010
3010
0100
,
0200
0001
0301
1000
,
2000
0100
3100
0010
,
0020
0100
0000
0000
0100
0000
0000
0100
,
0000
0000
0100
0000
0000
0100
0000
0000
,
0100
0000
0000
0100
0000
0000
0100
0000
,
0000
0100
0000
0000
0000
0000
0030
0000
,
0001
0001
0010
0010
,
0100
0000
0100
0000
1000
0001
1001
0000
,
1100
0000
1001
0000
1100
0000
0010
0100
,
0020
0100
0001
0031
,
0101
0000
1001
0000
0101
0000
0010
0100
,
0020
0100
1000
1030
,
1010
0000
0110
0000
1010
0000
0001
1000
,
0002
0100
0010
0013
,
0011
0110
0011
0001
,
0100
0010
1000
0001
,
1100
0110
0011
0001
,
2000
0000
0100
0000
3001
0100
0001
0000
,
0101
0110
1010
1000
,
0002
0000
0010
0000
1003
0000
1000
0001
,
0011
1001
1100
1000
,
0002
0000
0100
0000
1003
0100
1000
0000
,
1010
1001
0101
0001
,
1000
0100
0010
0001
0100
0010
1000
0001
,
2000
0100
0100
3100
,
0020
0000
0100
0000
0031
1000
0001
0000
,
0002
0100
0100
0103
,
0020
0000
0100
0000
0130
0001
1000
0000
,
0002
0010
1000
0103
,
0200
0000
0010
0000
0301
1000
0001
0000
,
2000
0100
0001
3010
,
0020
0000
0100
0000
0130
0002
2000
0000
,
0000
3003
0000
0000
;

//---------------dance-single - Spork!----------------
#NOTES:
     dance-single:
     :
     Challenge:
     9:
     0.687,0.799,0.630,0.549,0.473,403.000,70.000,61.000,46.000,0.000,1.000,0.687,0.799,0.630,0.549,0.473,403.000,70.000,61.000,46.000,0.000,1.000: // measure 0
0000
0000
0000
0000
,  // measure 1
0000
0000
0000
0000
,  // measure 2
0000
0000
0000
0000
,  // measure 3
0000
0000
0000
0000
,  // measure 4
00M1
0000
0100
0000
1000
0000
0100
0000
0001
0000
0100
0000
1000
0000
0100
0001
,  // measure 5
10M0
0000
0100
0000
0001
0000
0100
0000
1000
0000
0100
0000
0001
0000
0100
1000
,  // measure 6
00M1
0100
1000
0001
0100
1000
0001
0100
,  // measure 7
02M2
0000
0000
0303
22M0
0000
0000
3300
02M2
0000
0000
0303
22M0
0000
0000
3300
,  // measure 8
1M00
0000
0010
0000
0001
0000
0010
0000
1000
0000
0010
0000
0001
0000
0010
1000
,  // measure 9
0M01
0000
0010
0000
1000
0000
0010
0000
0001
0000
0010
0000
1000
0000
0010
0001
,  // measure 10
1M00
0010
0001
1000
0010
0001
1000
0010
,  // measure 11
2M20
0000
0000
3030
0M22
0000
0000
0033
2M20
0000
0000
3030
0M22
0000
0000
0033
,  // measure 12
1000
0000
0001
0000
0100
00M0
0100
0000
1000
0000
0001
0000
0010
0M00
0010
0000
,  // measure 13
0100
0000
0001
0000
0010
0M00
0010
0000
1000
0000
0100
0000
0001
0000
0100
0000
,  // measure 14
1000
0000
0001
0000
0010
0M00
0010
0000
1000
0000
0001
0000
0100
00M0
0100
0000
,  // measure 15
0010
0000
0000
0010
0001
0000
0000
0001
1000
0000
0000
1000
0010
0000
0000
0000
,  // measure 16
1100
0000
1000
0000
0010
0M00
0010
0000
0011
0000
0001
0000
0100
00M0
0100
0000
,  // measure 17
1100
0000
0100
0000
0010
0M00
0010
0000
1010
0000
1000
0000
0110
0000
0001
0000
,  // measure 18
0011
0000
0001
0000
0100
00M0
0100
0000
1100
0000
1000
0000
0010
0M00
0010
0000
,  // measure 19
0011
0000
0010
0000
1001
0000
0100
0000
1100
0000
1000
0001
1000
0000
0010
0000
,  // measure 20
1002
0000
0000
0000
0013
0000
0001
0000
0201
0000
0000
0000
0310
0000
1000
0100
,  // measure 21
0000
0000
0100
0000
1000
0001
1000
0000
0020
0000
0000
0000
0130
0000
0001
0000
,  // measure 22
0012
0000
0000
0000
0103
0010
1000
0000
0200
0000
0000
0000
1300
0000
0010
0000
,  // measure 23
2010
0010
3100
1000
0002
0100
0103
0000
,  // measure 24
0001
0100
0000
0100
0001
0010
0000
0000
2200
0000
0000
3300
0202
0000
0000
0303
,  // measure 25
1000
0100
0000
0100
1000
0010
0000
0000
0202
0000
0000
0303
2200
0000
0000
3300
,  // measure 26
0001
0010
0000
0010
0001
0100
0000
0000
2020
0000
0000
3030
0022
0000
0000
0033
,  // measure 27
1M00
0000
00M1
0000
0000
0M10
0000
0000
M001
0000
0000
01M0
0000
0000
4M01
0000
,  // measure 28
0000
000M
0000
0000
00M1
0000
0000
000M
0000
0000
0M01
0000
0000
000M
0000
0000
,  // measure 29
00M1
0000
0000
000M
0000
0000
0M01
0000
0000
000M
0000
0000
00M1
0000
0000
000M
,  // measure 30
0000
0000
0M01
0000
0000
000M
0000
0000
00M1
0000
0000
000M
0000
0000
0M01
3000
,  // measure 31
0001
0010
0001
0010
0100
1000
0100
1000
0001
0100
0001
0100
0010
1000
0010
1000
,  // measure 32
0001
0000
0000
0010
0000
0000
0100
0000
0000
1000
0000
0000
0010
0000
0000
0100
0000
0000
0001
0000
0000
1000
0000
0000
0001
0000
0000
0000
0100
0000
0000
0000
0001
0000
0000
0000
1000
0000
0000
0000
0100
0000
0000
0000
1000
0000
0000
0000
,  // measure 33
1002
0000
1000
0003
1200
0000
1000
0300
1020
0000
1000
0030
0001
0100
0000
0120
,  // measure 34
0000
0000
1000
0000
0000
0001
0000
0000
0130
0000
0001
0000
1001
0000
1000
0000
,  // measure 35
2001
0000
0001
3000
0021
0000
0001
0030
0201
0000
0001
0300
1000
0010
0000
0210
,  // measure 36
0000
0000
0301
0000
0010
0001
0000
0001
1000
0000
0100
0000
0010
0000
0000
0000
,  // measure 37
0120
0000
0100
0030
0102
0000
0100
0003
2100
0000
0100
3000
0001
0100
0000
1002
,  // measure 38
0000
0103
0010
0000
0010
1000
0000
1000
0001
0000
0100
0000
0001
0000
0010
0000
,  // measure 39
0210
0000
0010
0300
2010
0000
0010
3000
0012
0000
0010
0003
1000
0100
0000
1001
,  // measure 40
0000
0000
1010
0000
0000
0011
0000
0000
0101
0000
1001
0000
2100
0000
0000
0000
,  // measure 41
3001
0000
0010
0000
0001
0000
0100
0010
1000
0000
0100
0000
0010
0100
0000
0021
,  // measure 42
0000
0000
0031
0000
0000
0001
0000
0100
0010
0000
1000
0000
1001
0000
0100
0000
,  // measure 43
1100
0000
0100
0000
1000
0000
0010
0100
0001
0000
0010
0000
0100
0010
0000
1200
,  // measure 44
0000
1300
0001
0000
0001
0100
0000
0100
0010
0000
0110
0000
1001
0000
1001
0000
,  // measure 45
1000
0000
0010
0000
1000
0000
0100
0010
0001
0000
0100
0000
0010
0100
0000
2010
,  // measure 46
0000
3010
0100
0000
0100
0001
0000
0001
0010
0000
0001
0000
1001
0000
0100
0000
,  // measure 47
0101
0000
0100
0000
0001
0000
0010
0100
1000
0000
0010
0000
0100
0010
0000
0201
,  // measure 48
0000
0000
0301
0000
0000
1000
0000
0000
0100
0000
0010
0000
1001
0000
0000
0000
,  // measure 49
0200
0000
0000
0000
0001
0000
0000
0000
0010
0000
0000
0000
1000
0000
0000
0001
,  // measure 50
0300
0000
0010
0000
0000
0100
0000
0000
1000
0000
0001
0000
1001
0000
0000
0000
,  // measure 51
1200
0000
0000
0000
1000
0000
0000
0010
0010
0000
0000
0000
0001
0000
1000
1000
,  // measure 52
0300
1000
0010
0000
0010
0100
0000
0100
0001
0000
1001
0000
0110
0000
0000
0000
,  // measure 53
0020
0000
0000
0000
1000
0000
0000
0000
0100
0000
0000
0000
0001
0000
1000
1000
,  // measure 54
0030
1000
0100
0000
0100
0010
0000
0010
0001
0000
1000
0000
1001
0000
0100
0000
,  // measure 55
0020
0000
0000
0000
0001
0000
0100
0000
0100
0000
0000
0000
1000
0000
0001
0001
,  // measure 56
0030
0000
0100
0000
0000
0010
0000
0000
1000
0000
0001
0000
1001
0000
0220
0000
,  // measure 57
0000
0330
0000
0000
;
