#VERSION:0.82;
#TITLE:LA FESTA LA VITA!!;
#SUBTITLE:;
#ARTIST:GUHROOVY;
#TITLETRANSLIT:;
#SUBTITLETRANSLIT:;
#ARTISTTRANSLIT:;
#GENRE:;
#ORIGIN:;
#CREDIT:vincentw;
#BANNER:[Round 1] - LA FESTA LA VITA!!.png;
#BACKGROUND:[Round 1] - LA FESTA LA VITA!!-bg.png;
#PREVIEWVID:;
#JACKET:[Round 1] - LA FESTA LA VITA!!-jacket.png;
#CDIMAGE:;
#DISCIMAGE:;
#LYRICSPATH:;
#CDTITLE:cdtitle.png;
#MUSIC:[Round 1] - LA FESTA LA VITA!!.ogg;
#OFFSET:-0.526000;
#SAMPLESTART:88.510002;
#SAMPLELENGTH:10.666664;
#SELECTABLE:YES;
#BPMS:0.000=180.000;
#STOPS:;
#DELAYS:;
#WARPS:;
#TIMESIGNATURES:0.000=4=4;
#TICKCOUNTS:0.000=4;
#COMBOS:0.000=1;
#SPEEDS:0.000=1.000=0.000=0;
#SCROLLS:0.000=1.000,
360.000=0.500,
362.250=0.550,
362.500=0.650,
362.750=0.800,
363.000=1.000,
363.250=1.250,
363.500=1.550,
363.750=1.000,
364.000=0.500,
366.250=0.550,
366.500=0.650,
366.750=0.800,
367.000=1.000,
367.250=1.250,
367.500=1.550,
367.750=1.000,
368.000=0.000;
#FAKES:;
#LABELS:0.000=Song Start;
#BGCHANGES:0.000=[Round 1] - LA FESTA LA VITA!!-bg.png=1.000=0=0=1=====,
99999=-nosongbg-=1.000=0=0=0 // don't automatically add -songbackground-
;
#KEYSOUNDS:;
#ATTACKS:
;

//---------------dance-single - ----------------
#NOTEDATA:;
#CHARTNAME:;
#STEPSTYPE:dance-single;
#DESCRIPTION:;
#CHARTSTYLE:;
#DIFFICULTY:Beginner;
#METER:1;
#RADARVALUES:0.115998,0.145053,0.023650,0.015767,0.000000,98.000000,3.000000,2.000000,0.000000,0.000000,0.000000,0.000000,0.000000,0.115998,0.145053,0.023650,0.015767,0.000000,98.000000,3.000000,2.000000,0.000000,0.000000,0.000000,0.000000,0.000000;
#CREDIT:;
#NOTES:
// measure 0
0000
0000
0000
0000
,  // measure 1
0000
0000
0000
0000
,  // measure 2
0000
0000
0000
0000
,  // measure 3
0000
0000
0000
0000
,  // measure 4
0000
0000
0000
0000
,  // measure 5
0000
0000
0000
0000
,  // measure 6
0000
0000
0000
0000
,  // measure 7
0000
0000
0000
0000
,  // measure 8
1001
0000
0000
0000
,  // measure 9
0000
0000
1000
0000
,  // measure 10
1000
0000
0000
0000
,  // measure 11
0000
0000
0000
0000
,  // measure 12
0001
0000
0000
0000
,  // measure 13
0000
0000
0100
0000
,  // measure 14
0100
0000
0000
0000
,  // measure 15
0000
0000
0000
0000
,  // measure 16
0010
0000
0000
0000
,  // measure 17
0010
0000
0000
0000
,  // measure 18
1000
0000
0000
0000
,  // measure 19
1000
0000
1000
0000
,  // measure 20
0001
0000
0000
0000
,  // measure 21
0001
0000
0000
0000
,  // measure 22
0010
0000
0000
0000
,  // measure 23
0010
0000
0010
0000
,  // measure 24
0200
0000
0000
0000
,  // measure 25
0000
0000
0300
0000
,  // measure 26
1001
0000
0000
0000
,  // measure 27
1000
0000
0000
0000
,  // measure 28
0010
0000
0000
0000
,  // measure 29
1000
0000
0000
0000
,  // measure 30
0001
0000
0000
0000
,  // measure 31
0100
0000
0000
0000
,  // measure 32
0001
0000
0000
0000
,  // measure 33
0100
0000
0000
0000
,  // measure 34
0010
0000
0000
0000
,  // measure 35
0100
0000
0000
0000
,  // measure 36
0010
0000
0000
0000
,  // measure 37
1000
0000
0000
0000
,  // measure 38
0001
0000
0000
0000
,  // measure 39
1000
0000
0000
0000
,  // measure 40
0001
0000
0001
0000
,  // measure 41
0010
0000
0000
0000
,  // measure 42
0100
0000
0000
0000
,  // measure 43
0010
0000
0000
0000
,  // measure 44
0100
0000
0000
0000
,  // measure 45
1000
0000
0000
0000
,  // measure 46
0010
0000
0000
0000
,  // measure 47
0100
0000
0000
0000
,  // measure 48
0010
0000
0000
0000
,  // measure 49
1000
0000
1000
0000
,  // measure 50
0001
0000
0000
0000
,  // measure 51
1000
0000
0000
0000
,  // measure 52
0001
0000
0000
0000
,  // measure 53
0100
0000
0100
0000
,  // measure 54
0001
0000
0000
0000
,  // measure 55
1000
0000
0000
0000
,  // measure 56
0100
0000
0100
0000
,  // measure 57
0010
0000
0010
0000
,  // measure 58
0100
0000
0000
0000
,  // measure 59
0010
0000
0000
0000
,  // measure 60
0100
0000
0010
0000
,  // measure 61
0100
0000
0000
0000
,  // measure 62
1000
0000
0000
0000
,  // measure 63
0001
0000
0000
0000
,  // measure 64
1000
0000
0001
0000
,  // measure 65
1000
0000
1000
0000
,  // measure 66
0001
0000
0000
0000
,  // measure 67
0010
0000
0000
0000
,  // measure 68
0100
0000
0000
0000
,  // measure 69
1000
0000
0000
0000
,  // measure 70
0001
0000
0000
0000
,  // measure 71
0100
0000
0000
0000
,  // measure 72
0010
0000
0000
0000
,  // measure 73
1000
0000
0000
0000
,  // measure 74
0100
0000
0100
0000
,  // measure 75
0010
0000
0000
0000
,  // measure 76
0001
0000
0001
0000
,  // measure 77
1000
0000
0000
0000
,  // measure 78
0010
0000
0010
0000
,  // measure 79
0100
0000
0100
0000
,  // measure 80
0001
0000
0001
0000
,  // measure 81
1000
0000
0000
0000
,  // measure 82
1001
0000
0000
0000
,  // measure 83
1000
0000
0000
0000
,  // measure 84
0010
0000
0010
0000
,  // measure 85
1000
0000
0000
0000
,  // measure 86
0001
0000
0000
0000
,  // measure 87
0100
0000
0000
0000
,  // measure 88
0001
0000
0001
0000
,  // measure 89
0100
0000
0100
0000
,  // measure 90
0002
0000
0000
0000
,  // measure 91
0000
0000
0000
0000
,  // measure 92
0003
0000
0000
0000
;

//---------------dance-single - ----------------
#NOTEDATA:;
#CHARTNAME:;
#STEPSTYPE:dance-single;
#DESCRIPTION:;
#CHARTSTYLE:;
#DIFFICULTY:Easy;
#METER:5;
#RADARVALUES:0.284926,0.290106,0.110367,0.275916,0.000000,204.000000,14.000000,35.000000,0.000000,0.000000,0.000000,0.000000,0.000000,0.284926,0.290106,0.110367,0.275916,0.000000,204.000000,14.000000,35.000000,0.000000,0.000000,0.000000,0.000000,0.000000;
#CREDIT:;
#NOTES:
// measure 0
0000
0000
0000
0000
,  // measure 1
0000
0000
0000
0000
,  // measure 2
0000
0000
0000
0000
,  // measure 3
0000
0000
0000
0000
,  // measure 4
0000
0000
0000
0000
,  // measure 5
0000
0000
0000
0000
,  // measure 6
0000
0000
0000
0000
,  // measure 7
0000
0000
0000
0000
,  // measure 8
1000
0000
1000
0000
,  // measure 9
0001
0000
0001
0000
,  // measure 10
0200
0000
0001
0000
,  // measure 11
0010
0000
0301
0000
,  // measure 12
0100
0000
0110
0000
,  // measure 13
0010
0000
1000
0000
,  // measure 14
0001
0000
1001
0000
,  // measure 15
1000
0000
1000
1000
,  // measure 16
0020
0000
2030
0000
,  // measure 17
3200
0000
0320
0000
,  // measure 18
0032
0000
0000
0203
,  // measure 19
0010
0010
0001
0301
,  // measure 20
0002
0000
0203
0000
,  // measure 21
0320
0000
2030
0000
,  // measure 22
3200
0000
0000
2300
,  // measure 23
0010
0010
0001
0001
,  // measure 24
3100
0000
0100
0000
0200
0000
0000
0300
,  // measure 25
0010
0000
0010
0000
0020
0000
0000
0030
,  // measure 26
0000
0001
0000
0101
,  // measure 27
0000
0100
0000
0101
,  // measure 28
0000
0001
0000
1001
,  // measure 29
0000
1000
0000
1001
,  // measure 30
0000
1000
0000
1010
,  // measure 31
0000
0010
0000
1010
,  // measure 32
0000
0100
0000
0110
,  // measure 33
0000
1001
0000
0110
,  // measure 34
0000
1000
0001
0001
,  // measure 35
0100
0000
0000
0200
0000
0000
0300
0000
,  // measure 36
0000
0001
1000
1000
,  // measure 37
0100
0000
0000
0200
0000
0300
0000
0000
,  // measure 38
0000
1000
0001
0001
,  // measure 39
0010
0000
0000
0020
0000
0000
0030
0000
,  // measure 40
0001
0001
1000
1000
,  // measure 41
0010
0200
0310
0000
,  // measure 42
1000
0000
2000
0000
0000
3000
0000
0000
,  // measure 43
0001
0000
0000
0002
0000
0000
0003
0000
,  // measure 44
0100
0000
0200
0000
0000
0300
0000
0000
,  // measure 45
0010
0000
0000
0020
0000
0000
0030
0000
,  // measure 46
1000
0000
0020
0000
0000
0030
0000
0000
,  // measure 47
0100
0000
0000
0200
0000
0000
0300
0000
,  // measure 48
0001
0000
0020
0000
0000
0030
0000
0000
,  // measure 49
0100
0000
0100
0100
,  // measure 50
1000
0000
0100
0000
,  // measure 51
1000
0000
1000
0100
,  // measure 52
0010
0000
0001
0000
,  // measure 53
0010
0001
0010
0001
,  // measure 54
1000
0000
0010
0000
,  // measure 55
1000
0000
1000
0010
,  // measure 56
1000
0000
0000
1010
0000
0000
0000
0000
,  // measure 57
0001
0000
0000
0101
0000
0000
0000
0000
,  // measure 58
1000
0000
0001
0000
,  // measure 59
1000
1000
0001
0000
,  // measure 60
0100
0000
0010
0000
,  // measure 61
0100
0100
0010
0000
,  // measure 62
0100
0000
0001
0000
,  // measure 63
0100
0100
0001
0000
,  // measure 64
1000
0010
0010
1000
,  // measure 65
1000
0001
0200
0000
,  // measure 66
0302
1000
0000
1003
,  // measure 67
0200
1000
0000
1300
,  // measure 68
0020
0100
0000
0001
,  // measure 69
0000
0100
0000
1030
,  // measure 70
2000
0001
0000
3001
,  // measure 71
0020
0001
0000
0031
,  // measure 72
0200
0010
0000
1000
,  // measure 73
0000
0010
0000
0301
,  // measure 74
0000
0100
0001
0000
,  // measure 75
1000
0000
0000
1000
0000
0000
0010
0000
,  // measure 76
0000
0100
0001
0000
,  // measure 77
1000
0000
0000
1000
0000
0000
0100
0000
,  // measure 78
0000
0010
0001
0000
,  // measure 79
1000
0000
0000
1000
0000
0000
0100
0000
,  // measure 80
0000
0010
0001
0000
,  // measure 81
1000
0010
0100
0001
,  // measure 82
1001
0000
1000
0000
,  // measure 83
0010
0000
0000
1000
,  // measure 84
0001
0000
1000
0000
,  // measure 85
0100
0000
0000
0000
,  // measure 86
0010
0000
0001
0000
,  // measure 87
1000
0000
0000
0001
,  // measure 88
0100
0000
0001
0000
,  // measure 89
0010
0000
0100
0000
,  // measure 90
1000
1000
2000
0000
,  // measure 91
3001
0001
0002
0000
,  // measure 92
0003
0000
0000
0000
;

//---------------dance-single - ----------------
#NOTEDATA:;
#CHARTNAME:;
#STEPSTYPE:dance-single;
#DESCRIPTION:;
#CHARTSTYLE:;
#DIFFICULTY:Medium;
#METER:7;
#RADARVALUES:0.416690,0.543950,0.252266,0.063067,0.043358,330.000000,32.000000,8.000000,0.000000,0.000000,0.000000,0.000000,0.000000,0.416690,0.543950,0.252266,0.063067,0.043358,330.000000,32.000000,8.000000,0.000000,0.000000,0.000000,0.000000,0.000000;
#CREDIT:;
#NOTES:
// measure 0
0000
0000
0000
0000
,  // measure 1
0000
0000
0000
0000
,  // measure 2
0000
0000
0000
0000
,  // measure 3
0000
0000
0000
0000
,  // measure 4
0000
0000
1010
0000
,  // measure 5
0000
0000
0101
0000
,  // measure 6
0000
0000
0011
0000
,  // measure 7
0000
0000
1100
0000
,  // measure 8
1000
0000
1010
0000
,  // measure 9
0010
0000
0110
0000
,  // measure 10
0100
0000
0101
0000
,  // measure 11
0001
0000
1001
0000
,  // measure 12
1000
0000
0000
0100
1000
0000
0000
0000
,  // measure 13
0100
0000
0110
0000
,  // measure 14
0010
0000
0000
0001
0010
0000
0000
0000
,  // measure 15
0001
1000
0001
1000
,  // measure 16
0100
0000
1000
0000
0000
1100
0000
0000
,  // measure 17
0001
0000
0100
0000
0000
0101
0000
0000
,  // measure 18
1000
0000
0001
0000
0000
1001
0000
0000
,  // measure 19
0001
0010
1000
0010
,  // measure 20
0001
0000
0010
0000
0000
0011
0000
0000
,  // measure 21
1000
0000
0010
0000
0000
1010
0000
0000
,  // measure 22
0010
0000
0100
0000
0000
0110
0000
0000
,  // measure 23
0010
0100
1000
0100
,  // measure 24
0001
0000
0010
0000
1000
0010
0000
0010
,  // measure 25
0001
0000
1000
0000
1001
0000
0000
0001
,  // measure 26
0100
0000
0001
0000
0000
0100
0001
0000
,  // measure 27
1000
0000
0100
0000
0000
1000
0100
0000
,  // measure 28
0010
0000
0001
0000
0000
0010
0001
0000
,  // measure 29
1000
0000
0010
0000
0000
1000
0010
0000
,  // measure 30
1000
0000
0100
0000
0000
1000
0001
0000
,  // measure 31
0100
0000
0001
0000
0000
0100
0010
0000
,  // measure 32
1000
0000
0010
0000
0000
1000
0001
0000
,  // measure 33
0010
0000
0000
0000
0001
0000
0000
0010
0000
0000
0010
0000
0001
0000
0000
0000
,  // measure 34
0000
1000
0000
0001
0000
0010
0000
0000
,  // measure 35
0001
0000
0000
1000
0000
0000
1001
0000
,  // measure 36
0000
0001
0000
1000
0000
0100
0000
0000
,  // measure 37
0010
0000
0000
0100
0000
0110
0000
0000
,  // measure 38
0000
1000
0000
0010
0000
0001
0000
0000
,  // measure 39
0010
0000
0000
1000
0000
0000
1010
0000
,  // measure 40
0010
0000
1000
0100
1000
0000
0100
0001
,  // measure 41
0100
2000
3020
0030
,  // measure 42
1000
0000
0001
0000
0000
0010
0000
0000
,  // measure 43
0100
0000
0000
0100
0000
0000
0010
0000
,  // measure 44
0001
0000
1000
0000
0000
0010
0000
0000
,  // measure 45
0100
0000
0000
0100
0000
0000
1000
0000
,  // measure 46
0001
0000
0010
0000
0000
1000
0000
0000
,  // measure 47
0100
0000
0000
0100
0000
0000
1000
0000
,  // measure 48
0010
0000
0100
0000
0000
0001
1000
0000
,  // measure 49
0100
0000
1000
0000
0010
0100
0010
0100
,  // measure 50
0001
0000
0100
0000
0000
0010
0000
0000
,  // measure 51
1000
0000
0000
1000
0001
0010
0100
0000
,  // measure 52
1000
0000
0010
0000
0000
0100
0000
0000
,  // measure 53
0010
1000
0100
0000
0010
0001
0100
0010
,  // measure 54
1000
0000
0010
0000
0000
0100
0000
0000
,  // measure 55
0001
0000
0000
0001
1000
0100
0010
0000
,  // measure 56
0001
0000
0000
0101
0000
0000
1001
0000
,  // measure 57
1000
0000
0000
1010
0000
0000
1001
0000
,  // measure 58
0001
0000
0101
0000
,  // measure 59
0100
0000
0000
0100
0010
0000
0000
0000
,  // measure 60
0010
1000
1010
0000
,  // measure 61
1000
0000
0000
1000
0001
0000
0000
0000
,  // measure 62
0001
0010
0001
0000
0011
0000
0000
0000
,  // measure 63
0010
0000
0000
0010
0100
0000
1000
0000
,  // measure 64
0001
0000
1000
0100
1000
0000
0001
0100
,  // measure 65
0001
0000
1000
0010
0000
0010
1000
0000
,  // measure 66
1010
0000
0000
0000
0010
0000
0000
0100
0000
0000
0100
0000
0010
0000
0000
0000
,  // measure 67
1000
0000
0000
0000
0001
0000
0000
1000
0000
0000
1000
0000
0001
0000
0000
0000
,  // measure 68
0100
0000
0000
0000
0001
0000
0000
0100
0000
0000
0100
0000
0001
0000
0000
0100
,  // measure 69
0000
0000
0100
0000
0010
0000
0000
1000
0000
0000
1000
0000
0010
0000
1000
0000
,  // measure 70
0001
0000
0000
0000
1000
0000
0000
0001
0000
0000
0001
0000
1000
0000
0000
0000
,  // measure 71
0100
0000
0000
0000
0010
0000
0000
0100
0000
0000
0100
0000
0010
0000
0000
0000
,  // measure 72
0001
0000
0000
0000
0010
0000
0000
0001
0000
0000
0001
0000
0010
0000
0000
0001
,  // measure 73
0000
0000
0001
0000
1000
0000
0000
0100
0000
0000
0100
0000
1000
0000
0001
0000
,  // measure 74
0010
0000
0001
0000
0100
0000
0010
1000
,  // measure 75
0100
0000
1000
0100
0000
1000
0001
0000
,  // measure 76
0100
0000
0001
0000
0010
0000
0100
1000
,  // measure 77
0010
0000
1000
0010
0000
1000
0100
0010
,  // measure 78
0001
0000
0100
0000
1000
0000
0001
0010
,  // measure 79
1000
0000
0010
1000
0000
0010
0100
0000
,  // measure 80
0001
0000
0100
0000
0001
0000
1000
0010
,  // measure 81
0001
0100
1000
0010
,  // measure 82
1010
1000
0010
0100
,  // measure 83
0001
0000
0110
1000
,  // measure 84
0100
0001
1000
0010
,  // measure 85
0001
0000
0101
0000
,  // measure 86
1100
0100
1000
0001
,  // measure 87
0010
0000
1001
1000
,  // measure 88
0001
0010
0100
1000
,  // measure 89
0020
0000
0230
0000
,  // measure 90
0301
0010
0001
0010
0200
0000
0000
2300
,  // measure 91
0000
3010
1000
0010
0200
0000
0000
0302
,  // measure 92
0003
0000
0000
0000
;

//---------------dance-single - ----------------
#NOTEDATA:;
#CHARTNAME:;
#STEPSTYPE:dance-single;
#DESCRIPTION:;
#CHARTSTYLE:;
#DIFFICULTY:Hard;
#METER:10;
#RADARVALUES:0.716257,0.761529,0.670083,0.039417,0.169492,546.000000,85.000000,5.000000,0.000000,0.000000,0.000000,0.000000,0.000000,0.716257,0.761529,0.670083,0.039417,0.169492,546.000000,85.000000,5.000000,0.000000,0.000000,0.000000,0.000000,0.000000;
#CREDIT:;
#NOTES:
// measure 0
0000
0000
0000
0000
,  // measure 1
0000
0000
0000
0000
,  // measure 2
0000
0000
0000
0000
,  // measure 3
0000
0000
0000
0000
,  // measure 4
0001
0100
0101
0000
,  // measure 5
0010
0000
1000
0010
1010
0010
1000
0000
,  // measure 6
0100
0000
0000
0000
1000
0000
0000
0000
1100
0000
0000
0000
0100
0010
0100
0010
,  // measure 7
0100
0010
0001
0010
0011
0000
0001
0100
,  // measure 8
0001
0000
0100
0010
0001
0000
0010
1000
,  // measure 9
0100
0000
0010
0001
0011
0000
0010
0000
,  // measure 10
0001
0000
1000
0100
0010
0000
0100
0001
,  // measure 11
1000
0001
0100
0000
0110
0000
0010
0001
,  // measure 12
0100
0000
0000
0000
0001
0000
0100
0001
0100
0000
0000
0000
0010
0000
0100
0000
,  // measure 13
0001
0100
0010
0000
1001
0000
1000
0100
,  // measure 14
0010
0000
0000
0000
0100
0000
1000
0001
1000
0000
0000
0000
0010
0000
1000
0000
,  // measure 15
0001
0000
0010
0000
0100
0000
0000
0000
1100
0000
0000
0000
0000
0000
0010
0001
,  // measure 16
0010
0001
0011
0000
0000
0011
0000
0000
,  // measure 17
1000
0010
1010
0000
0000
1010
0000
0000
,  // measure 18
0001
1000
1001
0000
0000
1001
0000
0000
,  // measure 19
1000
0000
0100
0000
1100
0000
0000
0000
0010
0000
1000
0000
0001
0010
0001
0010
,  // measure 20
0100
1000
1100
0000
0000
1010
0000
0000
,  // measure 21
0001
0100
0101
0000
0000
0011
0000
0000
,  // measure 22
0100
0010
0110
0000
0000
1001
0000
0000
,  // measure 23
1000
0010
1010
0000
0001
0100
0101
0000
,  // measure 24
1000
0000
0100
0001
0100
1000
0000
1000
,  // measure 25
0001
0000
0010
0100
0110
0000
0000
1100
,  // measure 26
0100
0010
0001
0100
0010
1000
1010
0000
,  // measure 27
0010
1000
0001
1000
0010
0100
0110
0000
,  // measure 28
0100
0010
1000
0001
0010
0001
0011
0000
,  // measure 29
0010
0001
1000
0010
0100
0001
0101
0000
,  // measure 30
0001
0100
1000
0001
0010
0100
0110
0000
,  // measure 31
0010
1000
0100
0001
0100
1000
1100
0000
,  // measure 32
1000
0010
0001
1000
0100
0001
0101
0000
,  // measure 33
0100
0000
0010
0000
1000
0000
0001
0010
0000
0000
0001
1000
0001
0000
0000
0000
,  // measure 34
1000
0001
0010
0100
1000
0100
0010
0001
,  // measure 35
0011
0000
0010
0110
0000
0100
1100
0000
,  // measure 36
0010
0100
0001
1000
0100
1000
0010
0100
,  // measure 37
0110
0000
0001
1001
0000
1010
0000
0000
,  // measure 38
1000
0100
0010
0100
0001
0100
1000
0100
,  // measure 39
1100
0000
1000
1010
0000
0001
0101
0000
,  // measure 40
0100
0100
1000
1000
0010
0010
0001
0001
,  // measure 41
0100
0010
0100
0110
0000
0010
0110
0000
,  // measure 42
1000
0000
1010
0000
0001
0100
0010
0100
,  // measure 43
0001
0000
1000
0010
0100
0010
1000
0000
,  // measure 44
0001
0000
0101
0000
1000
0001
0100
0001
,  // measure 45
1000
0000
0001
1000
0010
1000
0001
0000
,  // measure 46
0010
0000
0011
0000
0100
1000
0001
1000
,  // measure 47
0100
0000
0010
0001
1000
0001
0010
0000
,  // measure 48
0100
0000
1100
0000
1000
0100
0010
0100
,  // measure 49
1100
0000
0000
0000
1000
0000
0001
0000
0100
0000
0010
0000
1000
0000
0010
1000
,  // measure 50
0010
1000
0001
0100
0000
0001
0101
0000
,  // measure 51
0010
0000
1000
0001
0100
1000
0100
0010
,  // measure 52
0100
0100
0001
0010
0000
0100
0110
0000
,  // measure 53
0010
0000
0001
0000
0100
0000
1000
0000
0100
0001
0100
0000
0001
0000
0010
0000
,  // measure 54
0100
1000
0010
1000
0000
0001
1001
0000
,  // measure 55
1000
0000
0010
0001
1000
0100
0010
0100
,  // measure 56
0110
0000
0010
1010
0000
1000
1001
0000
,  // measure 57
0101
0000
0000
0000
0001
0000
0011
0000
0000
0000
0100
1000
0100
0000
0000
0000
,  // measure 58
1000
0010
1010
0000
,  // measure 59
0100
0000
0001
0001
0101
0000
0000
0000
,  // measure 60
0100
0010
0100
0010
0110
0000
0000
0000
,  // measure 61
0010
0000
1000
0001
1001
0000
0001
0100
,  // measure 62
0010
0010
1000
0000
1100
0000
0000
0000
,  // measure 63
0001
0000
0010
0010
0011
0000
0001
0100
,  // measure 64
1000
0000
0000
0000
0100
0000
0100
0000
0001
0000
0010
0001
0010
0000
0010
0000
,  // measure 65
0100
0000
1000
0000
0010
0000
0100
0000
0000
0000
0100
0001
0100
0000
0000
0000
,  // measure 66
0101
0000
0001
0000
0100
0000
0010
0100
0000
0010
1000
0000
1010
0000
0000
0000
,  // measure 67
0010
0000
0100
0000
0001
0000
1000
0001
0000
0010
0001
0000
0011
0000
0000
0000
,  // measure 68
1000
0000
1000
0000
0010
0000
0100
0010
0000
0100
0001
0000
0101
0000
0100
0010
,  // measure 69
0000
1000
0001
0000
1001
0000
1000
0010
0000
1000
0100
0000
1100
0000
0000
0000
,  // measure 70
1000
0000
0010
0000
0001
0000
0010
1000
0000
0001
1000
0000
1001
0000
0000
0000
,  // measure 71
0001
0000
0100
0000
1000
0000
0001
0010
0000
0100
0010
0000
0110
0000
0000
0000
,  // measure 72
0100
0000
0001
0000
0010
0000
0100
1000
0000
0001
0100
0000
0101
0000
0001
0010
,  // measure 73
0000
0000
1000
0010
0001
0000
0100
1000
0000
0000
0001
0010
1000
0000
0000
0000
,  // measure 74
0100
0000
1000
0000
0010
0000
0000
0100
0001
0000
0010
0000
0011
0000
0001
0000
,  // measure 75
0010
0000
0100
0000
1000
0000
0100
0010
0000
0000
0001
0000
1001
0000
0000
0000
,  // measure 76
0010
0000
0001
0000
0100
0000
0000
0010
1000
0000
0100
0000
1100
0000
0000
1000
,  // measure 77
0010
0000
0100
0000
0101
0000
0001
0100
0000
0000
0010
0000
0110
0000
0000
0000
,  // measure 78
1000
0000
0010
0000
0001
0000
0000
0100
0001
0000
0010
0000
0110
0000
0100
0000
,  // measure 79
1000
0000
0100
0000
0001
0000
1000
0100
0000
0000
0001
0000
0101
0000
0000
0000
,  // measure 80
0100
0000
0010
0000
1000
0000
0010
0001
0010
0000
0100
0000
0100
0000
0100
0000
,  // measure 81
1000
0000
1100
0000
0000
0000
0010
0100
0001
0000
0010
0000
0011
0000
0000
0000
,  // measure 82
0101
0001
0100
0010
,  // measure 83
1000
0010
0110
0001
,  // measure 84
0010
1000
0001
0100
,  // measure 85
1000
0010
1010
0000
,  // measure 86
0011
0010
0001
1000
,  // measure 87
0100
1000
1001
0001
,  // measure 88
1000
0100
0010
0001
,  // measure 89
0200
0000
0320
0000
,  // measure 90
1030
0100
0001
0010
2000
0000
0000
3100
,  // measure 91
0001
0100
1000
0010
0200
0000
0000
0302
,  // measure 92
0003
0000
0000
0000
;
