#TITLE:Get On The Floor;
#SUBTITLE:;
#ARTIST:good-cool;
#TITLETRANSLIT:;
#SUBTITLETRANSLIT:;
#ARTISTTRANSLIT:;
#GENRE:;
#CREDIT:;
#BANNER:[ROUND 1] - Get On The Floor.png;
#BACKGROUND:[ROUND 1] - Get On The Floor-bg.png;
#LYRICSPATH:;
#CDTITLE:cdtitle.png;
#MUSIC:[ROUND 1] - Get On The Floor.ogg;
#OFFSET:0.000000;
#SAMPLESTART:49.341129;
#SAMPLELENGTH:14.222225;
#SELECTABLE:YES;
#BPMS:0.000000=135.000000
;
#STOPS:
;
#BGCHANGES:;
#KEYSOUNDS:;
#ATTACKS:;

//---------------dance-single - S-CHALLENGE----------------
#NOTES:
     dance-single:
     xRGTMx-CSP:
     Challenge:
     10:
     0.729735,0.875682,0.212839,0.314191,0.841222,452.000000,21.000000,31.000000,0.000000,0.000000,0.000000,0.729735,0.875682,0.212839,0.314191,0.841222,452.000000,21.000000,31.000000,0.000000,0.000000,0.000000:
0000
0000
0000
0000
,
0000
0000
0000
0000
,
0000
0000
0000
0000
0000
0000
0000
1010
,
0000
0000
0011
0000
0000
0000
1001
0000
0000
0000
1000
0100
0020
0000
0000
0000
,
0031
0010
0000
0001
0100
0000
0010
0000
1000
0010
2000
0000
0000
0000
3100
0000
,
1000
0010
0000
1000
0100
0000
0010
0000
0001
0010
0002
0000
0100
0000
0003
0000
,
0001
1000
0000
1000
0100
0000
1000
0000
0010
1000
0100
0000
0010
0000
0002
0000
,
0103
0001
0200
0000
0310
0000
2000
3100
1000
0100
0020
0000
0031
0000
1000
0001
,
1000
0000
0100
0000
1000
0000
0000
0000
0001
0100
0001
0000
0100
0000
0001
0000
1000
0000
0100
0000
0010
0000
0000
0000
1001
0000
0000
0000
0000
0000
0000
0000
,
1000
0000
0100
0000
1000
0000
0100
0000
0010
0100
0010
0100
1000
0000
0100
0000
1000
0000
0100
0000
0010
0000
0000
0000
1001
0000
0000
0000
0000
0000
0000
0000
,
0001
0000
0010
0000
0001
0000
0000
0000
1000
0010
1000
0000
0001
0000
0010
0000
0100
0000
0010
0000
0100
0000
0000
0000
1001
0000
0000
0000
0000
0000
0000
0000
,
0001
0000
0100
0000
0001
0000
0100
0000
0010
1000
0010
1000
0010
0000
1000
0000
0001
0010
0001
0000
0010
0000
0100
0010
0100
0000
0000
0000
0100
0000
1000
0000
,
0001
0000
0000
0010
0001
0000
0100
0000
0010
1000
0010
0000
0100
0000
0001
0000
,
1000
0000
1000
0100
0000
0100
2000
0000
0000
0000
0000
0000
3010
0000
0000
0000
,
1000
0000
0010
1000
0000
0000
0100
0000
0000
0010
0001
0000
0000
1000
0000
0000
,
0001
0000
0001
0100
0000
0100
0002
0000
0000
0000
0000
0000
0013
0000
0000
0000
,
0001
0000
0000
0100
0001
0000
0010
0000
0100
1000
0100
0000
0010
0000
0001
0000
,
1000
0000
1000
0010
0000
0010
1000
0000
0100
1000
0001
0000
0100
0000
0010
0000
,
1000
0000
0100
1000
0000
0000
0010
0000
0000
0100
0001
0000
0000
1000
0000
0000
,
0001
0100
0000
1000
0000
0100
0010
0100
0001
0010
0100
0000
1000
0000
0010
1000
,
0001
0000
0010
0000
0001
0000
0100
0001
0000
0001
1000
0000
0100
0000
0100
0020
,
0000
0000
0000
0000
0031
0000
0010
0001
0000
1000
0010
0000
0100
0000
0001
0000
,
1000
0000
0100
0000
0010
0000
0100
1000
0000
0100
0010
0000
0001
0000
0001
0100
,
0010
1000
0010
1000
0100
1000
0100
1000
0001
0100
0010
1000
0100
0000
1000
0001
,
1000
0000
0010
0000
1000
0000
0100
1000
0000
1000
0001
0000
0100
0000
0100
0020
,
0000
0000
0000
0000
1030
0000
0010
1000
0000
0001
0010
0000
0100
0000
1000
0000
,
0001
0000
0100
0000
0010
0000
0100
0001
0000
0100
0010
0000
1000
0000
0001
0000
,
1000
0100
1000
0100
0010
0000
0001
0010
0000
0010
0100
0000
1000
0000
0001
1000
,
0001
0000
0000
0000
0021
0000
0000
0000
1030
0010
0000
0010
0001
0000
1000
0001
,
1000
0000
0010
1000
0100
0000
1000
0100
0000
0100
0010
0000
0001
0000
0100
0010
,
0100
0000
0000
0000
0001
0000
0010
0000
1000
0010
0000
0010
0001
0000
0100
0000
,
1000
0000
0001
0000
0010
0000
1000
0010
0000
0010
0100
0000
0001
0000
1000
0001
,
1000
0000
0000
0000
1020
0000
0000
0000
0031
0010
0000
0010
1000
0000
0001
1000
,
0001
0000
0010
0001
0100
0000
0001
0100
0000
0100
0010
0000
1000
0000
0100
0010
,
0100
0000
0000
0000
1000
0000
0010
0000
0001
0010
0000
0010
1000
0000
0100
0000
,
0010
0001
0010
0000
0001
0000
0010
0000
0001
0000
0000
0000
0001
0000
0100
0000
0000
0000
0100
0000
0010
0000
0000
0000
1001
0000
0000
0000
0000
0000
0000
0000
,
0110
0000
0000
0000
,
0000
0000
0000
0000
,
0000
0000
0000
0000
,
0000
0000
0000
0000
,
0001
0000
0001
0100
0001
0100
0010
0000
1000
0100
1000
0100
0010
0100
0010
0100
,
1000
0000
0001
0010
0001
0010
0100
0000
1000
0010
1000
0010
0100
0010
0100
0010
,
1000
0000
0001
0010
0100
0010
0001
0000
1000
0010
0100
0010
1000
0001
1000
0001
,
0010
0000
0000
2200
3300
0000
0202
0303
0000
2002
0000
3003
0020
0000
0000
0030
,
1001
0000
1000
0000
0001
0000
0010
0000
0200
0000
0000
0000
0310
0000
0010
0002
,
0000
0000
0000
0000
0000
0000
0000
0000
0000
0000
0000
0000
0000
0000
0000
0000
0000
0000
0000
0000
0000
0000
0000
0000
1003
0000
0000
0000
0000
0000
0000
0000
0000
0000
0000
0000
0000
0000
0000
0000
0000
0000
0000
0000
0000
0000
0000
0000
0001
0000
0000
0000
0000
0000
0000
0000
0000
0000
0000
0000
0000
0000
0000
0000
0000
0000
0000
0000
0000
0000
0000
0000
0100
0000
0000
0000
0000
0000
0000
0000
0000
0000
0000
0000
0000
0000
0000
0000
0000
0000
0000
0000
0000
0000
0000
0000
0010
0000
0000
0000
0000
0000
0000
0000
0000
0000
0000
0000
0000
0000
0000
0000
0000
0000
0010
0000
0000
0000
0000
0000
1000
0000
0000
0000
0000
0000
0000
0000
0000
0000
0000
0000
0000
0000
0000
0000
0000
0000
0000
0000
0000
0000
0000
0000
0100
0000
0000
0000
0000
0000
0000
0000
0000
0000
0000
0000
0000
0000
0000
0000
1000
0000
0000
0000
0000
0000
0000
0000
0100
0000
0000
0000
0000
0000
0000
0000
0000
0000
0000
0000
0010
0000
0000
0000
0000
0000
0000
0000
0000
0000
0000
0000
,
0000
2001
0000
0000
3010
0000
1000
0000
0001
0010
0001
0000
0100
0001
0100
0000
,
0010
0200
0000
0000
0300
0001
0100
0010
1000
0000
2020
3030
0000
0022
0033
0001
,
1000
0000
0000
0000
0000
0000
0000
0000
0000
0000
0000
0000
0000
0000
0000
0000
0000
0000
0000
0000
0000
0000
0000
0000
0100
0000
0000
0000
0000
0000
0000
0000
0000
0000
0000
0000
0000
0000
0000
0000
0000
0000
0000
0000
0000
0000
0000
0000
0010
0000
0000
0000
0000
0000
0000
0000
0000
0000
0000
0000
0000
0000
0000
0000
0000
0000
0010
0000
0000
0000
0000
0000
0001
0000
0000
0000
0000
0000
0000
0000
0000
0000
0000
0000
0000
0000
0000
0000
0000
0000
0000
0000
0000
0000
0000
0000
0001
0000
0000
0000
0000
0000
0000
0000
1000
0000
0000
0000
0000
0000
0000
0000
0001
0000
0000
0000
0000
0000
0000
0000
1000
0000
0000
0000
0000
0000
0000
0000
0000
0000
0000
0000
0000
0000
0000
0000
0000
0000
0000
0000
0000
0000
0000
0000
0010
0000
0000
0000
0000
0000
0000
0000
0000
0000
0000
0000
0000
0000
0000
0000
0000
0000
0000
0000
0000
0000
0000
0000
1000
0000
0000
0000
0000
0000
0000
0000
0000
0000
0000
0000
0200
0000
0000
0000
0000
0000
0000
0000
0000
0000
0000
0000
,
0000
0000
0310
0000
0100
1000
0000
0000
0001
0100
0010
0000
0000
0100
0001
0000
,
1000
0010
1000
0010
0001
0010
0001
0000
0010
1000
0010
0000
0100
0000
0001
1000
,
0001
0000
0011
0000
0010
0100
0000
1100
0000
1000
0001
0000
0110
0000
1000
0001
,
2002
0000
0000
0000
,
0000
0000
0000
0000
,
3003
0000
0000
0000
;

//---------------dance-single - S-EXPERT----------------
#NOTES:
     dance-single:
     xRGTMx-ESP:
     Hard:
     8:
     0.525583,0.656761,0.293921,0.293921,0.364867,305.000000,29.000000,29.000000,0.000000,0.000000,0.000000,0.525583,0.656761,0.293921,0.293921,0.364867,305.000000,29.000000,29.000000,0.000000,0.000000,0.000000:
0000
0000
0000
0000
,
0000
0000
0000
0000
,
0000
0000
0000
0000
0000
0000
0000
1001
,
0000
0000
0110
0000
0000
0000
1001
0000
0000
0000
0100
0000
0020
0000
0000
0030
,
1001
0000
0000
1000
0100
0000
1000
0000
0010
0100
0000
0000
0010
0000
1000
0000
,
0001
0000
0000
0001
0000
0000
0010
0000
0000
0010
0100
0000
1000
0000
0000
0000
,
0001
0000
1000
0000
0010
0000
0000
0000
0100
0010
0000
0000
1000
0000
0011
0000
,
0000
1010
0000
0101
0000
0010
1001
0000
,
1000
0000
0100
0000
1000
0100
0010
0000
0001
0000
0010
0000
0100
0000
0000
0000
,
1000
0000
0010
0000
0100
0001
0100
0000
0010
0000
1000
0000
0001
0000
0000
0000
,
0001
0000
0010
0000
0001
0010
0100
0000
1000
0000
0100
0000
0010
0000
0000
0000
,
0001
0000
0100
0000
0010
1000
0010
0000
0100
0001
0100
0000
0010
0000
0000
0000
,
1001
0000
0000
1000
0000
0000
0100
0000
0000
0100
0010
0000
0001
0000
0000
0000
,
1000
0000
0000
0001
0000
0000
0201
0000
0000
0000
0000
0000
1000
0000
0000
0000
,
0301
0000
0000
1000
0000
0000
0100
0000
0000
0100
0010
0000
0000
0001
0000
0000
,
1000
0000
0010
1000
0000
0000
1200
0000
0000
0000
0000
0000
0001
0000
0000
0000
,
1300
0000
0000
0010
0000
0000
0100
0000
0000
0001
0100
0000
0000
0010
0000
0000
,
1000
0000
0001
0010
0000
0000
1020
0000
0000
0000
0000
0000
0001
0000
0000
0000
,
1030
0000
0000
0001
0000
0000
0010
0000
0000
0100
1000
0000
0100
0010
0000
0000
,
0001
0000
1000
0010
0000
0000
0011
0000
0001
0000
0100
0000
0110
0000
0000
0000
,
1001
0000
0000
0000
1000
0000
0001
0000
1000
0000
0100
0010
0000
0000
0001
0000
,
0000
0000
0100
0000
0000
0000
1000
0000
0000
1000
0010
0000
0001
0000
0000
0000
,
1000
0000
0010
0000
1000
0000
0010
0100
0000
0001
0100
0000
0010
0000
0000
0000
,
1000
0000
0000
0000
0100
0000
0000
0001
0000
0001
0010
0000
1000
0000
0000
0000
,
1001
0000
0000
0000
0001
0000
1000
0000
0001
0100
0000
0000
0010
0000
1000
0000
,
0000
0000
0100
0000
0000
0000
0001
0000
0001
0010
0000
0000
1000
0000
0000
0000
,
0001
0000
0010
0000
0100
0000
0000
0010
0000
0010
0100
0000
1000
0000
0000
0000
,
0001
0100
0001
0100
0001
0000
1000
0100
0000
1000
0100
0000
0010
0000
0000
0000
,
1002
0100
1000
0013
,
0001
0000
1000
0000
0010
0000
0100
0000
0100
0010
0000
0000
1000
0000
0001
0000
,
1000
0000
0001
0010
1000
0000
1000
0100
,
0001
0000
0000
0000
0001
0000
0010
0100
0000
0100
1000
0000
0010
0000
1000
0001
,
1000
2100
0001
3010
,
1000
0000
0001
0000
0010
0000
0100
0000
0100
0010
0000
0000
0001
0000
1000
0000
,
0001
0000
1000
0010
0001
0000
0001
0100
,
1000
0010
1000
0010
1000
0000
0001
0100
0000
0001
0010
0000
0200
0000
0000
0300
,
1001
0000
0000
0000
,
0000
0000
0000
0000
,
0000
0000
0000
0000
,
0000
0000
0000
0000
,
1000
0000
0000
0010
0000
0000
0100
0000
0000
0000
0001
0000
1000
0000
0010
0000
,
1000
0000
0000
0100
0000
0000
0010
0001
0000
0000
0001
0000
1000
0000
0000
0000
,
0001
0000
0000
0100
0000
0000
0010
0000
0000
0000
1000
0000
0001
0000
1000
0000
,
2020
3030
0000
0022
0033
0000
0202
0303
0000
2200
3300
0000
0020
0000
0000
0030
,
1001
0000
1000
0000
0001
0000
0010
0000
0200
0000
0000
0000
0320
0000
0000
0032
,
0000
0000
1000
0003
1000
0000
0010
0000
0100
0000
0010
0000
1000
0000
1000
0001
,
0000
0020
0000
0000
0100
0000
0100
0030
0000
0000
0010
0000
0000
0001
0000
0000
,
1000
0020
0000
0000
0000
0130
0010
0100
0000
0000
0202
0303
0000
2200
3300
0000
,
1001
0000
0001
0000
0100
0000
0010
0000
1000
0000
0100
0000
1000
0000
1000
0020
,
0000
0000
0130
0000
0100
0001
0000
0000
1000
0000
0100
0000
0000
0020
0000
0000
,
0031
0010
0001
0010
0100
0000
1000
0100
1000
0000
0001
0000
0000
0000
0100
0001
,
0100
0000
0010
0000
1000
0001
0000
0110
0000
1000
0001
0000
0010
0000
0000
0000
,
2002
0000
0000
0000
,
0000
0000
0000
0000
,
3003
0000
0000
0000
;

//---------------dance-single - S-DIFFICULT----------------
#NOTES:
     dance-single:
     xRGTMx-DSP:
     Medium:
     5:
     0.296817,0.328381,0.162163,0.101352,0.040541,179.000000,16.000000,10.000000,0.000000,0.000000,0.000000,0.296817,0.328381,0.162163,0.101352,0.040541,179.000000,16.000000,10.000000,0.000000,0.000000,0.000000:
0000
0000
0000
0000
,
0000
0000
0000
0000
,
0000
0000
0000
0000
0000
0000
0000
1000
,
0000
0001
0000
1000
0000
1000
0002
0000
,
1003
0010
0100
0100
,
0001
0100
0010
0010
,
1000
0000
0100
0000
0010
0000
0010
0001
,
0000
1000
0000
0001
0000
0001
1000
0000
,
1010
0000
0000
0000
0010
0100
0010
0000
,
1000
0000
0001
0000
1000
0001
1000
0000
,
0011
0000
0000
0000
0010
0100
0010
0000
,
0001
1000
0001
1000
0010
0000
1001
0000
,
1000
1000
0100
0100
,
0010
0000
0000
0010
0000
0000
0020
0000
0000
0000
0000
0000
0031
0000
0000
0000
,
0001
0001
0100
0100
,
0010
0000
0000
0010
0000
0000
0020
0000
0000
0000
0000
0000
1030
0000
0000
0000
,
1000
0001
0001
1000
,
0100
0000
0000
0100
0000
0000
0200
0000
0000
0000
0000
0000
0310
0000
0000
0000
,
0001
1000
1000
0001
,
0100
0000
0000
0100
0000
0000
0200
0000
0000
0000
0000
0000
0310
0000
0000
0000
,
1001
1000
0100
0000
,
0010
0001
1000
0000
,
0001
0100
1000
0010
,
0001
1000
0110
0000
,
1001
0001
0100
0000
,
0010
1000
0001
0000
,
1000
0100
0001
0010
,
1000
0001
1001
0110
,
1001
2000
0010
0001
,
3001
0010
1001
0000
,
0001
0010
1000
0010
,
0001
0000
0000
0001
0000
0000
1000
0000
0000
0000
0100
0000
0100
0000
0000
0000
,
1001
0002
0010
1000
,
1003
0010
1001
0000
,
1000
0010
0001
0010
,
1000
0001
1000
0000
0001
1000
0002
0000
,
0013
0000
0000
0000
,
0000
0000
0000
0000
,
0000
0000
0000
0000
,
0000
0000
0000
0000
,
1000
0000
1000
0000
,
0001
0000
0001
0000
,
0100
0100
0010
0010
,
1000
0000
0000
1000
0000
0000
0001
0000
0000
0001
0000
0000
0110
0000
0000
0000
,
1001
1000
0100
0100
,
0010
0001
1000
0000
,
0001
0010
1000
0100
,
0001
0000
0000
0000
1000
0000
0000
0000
0000
0000
0010
0000
0000
0010
0000
0000
,
1001
0001
0100
0100
,
0010
1000
0001
0000
,
1000
0010
0001
0100
,
1000
0000
0001
0000
0100
0010
0100
0000
,
2002
0000
0000
0000
,
0000
0000
0000
0000
,
3003
0000
0000
0000
;

//---------------dance-single - S-BASIC----------------
#NOTES:
     dance-single:
     xRGTMx-BSP:
     Easy:
     3:
     0.188225,0.237164,0.101352,0.081082,0.000000,112.000000,10.000000,8.000000,0.000000,0.000000,0.000000,0.188225,0.237164,0.101352,0.081082,0.000000,112.000000,10.000000,8.000000,0.000000,0.000000,0.000000:
0000
0000
0000
0000
,
0000
0000
0000
0000
,
0000
0000
0000
0000
0000
0000
0000
0010
,
0000
0010
0000
0010
0000
0000
2002
0000
,
3003
0000
1000
0000
,
0100
0000
0010
0000
,
0001
0000
0001
0000
1000
0000
0000
1000
,
0000
1000
0000
0001
0000
0001
0000
0000
,
0010
0000
0000
0000
,
0010
0000
0000
0000
,
0100
0000
0000
0000
,
0100
0000
0000
1001
,
1000
0000
1000
0000
,
0010
0000
0000
0010
0000
0000
0000
0000
,
1000
0000
1000
0000
,
0001
0000
0000
0010
0000
0000
0000
0000
,
0001
0000
0001
0000
,
0100
0000
0000
0100
0000
0000
0000
0000
,
0001
0000
0001
0000
,
1000
0000
0000
0100
0000
0000
0010
0000
,
1001
0000
1000
0000
,
1000
0001
1000
0000
,
0001
0010
0100
0000
,
0010
0100
1000
0000
,
1001
0000
0001
0000
,
0001
1000
0001
0000
,
1000
0010
0100
0000
,
0010
0100
0001
1000
,
2002
0000
3003
0000
,
0001
0000
0010
0000
,
0001
0100
1000
0000
,
1000
0100
0001
0000
,
2002
0000
3003
0000
,
1000
0000
0010
0000
,
1000
0100
0001
0000
,
0001
0100
1000
0000
,
1001
0000
0000
0000
,
0000
0000
0000
0000
,
0000
0000
0000
0000
,
0000
0000
0000
0000
,
1000
0000
1000
0000
,
0001
0000
0001
0000
,
0100
0100
0010
0010
,
0100
0000
0000
0010
0000
0000
1001
0000
,
1000
0000
0001
0000
,
0010
0100
0010
0000
,
0001
0100
1000
0000
,
1000
0000
0000
0000
0010
0000
0000
0000
2002
0000
0003
0000
0000
3000
0000
0000
,
0001
0000
1000
0000
,
0010
0100
0010
0000
,
1000
0100
0001
0000
,
0001
0010
1000
0000
,
1001
0000
0000
0000
;

//---------------dance-single - BEGINNER----------------
#NOTES:
     dance-single:
     xRGTMx-BEG:
     Beginner:
     1:
     0.099904,0.158109,0.101352,0.010135,0.000000,58.000000,10.000000,1.000000,0.000000,0.000000,0.000000,0.099904,0.158109,0.101352,0.010135,0.000000,58.000000,10.000000,1.000000,0.000000,0.000000,0.000000:
// measure 0
0000
0000
0000
0000
,  // measure 1
0000
0000
0000
0000
,  // measure 2
0000
0000
0000
0000
,  // measure 3
0000
0000
0000
0000
,  // measure 4
1000
0000
0000
0000
,  // measure 5
1000
0000
0000
0000
,  // measure 6
0001
0000
0000
0000
,  // measure 7
0001
0000
0000
0000
,  // measure 8
1001
0000
0000
0000
,  // measure 9
0000
0000
0000
0000
,  // measure 10
0110
0000
0000
0000
,  // measure 11
0000
0000
0000
0000
,  // measure 12
1001
0000
0000
0000
,  // measure 13
1000
0000
0000
0000
,  // measure 14
0100
0000
0000
0000
,  // measure 15
0010
0000
0000
0000
,  // measure 16
1001
0000
0000
0000
,  // measure 17
0001
0000
0000
0000
,  // measure 18
0100
0000
0000
0000
,  // measure 19
0010
0000
0000
0000
,  // measure 20
1001
0000
0000
0000
,  // measure 21
1000
0000
0100
0000
,  // measure 22
1000
0000
0000
0000
,  // measure 23
0001
0000
0100
0000
,  // measure 24
1001
0000
0000
0000
,  // measure 25
0001
0000
0010
0000
,  // measure 26
0001
0000
0000
0000
,  // measure 27
1000
0000
0010
0000
,  // measure 28
1001
0000
0000
0000
,  // measure 29
1000
0000
0100
0000
,  // measure 30
0010
0010
0010
0000
,  // measure 31
0100
0100
0100
0000
,  // measure 32
1001
0000
0000
0000
,  // measure 33
0001
0000
0100
0000
,  // measure 34
0010
0010
0010
0000
,  // measure 35
0100
0100
0100
0000
,  // measure 36
1001
0000
0000
0000
,  // measure 37
0000
0000
0000
0000
,  // measure 38
0000
0000
0000
0000
,  // measure 39
0000
0000
0000
0000
,  // measure 40
1000
0000
0000
0000
,  // measure 41
0001
0000
0000
0000
,  // measure 42
1000
0000
0000
0000
,  // measure 43
0002
0000
0000
0003
,  // measure 44
0001
0000
0000
0000
,  // measure 45
0100
0000
0000
0000
,  // measure 46
0010
0000
0000
0000
,  // measure 47
1000
0000
0000
0000
,  // measure 48
1000
0000
0000
0000
,  // measure 49
0100
0000
0000
0000
,  // measure 50
0010
0000
0000
0000
,  // measure 51
0001
0000
0000
0000
,  // measure 52
1001
0000
0000
0000
;
