#TITLE:Electro Masters;
#SUBTITLE:;
#ARTIST:Fast Foot;
#TITLETRANSLIT:;
#SUBTITLETRANSLIT:;
#ARTISTTRANSLIT:;
#CREDIT:;
#BANNER:[Round 1] - Electro Master.png;
#BACKGROUND:[Round 1] - Electro Master-bg.png;
#LYRICSPATH:;
#CDTITLE:;
#MUSIC:[Round 1] - Electro Masters.ogg;
#OFFSET:-0.005;
#SAMPLESTART:33.24;
#SAMPLELENGTH:18.480;
#SELECTABLE:YES;
#DISPLAYBPM:130.000;
#BPMS:0.000=130.000;
#STOPS:;
#BGCHANGES:;

//---------------dance-single - ----------------
#NOTES:
     dance-single:
     :
     Beginner:
     2:
     0.164,0.189,0.000,0.008,0.000:
0000
0000
0000
0000
,
0000
0000
0000
0000
,
0000
0000
0000
0000
,
0000
0000
0000
0000
,
1000
0000
0001
0000
,
0100
0000
1000
0000
,
0100
0000
0001
0000
,
0010
0000
0001
0000
,
1000
0000
1000
0000
,
1000
0000
0010
0000
,
0100
0000
0100
0000
,
0001
0000
0001
0000
,
1000
0000
0001
0001
,
0000
0000
1000
1000
,
0000
0000
0100
0001
,
1000
0000
0010
0000
,
0200
0000
0000
0000
0000
0000
0000
0300
,
0000
0000
0000
0000
,
0000
1000
0000
0001
,
0000
0100
0010
1000
,
0000
0001
0000
0001
,
0000
1000
0010
1000
,
0000
0100
0000
0100
,
0000
0001
0001
0001
,
0000
1000
0000
0010
,
0000
0100
0000
1000
,
0000
0100
0000
0001
,
0000
1000
0000
0100
,
0000
0001
0000
0010
,
0000
1000
0000
0001
,
0000
0100
0000
1000
,
0000
0001
1000
0001
,
0000
0100
0000
0001
,
0000
1000
0000
0001
,
0000
0100
0000
1000
,
0000
0010
0000
0010
,
0000
0100
0000
0100
,
0000
1000
0000
1000
,
0000
0001
0000
0001
,
0000
1000
1000
1000
,
0000
0100
0100
0100
,
0000
0000
0000
0000
,
0001
0001
0010
0010
,
0000
1000
0001
1000
,
0000
0100
0100
0100
,
0000
0000
0010
0001
,
0010
0000
0000
0000
,
1000
0001
0100
0010
,
0000
0000
0001
1000
,
0010
0100
0001
1000
,
0000
0000
0000
0100
,
0000
1000
0000
0001
,
0000
0100
0010
1000
,
0000
0001
0000
0001
,
0000
0100
1000
0010
,
0000
0001
0000
1000
,
0000
0010
0100
0001
,
0000
1000
0000
1000
,
0000
0001
0000
0100
,
0000
1000
0000
0010
,
0000
0001
0000
1000
,
0000
0100
0000
0001
,
0000
0010
0000
1000
,
0000
0001
1000
0001
,
0000
1000
0010
1000
,
0000
0100
0100
0001
,
0100
0000
0000
1000
,
0001
0000
0000
0000
;

//---------------dance-single - ----------------
#NOTES:
     dance-single:
     :
     Easy:
     4:
     0.338,0.352,0.291,0.000,0.000:
0000
0000
0000
0000
,
0000
0000
0000
0000
,
0000
0000
0000
0000
,
0000
0000
0000
0000
,
1000
0001
0100
1000
,
0001
0010
1000
0001
,
0100
0001
1000
0010
,
0100
0001
1000
0010
,
0001
0000
1001
1001
,
0000
0000
1010
1010
,
0001
0100
0110
0110
,
0001
1000
0011
0011
,
1000
0001
0100
1000
,
0001
0100
0010
0001
,
1000
0001
0100
1000
,
0001
0100
0010
1000
,
0001
0000
1000
0000
,
0010
1000
0010
1000
,
0001
0101
0010
1010
,
0100
0001
0001
0001
,
1000
0010
1100
0011
,
1000
0001
1000
1000
,
0010
0100
0011
1100
,
0010
0100
0010
0100
,
0001
1000
1001
1001
,
0100
0010
0010
1000
,
0001
1001
0010
1100
,
0001
0100
0001
1001
,
0010
0100
1000
0001
,
0001
0010
1000
1010
,
1010
0001
0100
0011
,
1000
0100
1000
1000
,
0001
0100
0001
1001
,
0100
1100
0010
0110
,
0001
0000
0011
0000
1000
0001
1000
0000
,
0010
0010
1000
1000
,
0001
0000
0100
0000
1000
0010
1000
0000
,
0001
0100
0001
0001
,
1000
0010
0010
0010
,
0100
0100
0100
0100
,
0001
1000
0001
1000
,
0001
0100
0100
0100
,
0001
0000
1000
0000
0010
0010
0010
0000
,
1000
0000
0001
0000
0100
0100
0100
0000
,
0001
0000
1000
0000
1000
1000
1000
0000
,
0010
0100
0001
0001
,
1000
0010
0100
0100
,
0001
1000
0001
0001
,
0100
0010
1000
0001
,
0100
0100
0100
1000
,
1000
0001
0001
0001
,
1000
0000
1000
0000
0010
0010
0010
0000
,
0100
0000
0100
0000
0001
0001
0001
0000
,
1000
1000
0010
0100
,
0001
0000
1000
0000
0100
0100
0100
0000
,
0010
0000
0100
0000
1000
1000
1000
0000
,
0001
0100
0001
0001
,
0010
0010
1000
0010
,
0101
0010
1000
1000
,
0001
0100
0001
1001
,
0010
0100
1000
0110
,
0001
1000
0001
1001
,
1001
0010
0100
1100
,
0001
0100
0010
0011
,
1000
0001
0100
1010
,
0001
1000
0001
0100
,
1010
0100
0001
1000
,
1001
0000
0000
0000
;

//---------------dance-single - Copied from----------------
#NOTES:
     dance-single:
     Copied from:
     Medium:
     6:
     0.444,0.433,0.436,0.008,0.000:
0000
0000
0000
0000
,
0000
0000
0000
0000
,
0000
0000
0000
0000
,
0000
0000
0000
0000
,
1000
0010
0100
0000
0001
1000
0001
0000
,
0100
1010
0001
0101
,
0010
1000
0010
0000
0100
0001
0100
0000
,
1000
0001
1000
0010
0100
0001
1000
0000
,
1001
0010
1010
0101
,
1000
0010
1000
0000
0001
0100
0001
0000
,
1010
1010
0101
0101
,
1000
0100
1000
0000
0001
0010
0001
0000
,
1000
0001
1000
0001
1000
0010
0100
0000
,
0001
1001
0100
1100
,
0001
0000
0101
0000
0010
1000
0010
0000
,
0101
0101
1000
0001
,
2000
0010
0010
3010
,
0100
0000
0001
0000
1000
0001
1000
0001
,
0000
0100
0010
0000
1000
0001
1000
0000
,
0010
0100
0010
1000
0001
0000
1001
0000
,
0010
1010
0001
0101
,
0001
0010
1000
0000
0001
1000
0001
0000
,
0100
0000
1100
0000
0001
0001
0100
0000
,
0010
0000
1000
0000
0001
0100
0010
0000
,
1000
1001
0010
1010
,
0100
0001
0100
0000
1000
0001
1000
0000
,
0010
0110
0001
0011
,
0100
1000
0100
1000
0100
0000
0110
0000
,
0001
0000
1001
0000
0100
0010
0100
0000
,
0001
1010
0100
1100
,
0001
0100
0001
0000
1000
0010
0100
0000
,
0001
1000
0100
0000
0010
0010
0100
0000
,
1000
0001
1000
0010
0100
0010
0100
0000
,
1001
1001
1010
1010
,
0100
0000
0001
0000
0010
1000
0010
0000
,
0100
0000
0001
0000
1000
0010
1000
0000
,
0001
0100
0010
0000
1000
0001
1000
0000
,
0010
0100
1000
0000
0001
0010
0100
0000
,
0001
0000
1000
0000
1000
0100
0010
0000
,
1000
0000
0001
0000
1000
0100
0010
0000
,
1000
0000
0001
0000
0100
0010
0001
0000
,
1000
0010
1000
1000
,
0001
0100
1010
1010
,
0001
0100
0010
0000
1000
0001
1000
0000
,
0010
1010
0100
0101
,
0010
1000
0010
0000
0100
0001
1000
0010
,
0100
0000
0001
0000
1000
0010
1000
0000
,
0001
0000
0011
0000
1000
0010
0100
0000
,
0001
1000
0010
0000
0100
0001
1000
0000
,
0010
1010
0100
0101
,
0010
1000
0010
0000
0100
0001
0011
0000
,
1000
0000
0010
0000
0100
1000
1100
0000
,
0001
0011
0100
1100
,
0001
0100
0001
0000
1000
0010
0100
0001
,
0100
0000
1001
0000
0100
1000
0001
0000
,
0101
0000
1000
0001
0100
0010
1000
0000
,
1001
0000
0010
0100
0001
1000
1001
0000
,
0010
0000
0100
0000
1000
0001
0100
0010
,
1010
0000
0001
0000
0100
0001
0100
0000
,
0001
0000
1000
0010
1000
0000
1001
0000
,
0010
0100
0010
0000
1001
0000
1001
0000
,
0100
1000
0100
0000
0001
0010
0001
0000
,
1000
0000
1010
0000
1000
0100
0010
0000
,
0001
0000
0100
0001
0010
0000
0100
0000
,
1000
0001
1000
0000
1001
0000
1001
0000
,
0100
0010
1000
0000
0001
0100
0010
0000
,
1001
0010
1000
0001
,
1001
0000
0000
0000
;

//---------------dance-single - Copied from ----------------
#NOTES:
     dance-single:
     Copied from:
     Hard:
     9:
     0.645,0.676,0.646,0.218,0.383: // measure 1
0000
0000
0000
0000
,  // measure 2
0000
0000
0000
0000
,  // measure 3
0000
0000
0000
0000
,  // measure 4
0000
0000
0000
0000
,  // measure 5
1000
0001
1000
0010
1000
0100
1100
0000
,  // measure 6
0001
0100
0010
1000
0001
0100
1000
0010
,  // measure 7
0011
0001
1000
0010
1000
1001
1001
0000
,  // measure 8
0010
0100
0010
1000
0001
1000
1001
0000
,  // measure 9
0010
0100
1000
0100
0010
0001
1001
0000
,  // measure 10
0010
0100
1000
0100
0001
1000
1001
0010
,  // measure 11
0101
0010
0100
1000
0001
1000
1001
0000
,  // measure 12
0100
0010
0100
0010
0001
1000
1001
0000
,  // measure 13
0010
0100
0001
1000
0010
0100
1001
0000
,  // measure 14
0100
0010
1000
0100
0010
0001
1001
0000
,  // measure 15
0100
0010
0100
1000
0001
1000
1001
0000
,  // measure 16
0010
0100
1000
0200
0000
0000
0301
0000
,  // measure 17
1010
2010
0010
3010
,  // measure 18
0001
0000
0100
0000
0010
0000
1000
0010
0001
0010
1000
0010
0001
0010
1000
0000
,  // measure 19
0000
0100
0011
1001
,  // measure 20
0100
0010
0100
0010
0001
0010
1000
0100
1000
0000
0000
0000
1001
0000
0000
0000
,  // measure 21
0010
0100
0010
0100
1000
0100
0001
0010
0001
0000
0000
0000
1001
0000
0000
0000
,  // measure 22
1100
0000
0000
0110
0000
0000
0101
0000
0000
0001
1000
0000
0001
0000
0110
0000
,  // measure 23
0110
0000
0000
1000
0001
0010
0100
0000
0001
0010
0100
0010
1000
0000
0000
0000
,  // measure 24
0001
0010
0001
0000
0100
0010
0100
0010
1000
0000
0000
0000
1001
0000
0000
0000
,  // measure 25
0010
0100
0010
0000
0100
0010
0100
0000
0001
1000
0001
1000
0001
0000
0000
0000
,  // measure 26
0100
0000
0000
1010
0000
0000
0101
0000
0000
1010
0000
0000
0011
0000
1010
0000
,  // measure 27
0200
0302
2003
3010
,  // measure 28
0100
0001
1000
0010
0100
0000
1001
0000
,  // measure 29
1000
0010
1000
0001
1000
0010
1001
0000
,  // measure 30
0010
0000
0000
1010
0000
0000
0101
0000
0000
0110
0000
0000
1001
0000
0010
0000
,  // measure 31
0110
0000
1000
0001
1000
0000
1010
0000
,  // measure 32
0001
0100
0010
1000
0001
0000
1010
0000
,  // measure 33
0000
0100
0001
0100
0001
0000
0100
0010
0100
0000
0010
1000
0010
0000
0000
0000
,  // measure 34
1100
0000
0000
0101
0000
0000
0110
0000
0000
1010
0000
0000
1000
0000
1001
0000
,  // measure 35
0100
0100
0100
0010
0100
0001
0101
0000
,  // measure 36
1000
1000
1000
0001
1000
0001
1100
0000
,  // measure 37
0010
0010
0010
1000
0001
0100
1001
0000
,  // measure 38
0000
0001
0001
0001
1000
0001
0011
0000
,  // measure 39
0000
1000
1000
1000
0010
0100
0110
0000
,  // measure 40
0000
1000
1000
1000
0001
0100
0101
0000
,  // measure 41
0000
0010
0100
0001
1000
0010
0110
0000
,  // measure 42
0001
1000
0001
1000
0001
1000
0001
1000
,  // measure 43
0100
0010
0000
0000
0100
0010
0001
1000
0001
1000
0001
1000
0001
0000
0000
0000
,  // measure 44
1000
0100
0000
0000
1000
0100
0000
0001
0010
0001
0010
0001
0010
0000
0000
0000
,  // measure 45
1000
0010
0000
0000
1000
0010
0000
0001
0100
0001
0100
0001
0100
0001
0000
0000
,  // measure 46
1000
0100
0010
0000
1000
0001
0010
0100
1000
0000
0001
0010
1000
0000
0010
0000
,  // measure 47
1010
0000
0000
0000
0001
0010
0000
0000
0001
1000
0000
0000
0001
0100
0000
0000
,  // measure 48
1000
0010
0000
0000
1000
0010
0000
0001
1000
0001
0100
0001
1000
0000
0000
0000
,  // measure 49
0010
0100
0000
0000
0010
1000
0000
0001
0010
0001
1000
0001
0010
0000
0000
0000
,  // measure 50
1000
0100
0000
0000
1000
0000
0010
0001
0010
0100
1000
0001
0010
1000
0001
0000
,  // measure 51
0101
0000
0000
0000
1000
0100
0000
0000
0010
0001
0000
0000
1001
0000
0000
0000
,  // measure 52
0120
0230
1300
1001
,  // measure 53
0021
0230
0301
1001
,  // measure 54
0110
0000
0010
0001
0010
0000
0000
1000
0100
0010
0001
1000
0100
0010
0001
0000
,  // measure 55
1001
0120
0130
1010
,  // measure 56
0102
0203
0310
1001
,  // measure 57
0210
0302
2003
3002
,  // measure 58
0103
0000
0000
0000
1000
0000
0100
0010
0001
0010
0100
1000
0001
0010
0100
0000
,  // measure 59
1001
0200
1300
1001
,  // measure 60
0020
0000
0000
0000
0130
0000
0000
0100
1000
0100
0000
0000
1001
0000
0000
0000
,  // measure 61
0021
0230
0310
1001
,  // measure 62
0102
0000
0000
0000
0103
0000
0001
0010
1000
0100
0001
0010
0001
0000
0000
0000
,  // measure 63
0110
1020
0031
1001
,  // measure 64
0010
0000
0000
0000
0100
0000
0000
0010
0100
0010
0000
0000
1001
0000
0000
0000
,  // measure 65
0102
2003
3010
1001
,  // measure 66
0120
0000
0000
0000
0130
0000
0000
0001
1000
0001
0100
0001
1000
0001
0100
0000
,  // measure 67
1001
0010
0100
2002
,  // measure 68
3003
0000
0000
0000
;
