#TITLE:yellow head joe;
#SUBTITLE:;
#ARTIST:S-C-U;
#TITLETRANSLIT:;
#SUBTITLETRANSLIT:;
#ARTISTTRANSLIT:;
#GENRE:;
#CREDIT:Silverhawke;
#MENUCOLOR:;
#METERTYPE:DDR;
#BANNER:yellow head joe.png;
#BACKGROUND:yellow head joe-bg.png;
#LYRICSPATH:;
#CDTITLE:cdtitle.png;
#MUSIC:yellow head joe.mp3;
#OFFSET:-0.028;
#SAMPLESTART:52.140;
#SAMPLELENGTH:15.000;
#SELECTABLE:YES;
#LISTSORT:;
#BPMS:0.000=187.000;
#STOPS:;
#BGCHANGES:;
#ATTACKS:;

//---------------dance-single - ----------------
#NOTES:
     dance-single:
     :
     Hard:
     13:
     0.669,0.672,0.236,0.133,0.548:
0000
0000
0000
0000
,
0000
0000
0000
0000
,
0000
0000
0000
0000
,
0000
0000
0000
0000
,
0000
0000
0000
0000
0001
0101
0000
1100
,
0000
0001
0010
0100
1000
0001
0000
0001
,
0010
0100
1000
0001
1000
1100
0000
0101
,
0000
1000
0010
0100
0010
0010
0000
1000
,
0010
0100
0010
0010
0000
1001
0000
0000
,
1000
0001
0000
0000
0100
0000
0000
0010
0000
0000
0100
0000
0000
0001
0000
0000
,
0010
0000
0000
0100
0000
0000
0010
0000
0000
0001
0000
0000
1000
0000
0010
0000
,
0000
0100
0000
0000
0010
0000
0000
1000
0000
0000
0001
0000
0000
0010
0000
0000
,
0001
0000
0000
0100
0000
0000
0010
0000
0000
1000
0000
0000
0100
0000
0010
0000
,
0000
0100
0000
0000
1000
0000
0000
0001
0000
0000
0100
0000
0000
0010
0000
0000
,
0100
0000
0000
0001
0000
0000
1000
0000
0000
0100
0000
0000
0010
0000
0100
0000
,
0000
1000
0000
0000
0001
0000
0000
0100
0000
0000
0001
0000
0000
1000
0000
0000
,
0001
0000
0000
0100
0000
0000
0010
0000
0000
0100
0000
0000
0010
0000
1000
0000
,
0000
0100
0000
0000
0010
0000
0000
0100
0000
0000
1000
0000
0000
0001
0000
0000
,
0100
0000
0000
0001
0000
0000
0010
0000
0000
0100
0000
0000
1000
0000
0010
0000
,
0000
0100
0000
0000
0001
0000
0000
1000
0000
0000
0100
0000
0000
0010
0000
0000
,
0100
0000
0000
1000
0000
0000
0001
0000
0000
0100
0000
0000
0010
0000
0100
0000
,
0000
0001
0000
0000
0010
0000
0000
0001
0000
0000
0100
0000
0000
0010
0000
0000
,
1000
0000
0000
0100
0000
0000
1000
0000
0000
0010
0000
0000
0100
0000
0001
0000
,
0000
1000
0000
0000
0100
0000
0000
1000
0000
0000
0001
0000
0000
0100
0000
0000
,
0010
0000
0000
0100
0000
0000
0001
0000
0000
0010
0000
0000
0100
0000
1000
0000
,
0001
0100
0010
0100
0001
1000
0010
1000
,
0000
0100
0010
0100
1000
0001
0100
0010
,
0100
0001
1000
0010
0000
0010
0100
0001
,
1000
0010
0000
0010
0100
0001
1000
0100
,
0010
0100
1000
0100
0010
0001
1000
0001
,
0000
0100
0001
1000
0100
0010
0001
1000
,
0001
0000
0000
0001
0000
0000
0001
0000
0010
0000
0000
0010
0000
0000
0100
0000
,
1000
0000
0000
0001
0000
0000
0100
0000
0010
0000
0100
0000
0002
0000
0000
0000
,
1003
0010
1000
0100
0010
0001
0010
0100
,
0000
1000
0001
1000
0001
0100
0010
1000
,
0100
0010
0001
1000
0000
1000
0100
0010
,
0001
1000
0000
1000
0100
0010
0001
1000
,
0010
0100
0001
0100
0010
1000
0001
0010
,
0000
0100
1000
0100
0010
0001
0100
0010
,
0110
1010
0000
0101
0000
0011
0000
1100
,
0000
0110
1001
0000
0000
0001
0001
0100
,
0010
0000
0000
0010
0000
0000
0020
0000
0000
0000
1030
0000
1000
0000
0100
0000
,
0010
0000
0000
0010
0000
0000
0020
0000
0000
0000
0031
0000
0001
0000
0100
0000
,
0010
0000
0000
0010
0000
0000
2000
0000
0000
0000
3010
0000
0100
0000
0010
0000
,
1000
0100
0010
0001
1000
0100
0100
1000
,
0010
0000
0000
0010
0000
0000
0020
0000
0000
0000
0130
0000
0100
0000
0001
0000
,
0010
0000
0000
0010
0000
0000
0020
0000
0000
0000
0130
0000
1000
0000
0001
0000
,
0100
0000
0000
0100
0000
0000
0010
0000
0000
0010
0000
0000
1000
0000
0000
1000
,
0000
0000
0001
0000
0000
0002
0000
0000
0000
0000
1003
0000
1000
0000
0100
0000
,
0010
0000
0000
0010
0000
0000
0020
0000
0000
0000
0031
0000
0001
0000
0100
0000
,
0010
0000
0000
0010
0000
0000
0020
0000
0000
0000
1030
0000
1000
0000
0100
0000
,
0010
0000
0000
0010
0000
0000
0002
0000
0000
0000
1003
0000
0100
0000
1000
0000
,
0010
0100
0001
1000
0010
0100
0100
0001
,
1000
0000
0000
1000
0000
0000
2000
0000
0000
0000
3100
0000
0100
0000
1000
0000
,
0001
0000
0000
0001
0000
0000
0002
0000
0000
0000
0103
0000
0100
0000
0001
0000
,
1000
0000
0000
1000
0000
0000
1000
0000
0000
0100
0000
0000
1000
0000
0000
0002
,
0000
0000
0000
0003
,
1000
0100
0000
1000
0100
0000
0000
0010
0000
0000
0010
0000
0000
0010
0000
0000
,
0001
0000
0000
0001
0000
0000
1000
0000
0000
1000
0000
0000
0100
0000
0010
0000
,
0001
0100
0000
0001
0100
0000
0000
0010
0000
0000
0010
0000
0000
0010
0000
0000
,
1000
0000
0000
1000
0000
0000
0100
0000
0000
0100
0000
0000
0010
0000
0001
0000
,
1000
0010
0000
1000
0010
0000
0000
0100
0000
0000
0100
0000
0000
0100
0000
0000
,
0001
0000
0000
0001
0000
0000
0010
0000
0000
0010
0000
0000
0100
0000
1000
0000
,
0001
0010
0000
0001
0010
0000
0000
0100
0000
0000
1000
0000
0000
0100
0000
0000
,
0010
0000
0000
0001
0000
0000
0100
0000
0000
0010
0000
0000
1000
0000
0010
0000
,
0100
0001
0000
0100
0010
0000
0000
1000
0000
0000
0001
0000
0000
0010
0000
0000
,
0001
0000
0000
0100
0000
0000
0010
0000
0000
1000
0000
0000
0100
0000
0010
0000
,
0100
1000
0000
0001
1000
0000
0000
0010
0000
0000
0100
0000
0000
0001
0000
0000
,
1000
0000
0000
0100
0000
0000
0010
0000
0000
0001
0000
0000
0100
0000
0010
0000
,
1000
0001
0000
0100
0001
0000
0000
0010
0000
0000
0100
0000
0000
1000
0000
0000
,
0001
0000
0000
0100
0000
0000
0001
0000
0000
1000
0000
0000
0100
0000
0010
0000
,
0000
0011
0000
0000
0101
0000
0000
1100
0000
0000
1010
0000
0000
0101
0000
0000
,
1100
0000
0000
0011
0000
0000
1010
0000
0000
0101
0000
0000
0110
0000
1001
0000
;

//---------------dance-single - ----------------
#NOTES:
     dance-single:
     :
     Challenge:
     15:
     0.937,1.000,0.389,0.123,1.000:
0000
0000
0000
0000
,
0000
0000
0000
0000
,
0000
0000
0000
0000
,
0000
0000
0000
0000
,
0000
0000
0000
0000
1000
1100
0000
0011
,
0000
0001
0010
0100
1000
0001
0000
0001
,
0010
0100
1000
0001
0100
0110
0000
1001
,
0000
0000
0001
0100
0001
0000
0010
0000
0100
0000
0100
0000
0000
0000
1000
0100
,
1000
0010
0100
0100
0001
1001
0000
0000
,
0001
0010
0000
0001
0010
0000
0100
1000
0000
0100
1000
0000
0010
0100
0000
0000
,
0001
0100
0000
0001
0100
0000
0010
1000
0000
0010
1000
0000
0100
0000
0010
0000
,
0100
1000
0000
0100
1000
0000
0001
0100
0000
0001
0100
0000
0001
0010
0000
0000
,
0100
1000
0000
0100
1000
0000
0001
0100
0000
0001
0100
0000
0010
0000
0100
0000
,
0001
0010
0000
0001
0010
0000
0100
1000
0000
0100
1000
0000
0010
0100
0000
0000
,
0001
0010
0000
0001
0010
0000
0001
0100
0000
0001
0100
0000
0010
0000
1000
0000
,
0100
1000
0000
0010
1000
0000
0100
1000
0000
0010
1000
0000
0001
0100
0000
0000
,
0001
0010
0000
0001
0100
0000
0010
1000
0000
0010
0100
0000
0001
0000
0010
0000
,
0100
1000
0000
0100
0010
0000
0001
0010
0000
0001
0100
0000
0010
1000
0000
0000
,
0001
0010
0000
0001
0100
0000
0010
1000
0000
0100
1000
0000
0010
0000
0100
0000
,
0001
0010
0000
0001
0100
0000
0010
1000
0000
0100
1000
0000
0010
0100
0000
0000
,
0001
1000
0000
0100
1000
0000
0010
0100
0000
0001
0010
0000
0001
0000
0100
0000
,
0010
0100
0000
0001
0010
0000
0001
0100
0000
0010
1000
0000
0100
0010
0000
0000
,
0100
1000
0000
0001
0100
0000
0001
0010
0000
0001
1000
0000
0010
0000
1000
0000
,
0100
0010
0000
0100
1000
0000
0100
0010
0000
0100
1000
0000
0100
0010
0000
0000
,
0001
0100
0000
0001
0010
0000
0001
0100
0000
0001
0010
0000
0001
0000
1000
0000
,
1100
0000
0011
0000
1100
0100
0110
0000
,
0010
0001
0100
0010
0100
0001
0010
0100
,
1000
0001
0100
0010
0000
0010
1000
0001
,
0100
0010
0000
0010
1000
0001
0100
0010
,
1001
0000
1010
0000
0101
0001
0011
0000
,
0100
1000
0010
0100
0010
1000
0100
0010
,
0001
0000
1000
0001
0000
1000
0001
0000
1000
0000
0001
1000
0000
0001
0100
0000
,
0010
0000
1000
0100
0000
1000
0010
0000
0100
0000
0001
0000
1000
0000
0000
0000
,
0110
0000
1010
0000
0011
0010
0110
0000
,
0100
1000
0010
0100
0001
0010
0100
1000
,
0001
0100
0010
1000
0000
1000
0001
0100
,
0010
1000
0000
1000
0001
0100
0010
1000
,
0101
0000
0011
0000
1100
1000
1001
0000
,
0100
0000
0001
0000
0010
0000
0100
0000
0010
0000
0001
0000
0100
0010
1000
0010
,
1000
1100
0000
0011
0000
0101
0000
1010
,
0000
0000
0110
0000
1001
0000
0000
0000
0000
0000
1000
0100
1000
0100
0010
0001
,
1000
0000
0000
1000
0000
0000
2000
0000
0000
0000
3001
0100
0001
0100
0010
1000
,
0001
0000
0000
0001
0000
0000
0002
0000
0000
0000
1003
0100
1000
0100
0010
0001
,
1000
0000
0000
1000
0000
0000
0020
0000
0000
0000
1030
0000
0100
0000
1000
0000
,
0001
0010
0100
1000
0001
0010
0100
1000
0100
0010
0001
1000
0100
0010
0001
1000
,
0100
0000
0000
0100
0000
0000
0200
0000
0000
0000
1300
0010
1000
0010
0100
0001
,
0100
0000
0000
0100
0000
0000
0200
0000
0000
0000
0301
0010
0001
0010
0100
1000
,
0100
0000
0000
0100
0000
0000
1000
0000
0000
1000
0000
0000
0001
0000
0000
0001
,
0000
0000
1000
0000
0000
2000
0000
0000
0000
0000
3001
1000
0001
1000
0100
0010
,
0001
0000
0000
0001
0000
0000
0002
0000
0000
0000
1003
0001
1000
0001
0100
0010
,
1000
0000
0000
1000
0000
0000
2000
0000
0000
0000
3001
1000
0001
1000
0010
0100
,
0001
0000
0000
0001
0000
0000
0020
0000
0000
0000
0031
0000
0100
0000
0001
0000
,
1000
0100
0010
0001
1000
0100
0010
0001
0010
0100
1000
0001
0010
0100
1000
0001
,
0100
0000
0000
0100
0000
0000
0200
0000
0000
0000
0310
1000
0001
1000
0010
0100
,
0001
0000
0000
0001
0000
0000
0002
0000
0000
0000
1003
0100
1000
0001
0100
0010
,
1000
0000
0000
1000
0000
0000
0100
0000
0000
0010
0000
0000
0100
0000
0000
2000
,
0000
0000
0000
3000
,
0001
0010
0000
0100
1000
0000
0010
0100
0000
0001
0010
0000
0001
0100
0000
0000
,
0010
1000
0000
0100
0010
0000
0100
1000
0000
0001
0100
0000
0010
0000
1000
0000
,
0001
0010
0000
0001
0100
0000
0010
1000
0000
0100
0010
0000
0100
1000
0000
0000
,
0001
0100
0000
0001
0010
0000
0100
1000
0000
0001
0100
0000
0010
0000
0100
0000
,
0001
0010
0000
0100
1000
0000
0010
0100
0000
0010
1000
0000
0100
0010
0000
0000
,
0001
0010
0000
0001
0100
0000
0010
1000
0000
0100
0010
0000
0100
0000
1000
0000
,
0001
0010
0000
0001
0100
0000
0010
1000
0000
0100
0010
0000
0100
1000
0000
0000
,
0001
0100
0000
0010
0100
0000
0001
1000
0000
0100
0010
0000
0100
0000
1000
0000
,
0001
0010
0000
0001
0100
0000
0010
1000
0000
0100
0010
0000
0100
1000
0000
0000
,
0001
0100
0000
0010
1000
0000
0001
0010
0000
0100
1000
0000
0100
0000
0010
0000
,
0001
0100
0000
0010
1000
0000
0100
1000
0000
0010
0100
0000
0001
0010
0000
0000
,
0001
0100
0000
0010
1000
0000
0100
0010
0000
0100
1000
0000
0001
0000
0100
0000
,
0001
0010
0000
0100
1000
0000
0100
0010
0000
0001
0010
0000
0100
1000
0000
0000
,
0010
0100
0000
0001
0100
0000
0010
1000
0000
0001
0100
0000
0010
0000
0100
0000
,
0000
0011
0000
0000
1001
0000
0000
0101
0000
0000
1010
0000
0000
1001
0000
0000
,
1100
0000
0000
0011
0000
0000
1010
0000
0000
1100
0000
0000
0101
0000
1001
0000
;

//---------------dance-single - ----------------
#NOTES:
     dance-single:
     :
     Medium:
     9:
     0.471,0.485,0.031,0.164,0.026:
0000
0000
0000
0000
,
0000
0000
0000
0000
,
0000
0000
0000
0000
,
0000
0000
0000
0000
,
0000
0000
0000
0000
0001
1000
0000
0200
,
0000
0000
0310
0000
0001
0100
0000
0100
,
0001
0000
1000
0100
0000
1000
0000
0002
,
0000
0000
1003
0000
1000
0100
0000
0010
,
0100
0000
1000
0100
0000
0010
0000
0000
,
0001
0001
0100
0100
,
1000
1000
0010
0010
,
0001
0001
0010
0010
,
1000
1000
0100
0100
,
0001
0001
0010
0010
,
1000
1000
0100
0100
,
0001
0001
0100
0100
,
1000
1000
0010
0010
,
0001
0100
1000
0100
,
0001
0100
1000
0100
,
0001
0010
1000
0010
,
0001
0010
1000
0010
,
0001
0100
0010
0100
,
1000
0000
0100
0000
0010
0100
0001
0000
,
2000
0000
0000
0000
,
3000
0000
0000
0000
,
0001
0100
0001
0100
,
0001
0100
0010
0000
1000
0000
0100
0000
,
0010
0000
0100
1000
0000
1000
0100
0000
,
0100
1000
0000
1000
0100
0000
0010
0000
,
0001
0100
0010
0100
,
1000
0100
0001
1000
,
0100
0010
0001
0000
0100
0010
1000
0000
,
0001
1000
1001
0110
,
1000
0100
0010
0100
,
1000
0001
1000
0000
0001
0000
0100
0000
,
0010
0000
1000
0001
0000
0001
1000
0000
,
1000
0001
0000
0001
1000
0000
0100
0000
,
0010
0000
0001
0000
0100
0010
0100
0000
,
0001
0000
1000
0000
0100
0010
0100
0000
,
1000
0001
0000
0100
0000
0010
0000
0110
,
0000
1000
0001
0000
0000
0000
1000
0000
,
0002
0100
1003
0100
,
2000
0100
3001
0100
,
0002
0100
1003
0100
,
1000
0100
0010
0000
0001
0000
1000
0000
,
2000
0100
3001
0100
,
0002
0100
1003
0100
,
2000
0100
3001
0100
,
0001
0100
0010
0000
1000
0000
0001
0000
,
0002
0010
1003
0010
,
2000
0010
3001
0010
,
0002
0010
1003
0010
,
1000
0010
0100
0000
0001
0000
1000
0000
,
2000
0010
3001
0010
,
0002
0010
1003
0010
,
2000
0010
3001
0010
,
0002
0000
0000
0003
,
1000
0000
1000
0000
0100
0010
0100
0000
,
1000
0000
0100
0000
0010
0001
1000
0000
,
0001
0000
0001
0000
0100
0010
0100
0000
,
0010
0000
1000
0000
0100
0010
0001
0000
,
0001
0000
0001
0000
0100
0010
0100
0000
,
0001
0000
0100
0000
0010
1000
0100
0000
,
1000
0000
1000
0000
0100
0010
0100
0000
,
1000
0100
0010
0001
,
0100
0010
0100
0000
0010
0100
0010
0000
,
0100
0001
1000
0000
0010
1000
0100
0000
,
0010
0100
0010
0000
0100
0010
0100
0000
,
0010
0001
1000
0000
0100
1000
0010
0000
,
0010
0100
0010
0000
0100
0010
0100
0000
,
1000
0100
0001
0000
0100
1000
0010
1000
,
0000
1000
0000
0000
1000
0000
0000
0001
0000
0000
0001
0000
0000
0001
0000
0000
,
1000
0000
0000
1000
0000
0000
1000
0000
0000
0001
0000
0000
0001
0000
0001
0000
;

//---------------dance-single - ----------------
#NOTES:
     dance-single:
     :
     Easy:
     6:
     0.343,0.336,0.051,0.031,0.000:
0000
0000
0000
0000
,
0000
0000
0000
0000
,
0000
0000
0000
0000
,
0000
0000
0000
0000
,
0000
0000
0000
0000
0000
0001
0000
0001
,
0000
1000
0001
1000
,
0010
0000
0010
0000
0000
1000
0000
1000
,
0000
0001
1000
0001
,
0010
0000
0010
0000
0000
0100
0000
0000
,
1000
1000
1000
1000
,
0100
0100
0100
0100
,
0001
0001
0001
0001
,
0010
0010
0010
0010
,
1000
1000
1000
1000
,
0010
0010
0010
0010
,
0001
0001
0001
0001
,
0100
0100
0100
0100
,
1000
1000
0001
0001
,
1000
1000
0001
0001
,
0100
0100
0010
0010
,
0100
0100
0010
0010
,
1000
1000
0001
0001
,
0010
0010
0100
0100
,
1000
0000
0000
0000
,
0000
0000
0000
0000
,
0001
0100
0001
0001
,
1000
0000
0001
0000
1000
0100
1000
0000
,
0001
0000
0000
0100
0000
0000
0001
0000
,
0000
0100
0000
0000
0001
0000
0100
0000
,
0001
0100
0001
0001
,
1000
0100
1000
1000
,
0001
0000
1000
0000
,
0001
1000
0100
0100
,
1000
0100
0010
0010
,
0100
0000
1000
0000
0001
1000
0001
0000
,
1000
0000
0000
0100
0000
0000
1000
0000
,
0000
0100
0000
0000
1000
0000
0100
0000
,
1000
0010
1000
1000
,
0001
0100
0001
0010
,
0110
0000
0000
0000
,
0000
0000
0000
1000
,
0001
0001
0001
1000
,
0001
0001
0001
1000
,
0001
0001
0001
0100
,
0020
0000
0030
1000
,
0001
0001
0001
1000
,
0001
0001
0001
1000
,
0001
0001
0001
0100
,
0010
1000
0000
0001
,
1000
1000
1000
0001
,
1000
1000
1000
0001
,
1000
1000
1000
0100
,
0020
0000
0030
0001
,
1000
1000
1000
0001
,
1000
1000
1000
0001
,
1000
1000
1000
0100
,
0020
0000
0000
0030
,
1001
0000
0000
0000
,
0100
0000
0000
0010
,
0110
0000
0000
0000
,
1001
0000
0000
0100
,
0110
0000
0000
0000
,
1000
0000
0000
0001
,
1000
0000
0000
0000
,
0100
0000
0010
0001
,
1000
0100
1000
0100
,
0010
0001
0010
0001
,
1000
0010
1000
0010
,
0100
0001
0100
0001
,
0010
0100
0010
0100
,
1000
0000
0001
0000
1000
0000
0001
0100
,
0000
0000
0100
0000
0000
0100
0000
0000
,
0100
0000
0000
0100
0000
0000
0100
0100
;

//---------------dance-single - ----------------
#NOTES:
     dance-single:
     :
     Beginner:
     1:
     0.127,0.187,0.000,0.164,0.000:
0000
0000
0000
0000
,
0000
0000
0000
0000
,
0000
0000
0000
0000
,
0000
0000
0000
0000
,
0000
0000
0000
0000
,
0000
1000
0000
1000
,
0000
0001
0000
0000
,
0000
0001
0000
0001
,
0000
1000
0000
0000
,
0001
0000
0000
0000
,
0001
0000
0000
0000
,
1000
0000
0000
0000
,
1000
0000
0000
0000
,
0100
0000
0000
0000
,
0100
0000
0000
0000
,
0010
0000
0000
0000
,
0010
0000
0000
0000
,
0001
0000
0000
0000
,
0100
0000
0000
0000
,
1000
0000
0000
0000
,
0010
0000
0000
0000
,
0001
0000
0000
0000
,
0010
0000
0000
0000
,
1000
0000
0000
0000
,
0100
0000
0000
0000
,
0001
0000
0000
0000
,
0001
0000
0001
0000
,
0002
0000
0000
0000
,
0003
0000
0000
0000
,
1000
0000
0000
0000
,
1000
0000
1000
0000
,
2000
0000
0000
0000
,
3000
0000
0000
0000
,
0010
0000
0000
0000
,
0010
0000
0010
0000
,
0020
0000
0000
0000
,
0030
0000
0000
0000
,
0100
0000
0000
0000
,
0100
0000
0100
0000
,
0100
0000
0000
0000
,
0000
0000
0000
0000
,
0002
0000
0003
0000
,
0002
0000
0003
0000
,
0002
0000
0003
0000
,
0001
0000
0000
0000
,
2000
0000
3000
0000
,
2000
0000
3000
0000
,
2000
0000
3000
0000
,
1000
0000
0000
0000
,
0020
0000
0030
0000
,
0020
0000
0030
0000
,
0020
0000
0030
0000
,
0010
0000
0000
0000
,
0200
0000
0300
0000
,
0200
0000
0300
0000
,
0200
0000
0300
0000
,
0100
0000
0000
0000
,
0001
0000
0000
0000
,
1000
0000
0000
0000
,
0001
0000
0000
0000
,
1000
0000
0000
0000
,
0001
0000
0000
0000
,
1000
0000
0000
0000
,
0001
0000
0000
0000
,
1000
0000
0000
0000
,
0010
0000
0000
0000
,
0100
0000
0000
0000
,
0010
0000
0000
0000
,
0100
0000
0100
0000
,
0010
0000
0000
0000
,
0100
0000
0100
0000
,
0020
0000
0000
0000
,
0000
0000
0000
0000
0000
0000
0000
0030
;

//---------------dance-double - ----------------
#NOTES:
     dance-double:
     :
     Hard:
     13:
     0.678,0.672,0.225,0.143,0.528:
00000000
00000000
00000000
00000000
,
00000000
00000000
00000000
00000000
,
00000000
00000000
00000000
00000000
,
00000000
00000000
00000000
00000000
,
00000000
00000000
00000000
00000000
00000001
00000101
00000000
00001100
,
00000000
00001000
00000100
00010000
00001000
00100000
00000000
00100000
,
00010000
10000000
01000000
00100000
00010000
01010000
00000000
11000000
,
00000000
10000000
00010000
01000000
00100000
00100000
00000000
10000000
,
00010000
01000000
00100000
00100000
01000000
01001000
00000000
00000000
,
00010000
00001000
00000000
00000000
00001000
00000000
00000000
00010000
00000000
00000000
01000000
00000000
00000000
00010000
00000000
00000000
,
00001000
00000000
00000000
00000100
00000000
00000000
00000010
00000000
00000000
00001000
00000000
00000000
00000100
00000000
00010000
00000000
,
00001000
01000000
00000000
00000000
00010000
00000000
00000000
10000000
00000000
00000000
01000000
00000000
00000000
10000000
00000000
00000000
,
00100000
00000000
00000000
01000000
00000000
00000000
00001000
00000000
00000000
00010000
00000000
00000000
00000100
00000000
00000010
00000000
,
00000001
00000100
00000000
00000000
00000001
00000000
00000000
00001000
00000000
00000000
00000100
00000000
00000000
00010000
00000000
00000000
,
00001000
00000000
00000000
01000000
00000000
00000000
00100000
00000000
00000000
10000000
00000000
00000000
01000000
00000000
00100000
00000000
,
01000000
10000000
00000000
00000000
00010000
00000000
00000000
01000000
00000000
00000000
00001000
00000000
00000000
00010000
00000000
00000000
,
00000100
00000000
00000000
00001000
00000000
00000000
00000010
00000000
00000000
00000100
00000000
00000000
00000001
00000000
00000010
00000000
,
00000100
00001000
00000000
00000000
00000100
00000000
00000000
00010000
00000000
00000000
00001000
00000000
00000000
01000000
00000000
00000000
,
00010000
00000000
00000000
00100000
00000000
00000000
00010000
00000000
00000000
01000000
00000000
00000000
00100000
00000000
10000000
00000000
,
01000000
00100000
00000000
00000000
01000000
00000000
00000000
10000000
00000000
00000000
00010000
00000000
00000000
01000000
00000000
00000000
,
00001000
00000000
00000000
00010000
00000000
00000000
00000100
00000000
00000000
00000010
00000000
00000000
00000001
00000000
00000100
00000000
,
00000010
00001000
00000000
00000000
00000010
00000000
00000000
00010000
00000000
00000000
00001000
00000000
00000000
00010000
00000000
00000000
,
00100000
00000000
00000000
01000000
00000000
00000000
10000000
00000000
00000000
01000000
00000000
00000000
00010000
00000000
10000000
00000000
,
00000000
01000000
00000000
00000000
00100000
00000000
00000000
01000000
00000000
00000000
10000000
00000000
00000000
00010000
00000000
00000000
,
01000000
00000000
00000000
00001000
00000000
00000000
00010000
00000000
00000000
00001000
00000000
00000000
00000100
00000000
00000010
00000000
,
00010000
00000100
00001000
00000100
00010000
00000010
00001000
00000100
,
00000010
00000001
00000100
00001000
00010000
00100000
10000000
00010000
,
00100000
01000000
10000000
00010000
00000000
00010000
00100000
01000000
,
10000000
00010000
00000000
00010000
00100000
01000000
10000000
00010000
,
01000000
00001000
00100000
00010000
00100000
00001000
01000000
00001000
,
00010000
00000100
00000010
00000001
00000100
00001000
00010000
00100000
,
10000000
00000000
00000000
10000000
00000000
00000000
10000000
00000000
00010000
00000000
00000000
00010000
00000000
00000000
00010000
00000000
,
01000000
00000000
00000000
00001000
00000000
00000000
01000000
00000000
00010000
00000000
00000100
00000000
00000020
00000000
00000000
00000000
,
00001030
00000100
00010000
00001000
00010000
00000100
00010000
00001000
,
00100000
00010000
01000000
00010000
00100000
01000000
10000000
01000000
,
00010000
00001000
00000010
00000100
00000000
00000100
00010000
00001000
,
00000010
00000100
00000000
00000100
00010000
00001000
00000010
00000100
,
00010000
01000000
00010000
00001000
00000100
00001000
00010000
00100000
,
10000000
00010000
00100000
01000000
10000000
00010000
02000000
00000000
,
03100000
10100000
00000000
01010000
00000000
00101000
00000000
00010100
,
00000000
00001010
00000101
00000000
00000000
00000001
00000001
00000100
,
00001000
00000000
00000000
00010000
00000000
00000000
02000000
00000000
00000000
00000000
13000000
00000000
10000000
00000000
01000000
00000000
,
00010000
00000000
00000000
00001000
00000000
00000000
00000200
00000000
00000000
00000000
00000301
00000000
00000001
00000000
00000100
00000000
,
00001000
00000000
00000000
00010000
00000000
00000000
02000000
00000000
00000000
00000000
13000000
00000000
01000000
00000000
10000000
00000000
,
00010000
01000000
00001000
00100000
00010000
10000000
10000000
01000000
,
00010000
00000000
00000000
00001000
00000000
00000000
00000200
00000000
00000000
00000000
00000301
00000000
00000001
00000000
00000100
00000000
,
00001000
00000000
00000000
00010000
00000000
00000000
02000000
00000000
00000000
00000000
13000000
00000000
10000000
00000000
01000000
00000000
,
00010000
00000000
00000000
00001000
00000000
00000000
00000100
00000000
00000000
00000001
00000000
00000000
00001000
00000000
00000000
00000001
,
00000000
00000000
00000100
00000000
00000000
00000200
00000000
00000000
00000000
00000000
00000301
00000000
00000001
00000000
00000010
00000000
,
00001000
00000000
00000000
00010000
00000000
00000000
00200000
00000000
00000000
00000000
10300000
00000000
10000000
00000000
00100000
00000000
,
00010000
00000000
00000000
00001000
00000000
00000000
00000020
00000000
00000000
00000000
00000031
00000000
00000001
00000000
00000010
00000000
,
00001000
00000000
00000000
00010000
00000000
00000000
00200000
00000000
00000000
00000000
10300000
00000000
01000000
00000000
10000000
00000000
,
00100000
01000000
00001000
00100000
00010000
10000000
10000000
00100000
,
00010000
00000000
00000000
00001000
00000000
00000000
00000020
00000000
00000000
00000000
00000031
00000000
00000001
00000000
00000010
00000000
,
00001000
00000000
00000000
00010000
00000000
00000000
00200000
00000000
00000000
00000000
10300000
00000000
10000000
00000000
01000000
00000000
,
00010000
00000000
00000000
00001000
00000000
00000000
00000010
00000000
00000000
00001000
00000000
00000000
00010000
00000000
00000000
00200000
,
00000000
00000000
00000000
00300000
,
10000000
01000000
00000000
00000000
10000000
00000000
00000000
00010000
00000000
00000000
01000000
00000000
00000000
00001000
00000000
00000000
,
00010000
00000000
00000000
00000100
00000000
00000000
00000001
00000000
00000000
00000100
00000000
00000000
00010000
00000000
00001000
00000000
,
01000000
00100000
00000000
00000000
01000000
00000000
00000000
00010000
00000000
00000000
10000000
00000000
00000000
01000000
00000000
00000000
,
00010000
00000000
00000000
00001000
00000000
00000000
00000100
00000000
00000000
00000010
00000000
00000000
00010000
00000000
01000000
00000000
,
10000000
00100000
00000000
00000000
00010000
00000000
00000000
00001000
00000000
00000000
00000010
00000000
00000000
00000001
00000000
00000000
,
00000100
00000000
00000000
00000010
00000000
00000000
00010000
00000000
00000000
00001000
00000000
00000000
01000000
00000000
00001000
00000000
,
00000100
00000010
00000000
00000000
00001000
00000000
00000000
00000100
00000000
00000000
00010000
00000000
00000000
00001000
00000000
00000000
,
00100000
00000000
00000000
01000000
00000000
00000000
00100000
00000000
00000000
10000000
00000000
00000000
00100000
00000000
00001000
00000000
,
00010000
00000100
00000000
00010000
00000100
00000000
00000000
00001000
00000000
00000000
00000010
00000000
00000000
00000100
00000000
00000000
,
00000001
00000000
00000000
00001000
00000000
00000000
00000100
00000000
00000000
00010000
00000000
00000000
01000000
00000000
00100000
00000000
,
00010000
10000000
00000000
00010000
10000000
00000000
00000000
01000000
00000000
00000000
00010000
00000000
00000000
00001000
00000000
00000000
,
00000100
00000000
00000000
00000010
00000000
00000000
00010000
00000000
00000000
00100000
00000000
00000000
01000000
00000000
00001000
00000000
,
00010000
00000100
00000000
00010000
00000100
00000000
00000000
00000010
00000000
00000000
00000001
00000000
00000000
00000100
00000000
00000000
,
00000010
00000000
00000000
00001000
00000000
00000000
00000100
00000000
00000000
00010000
00000000
00000000
00000100
00000000
00000010
00000000
,
00000000
00000011
00000000
00000000
00000110
00000000
00000000
00010100
00000000
00000000
00011000
00000000
00000000
00101000
00000000
00000000
,
01100000
00000000
00000000
11000000
00000000
00000000
10100000
00000000
00000000
01100000
00000000
00000000
01001000
00000000
00011000
00000000
;

//---------------dance-double - ----------------
#NOTES:
     dance-double:
     :
     Challenge:
     15:
     0.890,1.000,0.256,0.154,0.891:
00000000
00000000
00000000
00000000
,
00000000
00000000
00000000
00000000
,
00000000
00000000
00000000
00000000
,
00000000
00000000
00000000
00000000
,
00000000
00000000
00000000
00000000
10000000
11000000
00000000
01100000
,
00000000
00100000
00001000
00010000
00000100
00000010
00000000
00000010
,
00001000
00010000
00100000
01000000
00010000
01010000
00000000
01100000
,
00000000
00000000
00100000
10000000
00100000
00000000
01000000
00000000
00001000
00000000
00001000
00000000
00000000
00000000
00010000
00000100
,
00010000
00000010
00000100
00000100
00000001
00001001
00000000
00000000
,
00000001
00000100
00000000
00000001
00000100
00000000
00000010
00001000
00000000
00000010
00001000
00000000
00000100
00010000
00000000
00000000
,
00001000
01000000
00000000
00001000
01000000
00000000
00010000
10000000
00000000
00010000
10000000
00000000
01000000
00000000
00100000
00000000
,
00010000
10000000
00000000
00010000
10000000
00000000
01000000
00100000
00000000
01000000
00100000
00000000
00001000
00010000
00000000
00000000
,
00000100
00000010
00000000
00000100
00000010
00000000
00000001
00001000
00000000
00000001
00001000
00000000
00000010
00000000
00010000
00000000
,
00001000
01000000
00000000
00001000
01000000
00000000
00010000
00100000
00000000
00010000
00100000
00000000
01000000
10000000
00000000
00000000
,
00010000
01000000
00000000
00010000
01000000
00000000
00001000
00010000
00000000
00001000
00010000
00000000
00000100
00000000
00000010
00000000
,
00000001
00000100
00000000
00000001
00001000
00000000
00000001
00000100
00000000
00000001
00001000
00000000
00000001
00000100
00000000
00000000
,
00000010
00010000
00000000
00000010
00001000
00000000
00000010
00010000
00000000
00000010
00001000
00000000
00000100
00000000
00010000
00000000
,
01000000
10000000
00000000
01000000
00100000
00000000
01000000
10000000
00000000
01000000
00100000
00000000
00001000
00010000
00000000
00000000
,
00000100
00010000
00000000
00000100
00001000
00000000
00000100
00000010
00000000
00000100
00001000
00000000
00000001
00000000
00000100
00000000
,
00000010
00001000
00000000
00000100
00001000
00000000
00000100
00010000
00000000
00001000
00100000
00000000
00010000
01000000
00000000
00000000
,
00100000
10000000
00000000
01000000
00100000
00000000
00001000
00100000
00000000
00001000
00010000
00000000
00000100
00000000
00001000
00000000
,
00000001
00000010
00000000
00000001
00001000
00000000
00000100
00001000
00000000
00000100
00010000
00000000
00001000
00100000
00000000
00000000
,
00010000
01000000
00000000
00100000
01000000
00000000
00100000
10000000
00000000
00010000
01000000
00000000
00001000
00000000
01000000
00000000
,
00020000
00000000
00000000
00000000
,
20000000
00000000
00000000
30030000
,
00010000
10000000
01000000
00010000
00001000
00000100
00000010
00010000
,
00001000
01000000
00100000
00010000
00001000
00000100
00000010
00001000
,
00000001
00000010
00000100
00001000
00000000
00001000
00000001
00000010
,
00000100
00001000
00000000
00001000
00000001
00000010
00000100
00001000
,
00001000
00000001
00000100
00001000
00010000
01000000
00100000
00001000
,
00010000
00000100
00000010
00001000
00010000
01000000
00100000
00010000
,
10000000
00000000
00100000
01000000
00000000
00100000
01000000
00000000
00010000
00000000
00100000
01000000
00000000
00100000
01000000
00000000
,
10000000
00000000
00100000
01000000
00000000
00100000
01000000
00000000
00001000
00000000
00010000
00000000
00000200
00000000
00000000
00000000
,
00001300
00000001
00000010
00001000
00010000
00100000
01000000
00001000
,
00010000
00000010
00000100
00001000
00010000
00100000
01000000
00010000
,
10000000
01000000
00100000
00010000
00000000
00010000
10000000
01000000
,
00100000
00010000
00000000
00010000
10000000
01000000
00100000
00010000
,
10000000
01000000
00010000
00001000
00000010
00001000
00010000
00100000
,
00010000
00001000
00000100
00000001
00000010
00000100
00010000
00001000
,
01001000
01010000
00000000
01100000
00000000
10100000
00000000
11000000
,
00000000
00000000
01010000
00000000
00011000
00000000
00000000
00000000
00000000
00000000
00001000
00010000
00001000
00010000
00000100
00001000
,
00000010
00000000
00000000
00000010
00000000
00000000
00000020
00000000
00000000
00000000
00010030
00001000
00010000
00001000
01000000
00010000
,
00100000
00000000
00000000
00100000
00000000
00000000
00200000
00000000
00000000
00000000
00301000
00010000
00001000
00010000
00000100
00001000
,
00000010
00000000
00000000
00000010
00000000
00000000
00000200
00000000
00000000
00000000
00000301
00000000
00001000
00000000
00000001
00000000
,
00001000
00000100
00001000
00000100
00010000
00001000
00010000
00001000
00100000
00010000
00100000
00010000
01000000
00001000
01000000
00001000
,
01000000
00000000
00000000
01000000
00000000
00000000
02000000
00000000
00000000
00000000
03001000
00010000
00001000
00010000
00000010
00001000
,
00000100
00000000
00000000
00000100
00000000
00000000
00000200
00000000
00000000
00000000
00010300
00001000
00010000
00001000
00100000
00010000
,
01000000
00000000
00000000
01000000
00000000
00000000
00100000
00000000
00000000
00100000
00000000
00000000
10000000
00000000
00000000
10000000
,
00000000
00000000
01000000
00000000
00000000
02000000
00000000
00000000
00000000
00000000
03010000
00001000
00010000
00001000
00100000
00010000
,
01000000
00000000
00000000
01000000
00000000
00000000
02000000
00000000
00000000
00000000
03001000
00010000
00001000
00010000
00000010
00001000
,
00000100
00000000
00000000
00000100
00000000
00000000
00000200
00000000
00000000
00000000
00010300
00001000
00010000
00001000
00100000
00010000
,
01000000
00000000
00000000
01000000
00000000
00000000
00200000
00000000
00000000
00000000
10300000
00000000
01000000
00000000
10000000
00000000
,
00010000
01000000
00010000
01000000
00001000
00010000
00001000
00010000
00000010
00001000
00000010
00001000
00000001
00000100
00000001
00000100
,
00000010
00000000
00000000
00000010
00000000
00000000
00000020
00000000
00000000
00000000
00010030
00000000
00001000
00000000
00010000
00000000
,
00100000
00000000
00000000
00100000
00000000
00000000
00200000
00000000
00000000
00000000
10300000
00000000
01000000
00000000
00010000
00000000
,
00001000
00000000
00000000
00000100
00000000
00000000
00001000
00000000
00000000
00010000
00000000
00000000
01000000
00000000
00000000
20000000
,
00000000
00000000
00000000
00000000
00000000
00000000
00000000
30000000
,
00010000
01000000
00000000
00010000
01000000
00000000
00001000
00010000
00000000
00001000
00010000
00000000
00000100
00001000
00000000
00000000
,
00000010
00000100
00000000
00000010
00000100
00000000
00000001
00000010
00000000
00000001
00000010
00000000
00000001
00000000
00001000
00000000
,
00000100
00000010
00000000
00000100
00000010
00000000
00001000
00010000
00000000
00001000
00010000
00000000
01000000
00100000
00000000
00000000
,
00010000
10000000
00000000
00010000
10000000
00000000
01000000
00100000
00000000
01000000
00100000
00000000
01000000
00000000
00010000
00000000
,
00001000
00010000
00000000
00001000
00010000
00000000
00000100
00001000
00000000
00000100
00001000
00000000
00000010
00000100
00000000
00000000
,
00000001
00000010
00000000
00000001
00000010
00000000
00000100
00010000
00000000
00000100
00010000
00000000
00001000
00000000
01000000
00000000
,
00100000
10000000
00000000
00100000
01000000
00000000
00100000
10000000
00000000
00100000
01000000
00000000
00010000
00100000
00000000
00000000
,
00001000
00010000
00000000
00001000
00000100
00000000
00000010
00010000
00000000
00000010
00000100
00000000
00000001
00000000
00000010
00000000
,
00000001
00000100
00001000
00010000
00100000
01000000
10000000
01000000
,
00100000
00000000
00010000
00000000
00001000
00000000
00000010
00000000
00001000
00000000
00010000
00001000
00010000
00000000
01000000
00000000
,
10000000
01000000
00010000
00001000
00000100
00000010
00000100
00001000
,
00010000
00000000
00100000
00000000
10000000
00000000
00100000
00000000
01000000
00010000
00000000
00100000
00001000
00000000
00010000
00000000
,
00010100
00000100
00000010
00000001
00000100
00001000
00010000
00100000
,
10100000
00000000
10000000
00000000
01000000
00000000
00010000
00000000
00000100
00000000
00000010
00000000
00000001
00000100
00000010
00001000
,
00000000
00000101
00000000
00000000
00000110
00000000
00000000
00010010
00000000
00000000
00011000
00000000
00000000
01001000
00000000
00000000
,
01100000
00000000
00000000
10100000
00000000
00000000
11000000
00000000
00000000
01010000
00000000
00000000
00011000
00000000
00001100
00000000
;

//---------------dance-double - ----------------
#NOTES:
     dance-double:
     :
     Medium:
     8:
     0.445,0.485,0.113,0.041,0.026: // measure 1
00000000
00000000
00000000
00000000
,  // measure 2
00000000
00000000
00000000
00000000
,  // measure 3
00000000
00000000
00000000
00000000
,  // measure 4
00000000
00000000
00000000
00000000
,  // measure 5
00000000
00000000
00000000
00000000
10000000
01000000
00000000
20000000
,  // measure 6
00000000
00000000
30010000
00000000
01000000
00001000
00000000
00000000
,  // measure 7
00010000
00000000
00001000
01000000
00000000
00100000
00000000
00200000
,  // measure 8
00000000
00000000
01300000
00000000
00001000
00010000
00000000
00000000
,  // measure 9
00000100
00000000
00010000
00001000
00000000
00011000
00000000
00000000
,  // measure 10
00010000
00010000
00001000
00001000
,  // measure 11
00000100
00000100
00000001
00000001
,  // measure 12
00000010
00000010
00001000
00001000
,  // measure 13
00010000
00010000
00100000
00100000
,  // measure 14
10000000
10000000
01000000
01000000
,  // measure 15
00010000
00010000
00001000
00001000
,  // measure 16
00000010
00000010
00000001
00000001
,  // measure 17
00000100
00000100
00001000
00001000
,  // measure 18
00010000
00010000
00100000
00100000
,  // measure 19
10000000
10000000
01000000
01000000
,  // measure 20
00010000
00010000
00001000
00001000
,  // measure 21
00000100
00000100
00000001
00000001
,  // measure 22
00000010
00000010
00001000
00001000
,  // measure 23
00010000
00010000
00100000
00100000
,  // measure 24
20000000
00000000
00000000
00000000
,  // measure 25
30000000
00000000
00000000
00000000
,  // measure 26
00010000
11000000
00010000
11000000
,  // measure 27
00010000
10000000
01000000
00000000
00010000
00000000
00001000
00000000
,  // measure 28
00000100
00000000
00000001
00001000
00000000
00001000
00000001
00000000
,  // measure 29
00000001
00001000
00000000
00001000
00000001
00000000
00000010
00000000
,  // measure 30
00000001
00001100
00000001
00001100
,  // measure 31
00010000
01000000
10000000
00010000
,  // measure 32
10000000
00000000
01000000
10000000
00100000
00000000
01000000
00010000
,  // measure 33
00100000
00000000
00001000
00010000
00000100
00001000
00000010
00000000
,  // measure 34
00001000
00000101
00001000
00000101
,  // measure 35
00001000
00010000
01000000
10000000
,  // measure 36
00010000
00000000
10000000
00010000
00000000
00010000
10000000
00000000
,  // measure 37
10000000
00010000
00000000
00010000
10000000
00000000
00010000
00000000
,  // measure 38
10000000
01010000
10000000
01010000
,  // measure 39
00001000
00000100
00000001
00001000
,  // measure 40
00000001
00000010
00000000
00000100
00000000
00010000
00000000
00001000
,  // measure 41
00000000
00100000
01000000
00000000
00000000
10000000
10000000
00000000
,  // measure 42
00010000
00000000
10000000
00000000
01000000
00010000
00001000
00000000
,  // measure 43
00000100
00000000
00000001
00000000
00001000
00000001
00000100
00000000
,  // measure 44
00000001
00000010
00001000
00010000
,  // measure 45
01000000
10000000
00010000
10000000
01000000
00000000
11000000
00000000
,  // measure 46
00010000
00000000
01000000
00000000
00001000
00010000
00000100
00000000
,  // measure 47
00001000
00000000
00000010
00000000
00000100
00000001
00001000
00000000
,  // measure 48
00000001
00000001
00001000
00001000
,  // measure 49
00010000
00010000
10000000
10000000
,  // measure 50
00010000
00000000
01000000
00000000
00001000
00010000
00000100
00000000
,  // measure 51
00010000
00000000
00000010
00000000
00001000
00000100
00000010
00000000
,  // measure 52
00000001
00000100
00000010
00000100
,  // measure 53
00000001
00001000
00000100
00001000
00000001
00000000
00001100
00000000
,  // measure 54
00000001
00000001
00000100
00000100
,  // measure 55
00001000
00001000
00010000
00010000
,  // measure 56
00100000
00000000
10000000
00000000
00010000
00000000
10000000
01000000
,  // measure 57
00200000
00000000
00000000
00000000
,  // measure 58
00310000
00010000
10000000
10000000
,  // measure 59
01000000
00010000
00001000
00000100
,  // measure 60
00000001
00000001
00001000
00001000
,  // measure 61
00000001
00000100
00001000
00010000
,  // measure 62
00100000
00100000
10000000
10000000
,  // measure 63
01000000
00010000
00001000
00000100
,  // measure 64
00000010
00000010
00001000
00001000
,  // measure 65
00000001
00000100
00001000
00010000
,  // measure 66
00100000
00100000
10000000
10000000
,  // measure 67
01000000
00010000
00001000
00000100
,  // measure 68
00000001
00000001
00001000
00001000
,  // measure 69
00000001
00000010
00001000
00010000
,  // measure 70
00100000
00100000
10000000
10000000
,  // measure 71
00010000
00000000
10000000
00000000
01000000
00000000
00010000
00001000
,  // measure 72
00000000
00010000
00000000
00000000
00001000
00000000
00000000
00010000
00000000
00000000
00001000
00000000
00000000
00010000
00000000
00000000
,  // measure 73
00001000
00000000
00000000
00010000
00000000
00000000
00001000
00000000
00000000
00010000
00000000
00000000
00001000
00000000
00010000
00000000
;

//---------------dance-double - ----------------
#NOTES:
     dance-double:
     :
     Easy:
     6:
     0.291,0.336,0.010,0.072,0.000: // measure 1
00000000
00000000
00000000
00000000
,  // measure 2
00000000
00000000
00000000
00000000
,  // measure 3
00000000
00000000
00000000
00000000
,  // measure 4
00000000
00000000
00000000
00000000
,  // measure 5
00000000
00000000
00000000
00000000
,  // measure 6
00000000
00001000
00000000
00001000
,  // measure 7
00010000
00000000
00000100
00000000
00001000
00000010
00000000
00000010
,  // measure 8
00000000
00000010
00000000
00000010
,  // measure 9
00000100
00000000
00000001
00000000
00001000
00000100
00000000
00000000
,  // measure 10
00010000
00001000
00010000
00000000
,  // measure 11
00001000
01000000
00001000
00000000
,  // measure 12
01000000
00010000
01000000
00000000
,  // measure 13
00010000
10000000
00010000
00000000
,  // measure 14
10000000
01000000
10000000
00000000
,  // measure 15
01000000
00100000
01000000
00000000
,  // measure 16
00100000
00001000
00100000
00000000
,  // measure 17
00001000
00010000
00001000
00000000
,  // measure 18
00010000
00000100
00010000
00000000
,  // measure 19
00000100
00001000
00000100
00000000
,  // measure 20
00001000
00000010
00001000
00000000
,  // measure 21
00000010
00000100
00000010
00000000
,  // measure 22
00000100
00000001
00000100
00000000
,  // measure 23
00000001
00001000
00000001
00000000
,  // measure 24
00002000
00000000
00000000
00000000
,  // measure 25
00003000
00000000
00000000
00000000
,  // measure 26
00000001
00000001
00001000
00000000
,  // measure 27
00000001
00001000
00000100
00010000
,  // measure 28
00001000
00000000
00010000
00000000
,  // measure 29
00100000
00000000
10000000
00000000
00010000
10000000
00010000
00000000
,  // measure 30
10000000
10000000
00010000
00000000
,  // measure 31
10000000
01000000
00010000
00001000
,  // measure 32
00000010
00000000
00000001
00000000
,  // measure 33
00000100
00000000
00000010
00000000
00000100
00000001
00001000
00000000
,  // measure 34
00000001
00000001
00001000
00000000
,  // measure 35
00000001
00001000
00000010
00010000
,  // measure 36
00001000
00000000
00010000
00000000
,  // measure 37
01000000
00000000
10000000
00000000
00010000
10000000
00010000
00000000
,  // measure 38
10000000
10000000
00010000
00000000
,  // measure 39
10000000
00100000
00010000
00000000
,  // measure 40
00100000
10000000
00000000
00100000
00000000
10000000
00000000
00100000
,  // measure 41
00000000
10000000
00100000
00000000
00000000
00000000
00000000
00000000
,  // measure 42
10000000
01000000
00010000
00000000
,  // measure 43
00001000
00000100
00000001
00000000
,  // measure 44
00001000
00000001
00001000
00000001
,  // measure 45
00002000
00000000
00003000
00000000
,  // measure 46
00000001
00000100
00001000
00000000
,  // measure 47
00010000
01000000
10000000
00000000
,  // measure 48
00010000
10000000
00010000
10000000
,  // measure 49
00020000
00000000
00030000
00000000
,  // measure 50
10000000
00100000
00010000
00000000
,  // measure 51
00001000
00000010
00000001
00000000
,  // measure 52
00001000
00000001
00001000
00000001
,  // measure 53
00002000
00000000
00003000
00000000
,  // measure 54
00000001
00000010
00001000
00000000
,  // measure 55
00010000
01000000
10000000
00000000
,  // measure 56
00010000
10000000
00010000
10000000
,  // measure 57
00020000
00000000
00030000
00000000
,  // measure 58
10000000
00000000
00010000
00000000
,  // measure 59
10000000
01000000
00010000
00000000
,  // measure 60
00001000
00000000
00000100
00000000
,  // measure 61
00000001
00001000
00000001
00000000
,  // measure 62
00000100
00000000
00001000
00000000
,  // measure 63
00010000
00100000
10000000
00000000
,  // measure 64
00010000
00000000
10000000
00000000
,  // measure 65
01000000
00010000
00001000
00000000
,  // measure 66
00000010
00000000
00000001
00000000
,  // measure 67
00001000
00000001
00000100
00000000
,  // measure 68
00001000
00000000
00010000
00000000
,  // measure 69
00100000
10000000
00010000
00000000
,  // measure 70
10000000
00000000
01000000
00000000
,  // measure 71
00010000
00001000
00000100
00000000
,  // measure 72
00002002
00000000
00000000
00000000
,  // measure 73
00000000
00000000
00000000
00000000
00000000
00000000
00000000
00003003
;
