#TITLE:starmine -swallowtail mix-;
#SUBTITLE:;
#ARTIST:ピンクターボ;
#TITLETRANSLIT:;
#SUBTITLETRANSLIT:;
#ARTISTTRANSLIT:Pink Turbo;
#GENRE:;
#CREDIT:Silverhawke;
#MENUCOLOR:;
#METERTYPE:DDR;
#BANNER:starmine -swallowtail mix-.png;
#BACKGROUND:starmine -swallowtail mix--bg.png;
#LYRICSPATH:;
#CDTITLE:cdtitle.png;
#MUSIC:starmine -swallowtail mix-.mp3;
#OFFSET:-0.040;
#SAMPLESTART:57.746;
#SAMPLELENGTH:15.000;
#SELECTABLE:YES;
#LISTSORT:;
#BPMS:0.000=187.000;
#STOPS:;
#BGCHANGES:;
#ATTACKS:;

//---------------dance-single - ----------------
#NOTES:
     dance-single:
     :
     Hard:
     11:
     0.582,0.648,0.386,0.096,0.000:
0000
0000
0000
0000
,
0000
0000
0000
0000
,
0000
0000
0000
0000
,
0000
0000
0000
0000
,
0000
0000
0000
0000
,
0001
0000
0100
0000
0010
0100
0001
0010
,
0100
0000
1000
0100
0000
0010
0100
1000
,
0010
0010
0100
0100
0001
0100
0010
1000
,
0100
0000
0010
0100
0000
1000
0000
0001
,
0200
0010
0010
0310
,
2000
0100
0100
3100
,
0020
0001
0001
0031
,
0100
0001
0010
0100
1000
0100
0010
0001
,
0200
0001
0001
0301
,
2000
0100
0100
3100
,
0020
0001
0001
0031
,
0100
0010
1000
0100
0010
0001
0100
0010
,
1000
1000
0010
0000
0100
0100
0001
0000
,
0010
0010
0001
0000
1000
1000
0100
0000
,
0010
0100
1000
0000
1000
0100
0010
0000
,
0001
0100
0010
0000
0010
0100
0001
0000
,
1001
0000
0110
0000
0010
1000
0100
1000
,
0010
0000
0100
0001
0010
0000
0100
0000
,
1100
0000
0011
0000
0001
0100
1000
0100
,
0001
0000
1000
0100
0000
0010
0100
1000
,
0001
0000
0101
0000
0001
0100
0010
0100
,
0001
0000
1000
0100
0000
0010
0001
1000
,
0010
0000
0100
0000
0010
0100
0001
0000
,
1000
0100
0110
1001
,
0101
0101
1001
1001
,
1100
1100
1001
1001
,
1010
1010
0011
0011
,
0101
0101
1100
1100
,
0002
0100
2003
0100
,
3001
0010
0100
0000
1000
0010
0100
0000
,
0002
0010
2003
0010
,
3001
0100
0001
0000
1000
0000
0010
0000
,
1010
1010
1100
1100
,
0011
0011
0101
0101
,
1001
1001
1010
1010
,
0101
0101
0110
0110
,
0010
0000
1000
0100
0010
0000
0001
0100
,
0010
0100
0001
0000
1000
0000
0001
0100
,
0020
0000
0000
0100
0130
0000
0010
0000
,
1000
1100
0101
1001
,
0010
0000
0010
0000
0100
0000
0100
0001
,
0000
0001
0000
0001
0010
0000
0010
0000
,
0100
0000
1000
0001
0100
0000
0001
1000
,
0100
0010
0100
0000
0001
0100
1000
0100
,
0001
0000
0001
0000
0100
0000
0100
0010
,
0000
0010
0000
0010
0001
0000
0001
0000
,
1000
0000
0001
0100
1000
0000
0100
0001
,
0010
0100
1000
0000
0010
1000
0100
0000
,
0010
0000
0010
0000
0001
0000
0001
0010
,
0000
0010
0000
0010
0100
0000
0100
0000
,
1000
0000
0001
1000
0100
0000
0001
0100
,
1000
0010
1000
0000
0001
0100
0001
0000
,
0100
0000
0100
0000
0001
0000
0001
0010
,
0000
0010
0000
0010
0100
0000
0100
0000
,
1000
0001
0100
0000
0010
0100
0001
1000
,
0000
0001
1000
0100
0110
0000
1001
0000
,
0010
0010
1000
0000
1000
1000
0100
0010
,
0000
0010
0001
0000
0001
0001
0100
0000
,
0001
0010
0100
0000
1000
0010
0100
0000
,
0001
0100
0010
1000
0000
0100
0010
0000
,
0100
0000
1000
0001
0000
0100
0001
0000
,
0010
0000
0100
1000
0000
0010
1000
0000
,
0100
0000
1000
0010
0100
0010
1000
0001
,
0010
0100
1000
0010
0100
0001
1000
0000
,
1001
0000
0100
0000
0001
0010
0100
0000
,
1000
0000
0010
0000
0100
0001
0010
0000
,
0100
0000
1000
0000
0001
0100
1000
0000
,
0100
0000
0001
0000
1000
0100
0001
0000
,
0100
0000
1000
0010
0100
0001
0010
0000
,
0100
0000
0010
0001
0100
0010
1000
0100
,
1000
0000
0001
0100
0001
0000
1000
0010
,
0100
0001
0100
1000
0100
0001
1000
0000
,
0010
0000
0010
0000
0100
0000
0100
0001
,
0000
1000
0000
0100
0010
0000
0100
0000
,
1000
1100
0001
0101
,
1000
0100
0010
0001
1000
0010
0100
0001
,
1000
0000
1000
0000
0100
0000
0100
0010
,
0000
0001
0000
0100
0001
0000
0010
0000
,
0100
0110
0001
0011
,
1000
0010
0100
0001
0010
0100
1000
0001
,
0100
0000
0100
0000
0010
0000
0010
1000
,
0000
0001
0000
0100
0010
0000
0100
0000
,
0001
0101
1000
1100
,
0001
0100
0010
1000
0100
0010
0100
1000
,
0001
0000
0001
0000
0010
0000
0010
0100
,
0000
1000
0000
0001
0100
0000
0010
0000
,
0100
0001
0000
1000
0100
1000
0010
0100
,
0000
0001
0100
0010
0001
1000
0100
0000
,
0001
0010
0100
0000
1000
0001
1000
0100
,
0001
0100
0010
0001
1000
0010
0100
0010
,
2002
0000
0000
0000
,
0000
0000
0000
0000
,
3003
0000
0000
0000
;

//---------------dance-single - ----------------
#NOTES:
     dance-single:
     :
     Medium:
     9:
     0.444,0.468,0.156,0.059,0.000:
0000
0000
0000
0000
,
0000
0000
0000
0000
,
0000
0000
0000
0000
,
0000
0000
0000
0000
,
0000
0000
0000
0000
,
1000
0000
1000
0000
0001
0100
0001
0000
,
1000
0001
1000
0000
,
0001
0000
0001
0000
1000
0100
1000
0000
,
0001
1000
0100
0100
,
0020
0000
0001
0130
,
2000
0000
0010
3001
,
0100
0001
1000
0010
,
0100
0000
0001
0000
0010
0100
0010
0000
,
0200
0000
0010
1300
,
0002
0000
0010
0103
,
0010
1000
0001
0100
,
0001
0000
0010
0000
0100
0010
0100
0000
,
1000
1000
0001
0001
,
1000
1000
0001
0001
,
0100
0100
0010
0010
,
0100
0000
0100
0010
0100
0000
0010
0000
,
0100
0001
0100
0001
,
1000
0100
0010
0000
,
0100
1000
0100
1000
,
0001
0000
0100
0000
0010
0100
0001
0000
,
0010
0100
0010
0100
,
1000
0001
1000
0000
,
0001
0100
0010
0100
,
0001
0000
1000
0000
0100
0010
0100
0000
,
1000
1000
1100
1100
,
0001
0001
0101
0101
,
1000
1000
1010
1010
,
0001
0001
0011
0011
,
1000
1000
0100
0100
,
0001
0001
0010
0010
,
1000
0010
0001
0100
,
1000
0100
0001
0010
,
0100
0100
0101
0101
,
0010
0010
1010
1010
,
0100
0100
1100
1100
,
0010
0010
0011
0011
,
0001
0000
0100
0000
1000
0100
0001
0000
,
1000
0000
0100
0000
0001
0100
1000
0000
,
0010
0100
0010
0100
,
0001
0101
1000
1100
,
0001
0000
0001
0000
1000
0000
1000
0001
,
0000
1000
0000
0001
1000
0000
0001
0000
,
0100
0000
0010
0000
0100
0000
0010
0100
,
0000
0010
0000
0100
0010
0000
0100
0000
,
0001
0000
0010
0000
0001
0000
0010
0001
,
0000
0010
0000
0001
0010
0000
0001
0000
,
1000
0000
0100
0000
1000
0000
0100
1000
,
0000
0100
0000
1000
0100
0000
0010
0000
,
0001
0000
0100
0000
0010
0000
0100
0001
,
0000
0010
0000
0100
1000
0000
0001
0000
,
0100
0000
0001
0000
1000
0000
0100
0010
,
0000
0100
0000
1000
0010
0000
0100
0000
,
0001
0000
0010
0000
0001
0000
0100
0010
,
0000
1000
0000
0100
0010
0000
0100
0000
,
1000
0001
0100
0010
,
0100
0100
0110
0110
,
0001
0000
0001
0000
1000
0100
1000
0000
,
0001
0100
0001
0010
,
0100
0000
0100
0000
1000
0100
1000
0000
,
0010
0100
0001
1000
,
0001
0000
0000
0010
0000
0000
0100
0000
,
1000
0000
0000
0010
0000
0000
0100
0000
,
0001
1000
0001
1000
,
0010
0100
0010
0000
0100
0010
0100
0000
,
0020
1000
0100
0130
,
0200
0010
0001
0301
,
1000
0000
0100
0000
1000
0100
1000
0000
,
0001
0000
0100
0000
0001
0100
0001
0000
,
1000
0000
0010
0100
0010
0000
1000
0000
,
0001
0010
0100
1000
,
0001
0000
0100
0010
0100
0000
0010
0100
,
0010
0000
1000
0001
1000
0000
0001
0000
,
0100
0000
0001
0000
1000
0000
0100
0010
,
0000
0100
0000
1000
0001
0000
0100
0000
,
0010
0000
0100
0000
0001
0000
1000
0100
,
0000
1000
0000
0001
0100
0000
0010
0000
,
0100
0000
0001
0000
0010
0000
0100
1000
,
0000
0100
0000
0010
0001
0000
0100
0000
,
0001
0000
0100
0000
0010
0000
1000
0010
,
0000
0100
0000
0001
0010
0000
0100
0000
,
1000
0000
0001
0000
0100
0000
0010
0100
,
0000
0001
0000
1000
0100
0000
0010
0000
,
0100
0000
1000
0000
0001
0000
0100
0010
,
0000
0100
0000
0001
1000
0000
0100
0000
,
0010
0000
0001
0000
0100
0000
0010
1000
,
0000
0010
0000
0100
0001
0000
0010
0000
,
0100
0000
1000
0000
0001
0000
0100
0010
,
0000
1000
0000
0010
0100
0000
0001
0000
,
1000
0100
1000
0000
0001
0100
0001
0000
,
1000
0001
1000
0010
0100
0000
0010
0000
,
2002
0000
0000
0000
,
0000
0000
0000
0000
,
3003
0000
0000
0000
;

//---------------dance-single - ----------------
#NOTES:
     dance-single:
     :
     Easy:
     5:
     0.230,0.252,0.037,0.015,0.000:
0000
0000
0000
0000
,
0000
0000
0000
0000
,
0000
0000
0000
0000
,
0000
0000
0000
0000
,
0000
0000
0000
0000
,
1000
0000
0100
0000
,
0001
0000
0100
0000
,
1000
0100
0001
0000
,
0001
0100
1000
0000
,
0010
0000
0010
0010
,
0010
0000
0100
0100
,
0100
0000
0001
0001
,
0001
0000
1000
1000
,
1000
0000
0100
0100
,
0100
0000
0010
0010
,
0010
0000
0001
0001
,
0001
0000
0100
0001
,
1000
0100
0010
0000
,
0001
0100
0010
0000
,
1000
0100
0100
0000
,
0001
0100
0100
0000
,
1001
0000
0000
0000
,
0001
0000
0010
0100
,
1000
0000
0000
0000
,
0001
0000
0100
0010
,
1000
0000
0000
0000
,
0100
0000
0010
0001
,
0100
0000
0000
0000
,
0001
0000
0001
0010
,
0100
0000
0100
0000
,
0010
0000
0010
0000
,
1000
0000
1000
0000
,
0001
0000
0001
0000
,
1001
0000
0000
0000
,
0110
0000
0000
0000
,
1001
0000
0000
0000
,
0110
0000
0000
0000
,
0001
0000
0001
0000
,
1000
0000
1000
0000
,
0100
0000
0100
0000
,
0010
0000
0010
0000
,
0001
0000
1000
0000
,
0001
0000
1000
0000
,
0100
0000
0000
0100
,
0100
0100
0100
0000
,
1000
0000
0001
0000
,
1000
0001
0100
0000
,
0010
0000
0100
0000
,
0010
0100
0001
0000
,
1000
0000
0001
0000
,
1000
0001
0100
0000
,
0010
0000
0100
0000
,
0010
0100
0001
0000
,
0001
0000
1000
0000
,
0001
1000
0100
0000
,
0010
0000
0100
0000
,
0010
0100
1000
0000
,
0001
0000
1000
0000
,
0001
0100
0010
0000
,
0100
0000
0010
0000
,
0100
0001
1000
0000
,
0100
0000
0100
0000
,
1000
0000
1000
0000
,
0001
0000
0001
0000
,
0010
0000
0010
0000
,
0100
0000
0100
0000
,
0010
0000
0010
0000
,
0001
0000
0001
0000
,
1000
0000
1000
0000
,
0010
0000
0000
0100
,
0100
0000
0000
0001
,
0001
0000
0000
1000
,
1000
0000
0000
0010
,
0010
0000
1000
0000
,
0010
0000
0100
0000
,
0001
0000
0010
0000
,
0100
0000
1000
0000
,
0001
0000
0100
0000
,
0001
0100
0001
0000
,
1000
0000
0100
0000
,
1000
0100
1000
0000
,
0001
0000
0010
0000
,
0001
0010
0001
0000
,
1000
0000
0010
0000
,
1000
0010
1000
0000
,
0001
0000
1000
0000
,
0001
1000
0001
0000
,
0100
0000
0010
0000
,
0100
0010
0100
0000
,
0001
0000
1000
0000
,
0001
1000
0001
0000
,
0010
0000
0100
0000
,
0010
0100
0010
0000
,
0001
0000
1000
0000
,
0001
0010
0100
2000
,
0002
0000
0000
0000
,
0000
0000
0000
0000
,
3003
0000
0000
0000
;

//---------------dance-single - ----------------
#NOTES:
     dance-single:
     :
     Beginner:
     2:
     0.121,0.144,0.022,0.015,0.000:
0000
0000
0000
0000
,
0000
0000
0000
0000
,
0000
0000
0000
0000
,
0000
0000
0000
0000
,
0000
0000
0000
0000
,
1000
0000
0000
0000
,
0001
0000
0000
0000
,
1000
0000
0000
0000
,
0001
0000
0000
0000
,
0100
0000
0000
0000
,
0100
0000
0000
0000
,
0100
0000
0000
0000
,
0100
0000
0100
0000
,
0001
0000
0000
0000
,
0001
0000
0000
0000
,
0001
0000
0000
0000
,
0001
0000
0001
0000
,
1000
0000
0000
0000
,
0001
0000
0000
0000
,
1000
0000
0000
0000
,
0001
0000
0001
0000
,
0001
0000
0000
0000
,
0001
0000
0000
0000
,
1000
0000
0000
0000
,
1000
0000
0000
0000
,
0001
0000
0000
0000
,
0001
0000
0000
0000
,
0100
0000
0000
0000
,
0100
0000
0000
0000
,
0001
0000
0001
0000
,
0001
0000
0000
0000
,
1000
0000
1000
0000
,
1000
0000
0000
0000
,
1001
0000
0000
0000
,
0000
0000
0000
0000
,
1001
0000
0000
0000
,
0000
0000
0000
0000
,
0001
0000
0001
0000
,
0001
0000
0000
0000
,
1000
0000
1000
0000
,
1000
0000
0000
0000
,
0100
0000
0000
0000
,
0100
0000
0000
0000
,
0010
0000
0000
0000
,
0010
0000
0010
0000
,
0010
0000
0000
0000
,
0100
0000
0100
0000
,
0100
0000
0000
0000
,
0001
0000
0001
0000
,
0001
0000
0000
0000
,
1000
0000
1000
0000
,
1000
0000
0000
0000
,
0100
0000
0100
0000
,
0100
0000
0000
0000
,
1000
0000
1000
0000
,
1000
0000
0000
0000
,
0001
0000
0001
0000
,
0001
0000
0000
0000
,
1000
0000
1000
0000
,
1000
0000
0000
0000
,
0100
0000
0100
0000
,
0100
0000
0000
0000
,
0000
0000
0000
0000
,
0001
0000
0000
0000
,
0000
0000
0000
0000
,
0100
0000
0000
0000
,
0000
0000
0000
0000
,
1000
0000
0000
0000
,
0000
0000
0000
0000
,
0100
0000
0000
0000
,
0100
0000
0000
0000
,
0001
0000
0000
0000
,
0001
0000
0000
0000
,
1000
0000
0000
0000
,
1000
0000
0000
0000
,
0001
0000
0000
0000
,
0001
0000
0000
0000
,
1000
0000
1000
0000
,
1000
0000
0000
0000
,
0001
0000
0001
0000
,
0001
0000
0000
0000
,
1000
0000
1000
0000
,
1000
0000
0000
0000
,
0100
0000
0100
0000
,
0100
0000
0000
0000
,
0001
0000
0001
0000
,
0001
0000
0000
0000
,
0100
0000
0100
0000
,
0100
0000
0000
0000
,
1000
0000
1000
0000
,
1000
0000
0000
0000
,
0010
0000
0010
0000
,
0010
0000
0000
0000
,
0100
0000
0000
0000
,
0010
0000
0000
0000
,
2002
0000
0000
0000
,
0000
0000
0000
0000
,
3003
0000
0000
0000
;

//---------------dance-double - ----------------
#NOTES:
     dance-double:
     :
     Hard:
     10:
     0.447,0.540,0.082,0.045,0.000:
00000000
00000000
00000000
00000000
,
00000000
00000000
00000000
00000000
,
00000000
00000000
00000000
00000000
,
00000000
00000000
00000000
00000000
,
00000000
00000000
00000000
00000000
,
00000001
00000000
00000010
00000100
00001000
00001000
00000010
00000000
,
00000100
00000000
00001000
00010000
00000000
00010000
00100000
00000000
,
10000000
01000000
00100000
00000000
00010000
01000000
00100000
00000000
,
01000000
00001000
00010000
00000100
00000000
00000010
00000000
00000001
,
00000200
00001000
00000010
00001300
,
00010000
00100000
10000000
00010000
,
00100000
11000000
00100000
01010000
,
10000000
01000000
00100000
00010000
01000000
00100000
00010000
00001000
,
02000000
10000000
00100000
13000000
,
01000000
00001000
00010000
00000100
,
00000010
00000011
00000100
00001010
,
00000001
00000010
00000100
00001000
00000010
00000100
00001000
00010000
,
00100000
01000000
00100000
00000000
10000000
01000000
10000000
00000000
,
00010000
01000000
00010000
00000000
00100000
00001000
00100000
00000000
,
00001000
00010000
00001000
00000000
00010000
00000100
00010000
00000000
,
00000010
00000000
00000101
00000000
00000010
00000100
00001000
00000000
,
00000001
00000000
00000100
00000000
00000010
00001000
00000100
00000000
,
00010000
00001000
01000000
00100000
,
10000000
00000000
01000000
00000000
00100000
01000000
10000000
00000000
,
00010000
01000000
00001000
00010000
,
00000010
00000000
00000100
00000000
00001000
00000100
00000010
00000000
,
00001000
00000100
00010000
00001000
,
01000000
01000000
10000000
01000000
,
00100000
00000000
10000000
00000000
01000000
00100000
00010000
00000000
,
01000000
00010000
01000000
00010000
,
00100000
00010000
00100000
00010000
,
00100000
00001000
00100000
00001000
,
00010000
00001000
00010000
00001000
,
00010000
00000100
00010000
00000100
,
00001000
00000100
00001000
00000100
,
00002000
00003010
00000002
00000103
,
00001000
00010000
00100000
10000000
,
00010000
10000000
01000000
11000000
,
10000000
00010000
01000000
01010000
,
00010000
00100000
00001000
00011000
,
00010000
00000100
00000010
00000001
,
00000100
00000000
00000000
00000100
00000010
00000000
00001000
00000000
,
00000100
00000000
00000000
00000100
00010000
00000000
00001000
00000000
,
01000000
01000000
01000000
00000000
,
10010000
00000000
00000000
00000000
,
00000001
00000000
00000001
00000000
00000001
00000000
00000100
00001000
,
00000000
00001000
00000000
00001000
00010000
00000000
00010000
00000000
,
01000000
10000000
00100000
10000000
,
01000000
10000000
00100000
00000000
01000000
00000000
00010000
00000000
,
10000000
00000000
10000000
00000000
10000000
00000000
01000000
00010000
,
00000000
00010000
00000000
00010000
00001000
00000000
00001000
00000000
,
00000100
00000000
00000001
00000000
00000010
00000000
00000001
00000100
,
00000000
00000100
00000010
00000000
00000100
00000001
00000010
00000000
,
00000001
00000000
00000001
00000000
00000001
00000000
00000010
00001000
,
00000000
00001000
00000000
00001000
00010000
00000000
00010000
00000000
,
00100000
10000000
01000000
10000000
,
00100000
01000000
00010000
00000000
10000000
00000000
01000000
00000000
,
10000000
00000000
10000000
00000000
10000000
00000000
00100000
00010000
,
00000000
00010000
00000000
00010000
00001000
00000000
00001000
00000000
,
00000010
00000000
00000001
00000000
00000100
00000000
00000010
00000100
,
00000001
00000100
00000010
00000000
00001000
00000100
00001000
00000000
,
00000001
00000001
00000100
00000010
,
00001000
00001000
00000100
00010000
,
00001000
00001000
01000000
00100000
,
10000000
10000000
01000000
00100000
,
00010000
00000000
00000000
00100000
00000000
00000000
01000000
00000000
,
10000000
00000000
00000000
00100000
00000000
00000000
01000000
00000000
,
00010000
00100000
00001000
00010000
,
00000100
00000010
00000001
00000100
,
00000110
00000000
00000001
00000100
,
00001000
00000100
00000001
00000010
,
00000100
00010000
00001000
01000000
,
00100000
01000000
00001000
00010000
,
01000000
10000000
00100000
01000000
,
00001000
00010000
00000100
00000010
,
00000001
00000100
00001000
00010000
,
00100000
10000000
00010000
00100000
,
10000000
00000000
10000000
00000000
01000000
00000000
01000000
00010000
,
00000000
00010000
00000000
00010000
00001000
00000000
00001000
00000000
,
00000010
00000001
00000100
00001000
,
00010000
00000000
00100000
00000000
00010000
00001000
00000100
00000000
,
00000001
00000000
00000001
00000000
00000010
00000000
00000010
00001000
,
00000000
00001000
00000000
00001000
00010000
00000000
00010000
00000000
,
01000000
10000000
00100000
00010000
,
00001000
00010000
00100000
00000000
10000000
00000000
01000000
00000000
,
10000000
00000000
10000000
00000000
00100000
00000000
00100000
00010000
,
00000000
00010000
00000000
00010000
00001000
00000000
00001000
00000000
,
00000100
00000001
00000010
00000100
,
00010000
00000000
00001000
00000000
00000100
00000010
00001000
00000000
,
00000001
00000000
00000001
00000000
00000100
00000000
00000100
00001000
,
00000000
00001000
00000000
00001000
00010000
00000000
00010000
00000000
,
01000000
10000000
00000000
00100000
01000000
00000000
00010000
00100000
,
00000000
00001000
00010000
00000000
00000100
00001000
00000010
00000000
,
00000100
00000000
00000001
00000000
00000010
00000100
00000010
00000000
,
00000001
00000100
00000000
00000010
00001000
00000100
00010000
00001000
,
00022000
00000000
00000000
00000000
,
00000000
00000000
00000000
00000000
,
00033000
00000000
00000000
00000000
;

//---------------dance-double - ----------------
#NOTES:
     dance-double:
     :
     Medium:
     8:
     0.367,0.360,0.007,0.022,0.000: // measure 1
00000000
00000000
00000000
00000000
,  // measure 2
00000000
00000000
00000000
00000000
,  // measure 3
00000000
00000000
00000000
00000000
,  // measure 4
00000000
00000000
00000000
00000000
,  // measure 5
00000000
00000000
00000000
00000000
,  // measure 6
10000000
00000000
00010000
00000000
01000000
00100000
01000000
00000000
,  // measure 7
00010000
10000000
01000000
00010000
,  // measure 8
00001000
00001000
00010000
00010000
,  // measure 9
00001000
00000100
00000010
00001000
,  // measure 10
00000001
00000000
00000000
00000000
00001000
00000100
00001000
00000000
,  // measure 11
00000001
00000000
00000000
00000000
00001000
00000100
00001000
00000000
,  // measure 12
00000010
00000000
00010000
00000000
,  // measure 13
00001000
00000000
01000000
00000000
00010000
10000000
01000000
00000000
,  // measure 14
00100000
00000000
00000000
00000000
00010000
01000000
00010000
00000000
,  // measure 15
00100000
00000000
00000000
00000000
00001000
00010000
00001000
00000000
,  // measure 16
00010000
00000000
00000000
00000000
00000100
00001000
00000100
00000000
,  // measure 17
00000010
00000000
00000001
00000000
00000100
00000010
00000100
00000000
,  // measure 18
00000001
00001000
00000001
00001000
,  // measure 19
00000001
00001000
00000001
00001000
,  // measure 20
00000010
00000100
00000010
00000100
,  // measure 21
00000010
00000000
00000100
00000000
00000010
00001000
00000001
00000000
,  // measure 22
00000010
00000100
00010000
00010000
,  // measure 23
00001000
01000000
00010000
00010000
,  // measure 24
00100000
01000000
10000000
00010000
,  // measure 25
01000000
00100000
10000000
00000000
,  // measure 26
01000000
00100000
00001000
00001000
,  // measure 27
00010000
00000100
00000010
00000010
,  // measure 28
00000001
00000100
00000010
00001000
,  // measure 29
00000100
00000010
00000100
00001000
,  // measure 30
00000001
00000000
00001000
00000000
,  // measure 31
00000001
00001000
00000001
00000000
,  // measure 32
00001000
00000100
00010000
00001000
,  // measure 33
01000000
00000000
00000000
00100000
,  // measure 34
10000000
00000000
01000000
00000000
,  // measure 35
00100000
00001000
00010000
00000000
,  // measure 36
00000100
00000000
00001000
00000000
,  // measure 37
00000010
00000100
00000001
00000010
,  // measure 38
00000100
00000000
00001000
00000000
,  // measure 39
00000001
00000100
00000010
00000000
,  // measure 40
00010000
00001000
01000000
00010000
,  // measure 41
00100000
00000000
01000000
00000000
10000000
00010000
00000000
00000000
,  // measure 42
10000000
01000000
00000000
00100000
00000000
00000000
01000000
00000000
,  // measure 43
10000000
01000000
00000000
00100000
00000000
00000000
00010000
00000000
,  // measure 44
02000000
00000000
03000000
00010000
,  // measure 45
00010000
10000000
10000000
01000000
,  // measure 46
00100000
00000000
00010000
00000000
01000000
00000000
00001000
00010000
,  // measure 47
00000000
00010000
00000000
00010000
00001000
00000000
00001000
00000000
,  // measure 48
00010000
00000100
00000010
00000100
,  // measure 49
00001000
00000010
00000100
00000010
,  // measure 50
00001000
00000000
00000100
00000000
00010000
00000000
00001000
00010000
,  // measure 51
00000000
00010000
00000000
00010000
00001000
00000000
00001000
00000000
,  // measure 52
01000000
00100000
10000000
01000000
,  // measure 53
00100000
00010000
01000000
00010000
,  // measure 54
00100000
00000000
00010000
00000000
01000000
00000000
00001000
00010000
,  // measure 55
00000000
00010000
00000000
00010000
00001000
00000000
00001000
00000000
,  // measure 56
00010000
00000100
00000010
00000001
,  // measure 57
00000100
00000010
00001000
00000100
,  // measure 58
00000010
00000000
00000100
00000000
00010000
00000000
00001000
00010000
,  // measure 59
00000000
00010000
00000000
00010000
00001000
00000000
00001000
00000000
,  // measure 60
01000000
00100000
10000000
01000000
,  // measure 61
00100000
00010000
01000000
00100000
,  // measure 62
10000000
00000000
10000000
00000000
,  // measure 63
10000000
01000000
00100000
00000000
,  // measure 64
00100000
00000000
00100000
00000000
,  // measure 65
00100000
00001000
00010000
00000000
,  // measure 66
00010000
00000000
00000000
00001000
00000000
00000000
00010000
00000000
,  // measure 67
00000100
00000000
00000000
00000010
00000000
00000000
00000001
00000000
,  // measure 68
00000100
00000001
00001000
00000000
,  // measure 69
00000100
00000010
00000001
00000000
,  // measure 70
00001000
00000100
00010000
00001000
,  // measure 71
00010000
00000100
00001000
00000000
,  // measure 72
00000010
00000100
00001000
00000000
,  // measure 73
00000100
00000010
00010000
00000000
,  // measure 74
00001000
00000000
01000000
00000000
,  // measure 75
00100000
10000000
01000000
00000000
,  // measure 76
00100000
00010000
10000000
00010000
,  // measure 77
10000000
00100000
01000000
00010000
,  // measure 78
10000000
00000000
01000000
00000000
00100000
00000000
00001000
00010000
,  // measure 79
00000000
00010000
00000000
00010000
00001000
00000000
00001000
00000000
,  // measure 80
00010000
00000100
00000010
00000001
,  // measure 81
00000100
00001000
00000100
00000010
,  // measure 82
00001000
00000000
00000100
00000000
00010000
00000000
00001000
00010000
,  // measure 83
00000000
00010000
00000000
00010000
00001000
00000000
00001000
00000000
,  // measure 84
01000000
00010000
00100000
01000000
,  // measure 85
10000000
00100000
01000000
00100000
,  // measure 86
01000000
00000000
00010000
00000000
00100000
00000000
00001000
00010000
,  // measure 87
00000000
00010000
00000000
00010000
00001000
00000000
00001000
00000000
,  // measure 88
00010000
00000100
00001000
00000010
,  // measure 89
00000100
00000001
00000100
00000010
,  // measure 90
00001000
00000000
00000100
00000000
00010000
00000000
00001000
00010000
,  // measure 91
00000000
00010000
00000000
00010000
00001000
00000000
00001000
00000000
,  // measure 92
01000000
00100000
10000000
01000000
,  // measure 93
00010000
00000000
01000000
00000000
10000000
00010000
10000000
00000000
,  // measure 94
00010000
01000000
00001000
00010000
,  // measure 95
00000100
00001000
00000100
00000000
00001000
00000001
00001000
00000000
,  // measure 96
00002002
00000000
00000000
00000000
,  // measure 97
00000000
00000000
00000000
00000000
,  // measure 98
00003003
00000000
00000000
00000000
;

//---------------dance-double - ----------------
#NOTES:
     dance-double:
     :
     Easy:
     3:
     0.178,0.216,0.000,0.007,0.000: // measure 1
00000000
00000000
00000000
00000000
,  // measure 2
00000000
00000000
00000000
00000000
,  // measure 3
00000000
00000000
00000000
00000000
,  // measure 4
00000000
00000000
00000000
00000000
,  // measure 5
00000000
00000000
00000000
00000000
,  // measure 6
00001000
00000000
00010000
00000000
,  // measure 7
00000100
00010000
00001000
00000000
,  // measure 8
01000000
00000000
00010000
00000000
,  // measure 9
10000000
00000000
00000000
00000000
,  // measure 10
00010000
00000000
00000000
10000000
,  // measure 11
01000000
00000000
00000000
01000000
,  // measure 12
00100000
00000000
00000000
00100000
,  // measure 13
00001000
00000000
00000000
00001000
,  // measure 14
00010000
00000000
00000000
00010000
,  // measure 15
00000100
00000000
00000000
00000100
,  // measure 16
00000010
00000000
00000000
00000010
,  // measure 17
00000001
00000000
00000000
00000001
,  // measure 18
00001000
00000000
00000100
00000000
,  // measure 19
00010000
00000000
00001000
00000000
,  // measure 20
01000000
00000000
00010000
00000000
,  // measure 21
10000000
01000000
00100000
00000000
,  // measure 22
00010000
00000000
00000000
00000000
,  // measure 23
01000000
00001000
00010000
00000000
,  // measure 24
00001000
00000000
00000000
00000000
,  // measure 25
00010000
00000100
00001000
00000000
,  // measure 26
00000010
00000000
00000000
00000000
,  // measure 27
00000100
00000001
00001000
00000000
,  // measure 28
00000100
00000000
00000000
00000000
,  // measure 29
00010000
00001000
01000000
00000000
,  // measure 30
00100000
00000000
00000000
00000000
,  // measure 31
00100000
00000000
10000000
00000000
,  // measure 32
01000000
00000000
00000000
00000000
,  // measure 33
01000000
00000000
00100000
00000000
,  // measure 34
00001000
00000000
00000000
00000000
,  // measure 35
00010000
00000000
00000100
00000000
,  // measure 36
00000010
00000000
00000000
00000000
,  // measure 37
00000010
00000000
00000000
00000000
,  // measure 38
00000010
00000000
00000000
00000000
,  // measure 39
00000001
00000000
00000100
00000000
,  // measure 40
00000010
00000000
00000000
00000000
,  // measure 41
00001000
00000000
00000100
00000000
,  // measure 42
00010000
00000000
00000000
00000000
,  // measure 43
00001000
00000000
00000000
00000000
,  // measure 44
01000000
00000000
00000000
00000000
,  // measure 45
00100000
00000000
10000000
00000000
,  // measure 46
01000000
00100000
01000000
00000000
,  // measure 47
00010000
00000000
00001000
00000000
,  // measure 48
00000100
00000000
00000010
00000000
,  // measure 49
00001000
00000000
00000001
00000000
,  // measure 50
00000100
00000010
00000100
00000000
,  // measure 51
00001000
00000000
00010000
00000000
,  // measure 52
01000000
00000000
00100000
00000000
,  // measure 53
00010000
00000000
10000000
00000000
,  // measure 54
00100000
01000000
00100000
00000000
,  // measure 55
00010000
00000000
00001000
00000000
,  // measure 56
00000100
00000000
00000001
00000000
,  // measure 57
00001000
00000000
00000001
00000000
,  // measure 58
00000010
00000100
00000010
00000000
,  // measure 59
00001000
00000000
00010000
00000000
,  // measure 60
00100000
00000000
01000000
00000000
,  // measure 61
00010000
10000000
00010000
00000000
,  // measure 62
10000000
00000000
00000000
00000000
,  // measure 63
01000000
00000000
00000000
00000000
,  // measure 64
00100000
00000000
00000000
00000000
,  // measure 65
00010000
00000000
00000000
00000000
,  // measure 66
00001000
00000000
00000000
00000000
,  // measure 67
00000100
00000000
00000000
00000000
,  // measure 68
00000010
00000000
00000000
00000000
,  // measure 69
00000001
00000000
00000000
00000000
,  // measure 70
00000001
00000000
00000000
00000000
,  // measure 71
00000010
00000000
00000000
00000000
,  // measure 72
00000100
00000000
00000000
00000000
,  // measure 73
00001000
00000000
00000000
00000000
,  // measure 74
00010000
00000000
00000000
00000000
,  // measure 75
00100000
00000000
00000000
00000000
,  // measure 76
01000000
00000000
00000000
00000000
,  // measure 77
10000000
00000000
00000000
00000000
,  // measure 78
01000000
00100000
01000000
00000000
,  // measure 79
00010000
00000000
00001000
00000000
,  // measure 80
00000100
00000000
00000010
00000000
,  // measure 81
00001000
00000000
00000001
00000000
,  // measure 82
00000100
00000010
00000100
00000000
,  // measure 83
00001000
00000000
00010000
00000000
,  // measure 84
01000000
00000000
00100000
00000000
,  // measure 85
00010000
00000000
10000000
00000000
,  // measure 86
00100000
01000000
00100000
00000000
,  // measure 87
00010000
00000000
00001000
00000000
,  // measure 88
00000100
00000000
00000001
00000000
,  // measure 89
00001000
00000000
00000001
00000000
,  // measure 90
00000010
00000100
00000010
00000000
,  // measure 91
00001000
00000000
00010000
00000000
,  // measure 92
00100000
00000000
01000000
00000000
,  // measure 93
00010000
10000000
00010000
00000000
,  // measure 94
10000000
00000000
00000000
00000000
,  // measure 95
00010000
00010000
01000000
01000000
,  // measure 96
00200000
00000000
00000000
00000000
,  // measure 97
00000000
00000000
00000000
00000000
,  // measure 98
00300000
00000000
00000000
00000000
;
