#TITLE:scar in the earth;
#SUBTITLE:;
#ARTIST:猫叉Master;
#TITLETRANSLIT:;
#SUBTITLETRANSLIT:;
#ARTISTTRANSLIT:Nekomata Master;
#GENRE:;
#CREDIT:Silverhawke;
#MENUCOLOR:;
#METERTYPE:DDR;
#BANNER:scar in the earth.png;
#BACKGROUND:scar in the earth-bg.png;
#LYRICSPATH:;
#CDTITLE:cdtitle.png;
#MUSIC:scar in the earth.mp3;
#OFFSET:-0.028;
#SAMPLESTART:88.101;
#SAMPLELENGTH:15.000;
#SELECTABLE:YES;
#LISTSORT:;
#BPMS:0.000=141.000;
#STOPS:152.000=0.426
;
#BGCHANGES:0.000=scar in the earth.avi=1.000=1=0=0,
99999=-nosongbg-=1.000=0=0=0 // don't automatically add -songbackground-
;
#ATTACKS:;

//---------------dance-single - ----------------
#NOTES:
     dance-single:
     :
     Hard:
     11:
     0.461,0.481,0.189,0.276,0.154:
0000
0000
0000
0000
,
0000
0000
0000
0000
,
0000
0000
0000
0000
,
0000
0000
0000
0000
,
0000
0000
0000
0000
,
0000
0000
0000
0000
,
0010
0000
1000
0000
,
0100
0000
0010
0001
,
0100
1000
0010
0001
,
1000
0000
0010
0000
0100
0000
0001
1000
,
1002
0000
0010
0000
0013
0000
0100
1000
,
0010
0000
0000
0100
0000
0000
0001
0000
0002
0000
0000
0000
0000
0000
0000
0000
,
1003
0000
0100
0010
0001
0000
1000
0000
,
0001
0000
0100
0010
1000
0000
0001
1000
,
0001
0000
0010
0000
0010
0000
0100
0001
,
0010
0000
0000
0100
0000
0000
1000
0000
2000
0000
0000
0000
3001
0000
0000
0100
,
0020
0100
0100
0130
,
1001
0000
0000
0000
0000
0000
0000
0000
1000
0001
1000
0000
0001
1000
0000
0000
,
1002
0000
0100
0000
0103
0000
0010
1000
,
0100
0000
0000
0010
0000
0000
0001
0000
0002
0000
0000
0000
1003
0000
0000
1000
,
0200
0000
0000
0000
1300
0000
0000
1000
0200
0000
0000
0000
1000
0000
0000
0000
,
0310
0000
0001
0100
1000
0010
1000
0100
,
0002
0000
0010
0000
0013
0000
0100
1000
,
0010
0000
0000
0100
0000
0000
0001
0000
0002
0000
0000
0000
0013
0000
0000
0010
,
0200
0000
0000
0000
0310
0000
0000
0010
0200
0000
0000
0000
1000
0000
1000
0000
,
0300
1000
0000
1000
0100
0010
1001
0000
,
0101
0001
0011
0010
,
0110
0100
1000
0010
,
0100
0001
0010
0100
,
1000
0000
0000
0000
0100
0000
0000
0100
0010
0000
0000
0010
0001
0000
0000
0000
,
1010
0010
0110
0100
,
0101
0001
0010
0100
,
1000
0001
0100
0010
,
1000
0010
0100
0001
,
2000
0000
0000
0000
3000
0000
0001
1000
0002
0000
0000
0000
0100
0000
0000
0000
,
0103
0000
0010
1000
0100
0001
0100
1000
,
0020
0000
0000
0000
0030
0000
0100
0010
0200
0000
0000
0000
0001
0000
0000
0000
,
0301
0000
0010
0100
0001
1000
0001
0100
,
0020
0030
0000
0000
0001
0000
1000
0000
0002
0000
0000
0000
0000
0000
0000
0000
0100
0000
0000
0000
0000
0000
0000
0000
0103
0000
0000
0000
0000
0000
0000
0000
,
0010
0100
1000
0001
1000
0100
0020
0000
,
0030
0000
1000
0001
2000
0000
0000
0000
0100
0000
0000
0000
3100
0000
0000
0000
,
0010
0000
0000
0010
0001
0010
0001
0000
1000
0000
1000
0000
0020
0000
0000
0000
,
0130
0001
2000
0000
3100
0010
0002
0000
,
0103
0000
0010
0000
1000
0001
0000
0000
0100
0000
0010
0000
2000
0000
0000
0000
,
3100
0010
0002
0000
0103
0000
0010
1000
,
0100
0000
0010
0000
0001
1000
0001
1000
0000
0000
0100
0000
0110
0000
0000
0000
,
0000
0001
0101
0000
0000
1000
1100
0000
,
0000
0001
0011
0000
0000
1000
1010
0000
,
0000
0001
1001
0000
0000
0000
0100
0000
,
0001
1000
0100
0010
,
0001
0100
1000
0010
,
0001
0100
0010
1000
0100
0010
0110
0000
,
1001
0000
0000
0000
1001
0000
0000
0001
0100
0000
0010
0000
0100
0000
0000
0010
,
1000
0000
0001
0000
0001
0000
0000
0000
1000
0000
0001
0100
0002
0000
0000
0000
,
0003
0000
1000
0100
2000
0000
0000
0000
0100
0000
0000
0000
3100
0000
0000
0000
,
1000
0010
0001
0100
0001
0010
1001
0000
,
0110
0000
0000
0000
0110
0000
0000
0001
0010
0000
0100
0000
0010
0000
0000
0001
,
0100
0000
0010
0000
0010
0000
0000
0000
1000
0000
0100
0010
0200
0000
0000
0000
,
0300
0000
1000
0001
2000
0000
0000
0000
0010
0000
0010
0000
3000
0000
0010
0000
,
0100
0001
1000
0100
0010
0001
0100
0010
,
0100
0010
1000
0010
1000
0010
1000
0001
,
1000
0000
0001
0000
0010
0000
0001
0000
0010
0000
0100
1000
0200
0000
0000
0000
,
0300
0000
1000
0001
2000
0000
0000
0000
0100
0000
0000
0000
3100
0000
0000
0000
,
0010
0000
1000
0000
0001
0000
0100
0000
0001
0000
1000
0000
0010
0000
0000
0010
,
0000
0001
0010
0000
0001
0000
0000
0001
0000
1000
0001
0000
1000
0000
0000
1000
,
0000
0010
1000
0000
0010
0000
0010
0000
0100
0000
0100
0000
0002
0000
0000
0000
,
0003
0000
1000
0100
2000
0000
0000
0000
0100
0000
0000
0000
3100
0000
0000
0000
,
1000
0010
0001
0100
0001
0010
1000
0000
,
0000
0000
0000
0110
,
0000
0000
0000
0000
0000
0001
2002
0000
,
0000
0000
0000
0000
,
0000
0000
0000
3003
;

//---------------dance-double - ----------------
#NOTES:
     dance-double:
     :
     Hard:
     12:
     0.493,0.537,0.300,0.339,0.162:
00000000
00000000
00000000
00000000
,
00000000
00000000
00000000
00000000
,
00000000
00000000
00000000
00000000
,
00000000
00000000
00000000
00000000
,
00000000
00000000
00000000
00000000
,
00000000
00000000
00000000
00000000
,
11000000
00000000
00010000
00000000
,
00001000
00000000
00000010
00000100
,
00010000
00100000
10000000
00010000
,
00001000
00000000
00000010
00000000
00000100
00000000
00010000
10000000
,
10020000
00000000
00000000
00000000
01030000
00000000
00000000
00000000
02000000
00000000
00000000
03001000
00010000
00000000
00000100
00000000
,
00000020
00000000
00000000
00001030
00010000
00000000
00100000
00000000
00200000
00000000
00000000
00000000
10300000
00000000
00000000
00000000
,
00010000
01000000
10000000
00000000
01000000
00000000
00001000
00000000
,
00010000
00000100
00000001
00000000
00000100
00000000
00000010
00000002
,
00000203
00000000
00000000
00000000
00000310
00000000
00000000
00000000
00000020
00000000
00000000
00010030
00001000
00000000
00100000
00000000
,
02000000
00000000
00000000
03010000
00001000
00000000
00000010
00000000
00000020
00000000
00000000
00000000
00000031
00000000
00001000
00000100
,
00002000
00000100
00010000
01003000
,
01100000
00000000
00000000
00000000
00000000
00000000
00000000
00000000
00100000
01000000
10000000
00010000
10000000
00010000
00000000
00000000
,
01000000
00000000
00000000
00000000
00100000
00000000
00000000
00000000
00200000
00000000
00000000
00310000
00001000
00000000
00000010
00000000
,
00000200
00000000
00000000
00010300
00001000
00000000
00100000
00000000
00200000
00000000
00000000
00000000
00310000
00000000
10000000
01000000
,
20000000
00000000
00000000
00000000
30000000
00000000
00010000
01000000
00020000
00000000
00000000
00000000
10030000
00000000
00000000
00000000
,
00010000
00000000
10000000
01000000
00010000
00001000
00010000
00100000
,
01100000
00000000
00000000
00000000
01000000
00000000
00000000
00000000
02000000
00000000
00000000
03001000
00010000
00000000
00000010
00000000
,
00000200
00000000
00000000
00001300
00010000
00000000
00100000
00000000
00200000
00000000
00000000
00000000
10300000
00000000
00010000
00100000
,
00020000
00000000
00000000
00000000
00030000
00000000
00001000
00000100
00002000
00000000
00000000
00000000
00003000
00000000
00000110
00000000
,
00000000
00001100
00000000
00011000
00100000
00010000
11000000
00000000
,
10010000
10000000
01000000
00000000
10000000
00010000
01000000
00000000
,
00010000
00100000
00001000
00000000
00010000
00000100
00001000
00000000
,
00000010
00000100
00001000
00010000
,
00100000
00110000
00011000
00001100
,
00000110
00000010
00001000
00000000
00000100
00010000
00001000
00000000
,
01000000
00010000
00100000
00000000
01000000
00010000
00001000
00000000
,
00000010
00000001
00000100
00001000
,
00010000
00011000
00001100
00000101
,
00000021
00000000
00000000
00000000
00000000
00000000
00000030
00000000
00000000
00000001
00001000
00000001
00002000
00000000
00000000
00000000
00000000
00000000
00000100
00000000
00000000
00000000
00000000
00000000
,
00003100
00000000
00000100
00010000
00100000
00010000
00001000
00010000
,
02000000
00000000
00000000
00000000
00000000
00000000
03000000
00000000
00000000
10000000
00010000
10000000
00020000
00000000
00000000
00000000
00000000
00000000
01000000
00000000
00000000
00000000
00000000
00000000
,
01030000
00000000
00100000
10000000
01000000
00010000
00001000
00000010
,
00001000
00000000
00000000
10000000
00010000
10000000
00020000
00000000
00000000
00000000
00000000
00000000
01000000
00000000
00000000
00000000
00000000
00000000
01030000
00000000
00000000
00000000
00000000
00000000
,
00100000
10000000
01000000
00100000
01000000
10000000
00200000
00000000
,
00000000
00000000
00000000
01300000
00001000
01000000
00001000
00000000
00000000
00000000
00000000
00000000
00010000
00000000
00000000
00000000
00000000
00000000
00000100
00000000
00000000
00000010
00000000
00000000
,
00000001
00000000
00000000
00000100
00000010
00000000
00020000
00000000
00001000
00000000
00031000
00000000
00011000
00000000
00000000
00000000
,
01010000
00000000
00011000
00000000
00001010
00000000
00000010
00001000
,
00000100
00010000
00001000
00100000
00010000
01000000
20000000
00000000
,
31000000
00001000
00020000
00000000
00031000
00000000
00010000
00000100
,
00010000
00000000
00000100
00000000
00000010
00000001
00000010
00000001
00000000
00000000
00000100
00000000
00000110
00000000
00000000
00000000
,
00000000
00011000
00000000
11000000
,
00000000
00110000
00000000
00001100
,
00000000
00000011
00000000
00000000
,
00000001
00000100
00000010
00010000
,
00001000
01000000
10000000
00100000
,
00010000
00000000
01000000
00000000
00001000
00010000
00011000
00000000
,
01000000
00000000
00000000
00000000
02000000
00000000
00000000
00001000
03010000
00000000
00000100
00000000
00000010
00000000
00000000
00000100
,
00010000
00000000
00001000
00000000
00002000
00000000
00000000
00000000
00013000
00000000
00000100
00000010
00000200
00000000
00000000
00000000
,
00000300
00000000
00010000
00001000
00020000
00000000
00000000
00000000
00001000
00000000
00000000
00000000
00031000
00000000
00000000
00000000
,
10000000
01000000
00100000
00010000
00001000
00010000
00100000
00000000
,
01100000
00000000
00000000
00000000
01100000
00000000
00000000
10000000
01000000
00000000
00010000
00000000
00001000
00000000
00000000
00000010
,
00000001
00000000
00000100
00000000
00000100
00000000
00000000
00000000
00000010
00000000
00010000
00001000
00020000
00000000
00000000
00000000
,
00030000
00000000
00001000
00010000
00002000
00000000
00000000
00000000
00003000
00000000
01001000
00000000
00000000
00000000
10010000
00000000
,
00000000
00110000
00000000
11000000
01000000
00010000
00001000
01000000
,
00010000
01000000
00001000
01000000
00010000
01000000
00100000
01000000
,
10000000
01000000
00010000
00001000
00000010
00000100
00002000
00000000
,
00003000
00000000
00010000
00001000
00020000
00000000
00000000
00000000
00001000
00000000
00000000
00000000
00031000
00000000
00000000
00000000
,
10000000
00000000
01000000
00000000
00010000
00000000
00001000
00000000
00000010
00000000
00001000
00000000
00010000
00000000
00000000
00001000
,
00000000
00000000
00011000
00000000
01000000
00000000
00000000
00100000
00000000
00000000
01100000
00000000
10000000
00000000
00000000
00010000
,
00000000
00000000
10010000
00000000
01000000
00000000
01000000
00000000
00100000
00000000
10000000
01000000
20000000
00000000
00000000
00000000
,
30000000
00000000
00010000
01000000
00020000
00000000
00000000
00000000
10000000
00000000
00000000
00000000
01030000
00000000
00000000
00000000
,
00010000
00001000
00000100
00000010
00000001
00000010
00000200
00000000
,
00000000
00000000
00000300
02000000
,
00000000
00000000
00000000
00000000
03000000
00001000
00022000
00000000
,
00000000
00000000
00000000
00000000
,
00000000
00000000
00000000
00033000
;

//---------------dance-single - ----------------
#NOTES:
     dance-single:
     :
     Medium:
     8:
     0.336,0.368,0.244,0.095,0.004:
0000
0000
0000
0000
,
0000
0000
0000
0000
,
0000
0000
0000
0000
,
0000
0000
0000
0000
,
0000
0000
0000
0000
,
0000
0000
0000
0000
,
0001
0000
0010
0000
,
0100
0000
1000
0000
,
0001
0100
0010
1000
,
0100
0000
0010
0000
0002
0000
0003
1000
,
1000
0000
0010
0000
0010
0000
0100
0001
,
1000
0000
0001
0100
0200
0000
0301
0000
,
1000
0100
0001
0010
,
1000
0010
0001
0100
,
1000
0000
0001
0000
0001
0000
0010
0100
,
1000
0000
0001
1000
1000
0000
0100
0000
,
1001
0000
0001
1000
0001
0000
0100
0000
,
0110
0000
0000
0000
0010
1000
0100
0010
,
0001
0000
1000
0000
1000
0000
0001
0010
,
0100
0000
1000
0010
0010
0000
0100
0000
,
1001
0000
0000
1000
0100
0000
0010
0000
,
0001
0000
0100
0010
1000
0001
1000
0000
,
1001
0000
0100
0000
0100
0000
0010
1000
,
0100
0000
0010
0001
0001
0000
0100
0000
,
0110
0000
0000
0100
0010
0000
0001
1000
,
0000
1000
0000
1000
0001
0000
1001
0000
,
0101
0000
1100
0000
,
1010
0000
0011
0000
,
0001
0100
0010
1000
,
0001
1000
0010
0100
,
0101
0000
1010
0000
,
1100
0000
0011
0000
,
1000
0100
0010
0001
,
1000
0001
0010
0100
,
2000
0000
3000
0001
0200
0000
0300
0000
,
0001
0000
1000
0001
0100
0000
0010
0000
,
0200
0000
0300
0001
2000
0000
3000
0000
,
0100
0000
0010
0001
1000
0000
0001
0000
,
0010
0110
1000
0001
,
1000
0100
0010
0000
0001
0000
0200
0000
,
0300
0010
1000
0000
0001
0000
1000
0000
,
0110
0000
0001
0000
0100
0100
0010
0000
,
1000
0100
0100
0000
0010
0000
0001
0000
,
1000
0010
0010
0000
0100
0000
0001
0000
,
1000
0100
0010
0000
0001
0000
1000
0000
,
0010
0000
0000
0000
0100
0000
0000
0100
0000
0000
0000
0000
1001
0000
0000
0000
,
0000
1100
0000
0101
,
0000
1001
0000
0110
,
0000
1001
0000
0000
,
1000
0100
0000
0001
,
0100
0010
1000
0001
,
0010
0100
1000
1001
,
0100
0000
0100
0000
0010
1000
0001
0000
,
0010
0100
0100
0000
1000
0001
1000
0000
,
0001
2000
3000
0010
,
0010
0100
0001
0000
1000
0010
0100
0000
,
0001
0000
0001
0000
0010
0100
1000
0000
,
0100
0010
0001
0000
1000
0000
0020
0000
,
0030
1000
0001
0000
1000
0000
0100
0000
,
0010
0001
0100
0000
0010
0000
0100
0000
,
0101
0001
0101
1000
,
1100
0100
1100
0001
,
1000
0100
0020
0000
0030
0000
0010
0000
,
0001
1000
0100
0000
0010
0000
0100
0000
,
1000
0010
0001
0100
,
0001
0010
1000
0200
,
0300
0010
0001
0000
1000
0000
1100
0000
,
0000
0101
0000
1001
,
0000
0000
0000
0110
,
0000
0000
0000
0000
0000
1000
0002
0000
,
0000
0000
0000
0000
,
0000
0000
0000
0003
;

//---------------dance-single - ----------------
#NOTES:
     dance-single:
     :
     Easy:
     4:
     0.203,0.220,0.039,0.134,0.000:
0000
0000
0000
0000
,
0000
0000
0000
0000
,
0000
0000
0000
0000
,
0000
0000
0000
0000
,
0000
0000
0000
0000
,
0000
0000
0000
0000
,
1000
0000
1000
0000
,
0001
0000
0001
0000
,
0000
1000
1000
0001
,
0001
0010
0100
0000
,
1000
0000
0001
0000
,
0100
0010
0100
0000
,
0001
0000
0010
0000
,
1000
0000
0100
0000
,
0001
0000
1000
0000
,
0100
0010
0100
0000
,
1000
0000
0010
0000
,
0100
0000
0000
0001
,
0001
0000
0100
0000
,
0010
1000
0100
0000
,
0010
0000
0001
0000
,
0010
0100
1000
0001
,
1000
0000
0100
0000
,
0010
0001
0100
0000
,
0010
0000
1000
0000
,
0010
0100
0001
1000
,
0001
0000
1001
0000
,
1000
0000
1001
0000
,
0000
0001
0100
0010
,
1000
0010
0100
0001
,
1000
0000
1001
0000
,
0001
0000
1001
0000
,
0000
1000
0100
0010
,
0001
0010
0100
1000
,
0002
0003
2000
3000
,
0000
0001
0010
0100
,
2000
3000
0002
0003
,
0000
1000
0010
0100
,
0001
2000
3000
0000
,
0001
0100
0010
2000
,
3000
0002
0003
1000
,
0100
0010
0010
0002
,
0003
0200
0300
0010
,
1000
0001
1000
0200
,
0300
0020
0030
0001
,
1000
0001
0000
2000
,
3000
0200
0300
0020
,
0030
0002
0003
0200
,
0300
0020
0030
0000
,
0000
0000
0000
1000
,
0000
0100
0000
0010
,
0000
0001
1000
0001
,
0100
0100
0000
0010
,
0000
1000
0000
0100
,
0000
0010
0000
0001
,
0001
0001
0000
1000
,
0010
0010
0000
0100
,
0000
0001
0000
1000
,
0000
0100
0000
0010
,
0001
0010
0000
0100
,
0000
0100
0000
0100
,
1000
0100
1000
0001
,
0000
0001
0000
0100
,
0010
1000
0000
0100
,
0000
0100
0000
0010
,
0000
0010
0000
0001
,
0000
1000
0000
0010
,
0100
0001
0000
0010
,
0000
0000
0000
0100
,
0000
0000
0000
1001
;

//---------------dance-double - ----------------
#NOTES:
     dance-double:
     :
     Medium:
     7:
     0.301,0.311,0.024,0.032,0.000:
00000000
00000000
00000000
00000000
,
00000000
00000000
00000000
00000000
,
00000000
00000000
00000000
00000000
,
00000000
00000000
00000000
00000000
,
00000000
00000000
00000000
00000000
,
00000000
00000000
00000000
00000000
,
00000001
00000000
00000010
00000000
,
00001000
00000000
00010000
00000000
,
00100000
10000000
01000000
00100000
,
00010000
00001000
00000100
00000010
,
00000001
00001000
00001000
00000100
,
00010000
00001000
01000000
00000000
,
01000000
00100000
10000000
00010000
,
00100000
01000000
10000000
00010000
,
10000000
01000000
01000000
00100000
,
00001000
00010000
00000100
00001000
,
00000010
00000000
00000010
00000000
,
00001001
00000000
00000000
00000000
00000001
00000010
00000100
00000000
,
00001000
00000010
00000010
00010000
,
00001000
01000000
01000000
00010000
,
00100000
00000000
00000000
01000000
10000000
00000000
00010000
00000000
,
10000000
00000000
01000000
00100000
00010000
00000000
00100000
00000000
,
00001000
00010000
00010000
00000100
,
00001000
00000010
00000100
00000001
,
00001000
00000000
00000000
00000001
00001000
00000000
00000000
00000100
,
00000000
00000100
00000000
00000100
00010000
00000000
00011000
00000000
,
00001000
01000000
00100000
01000000
,
00010000
01000000
00100000
10000000
,
01000000
00100000
00010000
00001000
,
00000100
00000010
00000001
00001000
,
00000001
00000100
00000010
00000100
,
00001000
00000100
00000010
00000100
,
00000001
00000100
00001000
00010000
,
00100000
10000000
00010000
00100000
,
01000000
00000000
00000000
10000000
01000000
00000000
00100000
00000000
,
00001000
00000000
00010000
00000100
00001000
00000000
00000100
00010000
,
00001000
00000000
00000000
00000100
00000001
00000000
00001000
00000000
,
00000100
00000000
00000010
00000001
00000100
00000000
00000010
00000000
,
00001000
00000100
00010000
00001000
,
01000000
00010000
00100000
00000000
01000000
10000000
00010000
00000000
,
10000000
01000000
00100000
00010000
,
00001000
00000000
00000100
00000010
00000001
00001000
00000001
00000000
,
00000100
00000000
00000010
00000000
00001000
00000100
00001000
00000000
,
00000100
00000000
00010000
00000000
00001000
01000000
00001000
00000000
,
00010000
01000000
10000000
00100000
,
00010000
00001000
00000100
00000001
,
00000000
00000010
00000000
00001000
,
00000000
00010000
00000000
01000000
,
00000000
10000000
00010000
01000000
,
00001000
00010000
00000100
00001000
,
00001000
00000000
00000010
00000000
00000010
00000000
00000100
00000001
,
00001000
00000000
00000100
00000000
00010000
00001000
00010000
00000000
,
00001000
00000000
00001000
00000000
01000000
00100000
10000000
00000000
,
00010000
00100000
00001000
00010000
,
00000000
00010000
00000100
00000000
00001000
00000000
00000010
00000000
,
00000100
00000000
00000001
00001000
00000001
00000000
00000100
00000000
,
00000010
00000000
00000010
00000000
00001000
00000100
00010000
00000000
,
00001000
00000000
01000000
00000000
00010000
00100000
01000000
00000000
,
10000000
00010000
00000000
01000000
,
00001000
00000000
00010000
00000000
00000100
00001000
00000100
00000000
,
00000010
00000000
00000001
00000000
00000001
00000000
00000100
00000010
,
00000100
00001000
00010000
00100000
,
00000000
10000000
00100000
00000000
01000000
00000000
00010000
00000000
,
10000000
01000000
00100000
00000000
00001000
00000000
00010000
00000000
,
00000100
00010000
00000010
00000100
,
00000001
00000000
00000010
00000100
00000010
00000100
00001000
00000000
,
00000000
00000001
00000100
00000000
00000010
00000000
00001000
00000000
,
00000100
00000000
00010000
00000000
00001000
01000000
00200000
00000000
,
00000000
00300000
00000000
20000000
,
00000000
00000000
30000000
00000000
00000000
00010000
20020000
00000000
,
00000000
00000000
00000000
00000000
,
00000000
00000000
00000000
30030000
;

//---------------dance-double - ----------------
#NOTES:
     dance-double:
     :
     Easy:
     4:
     0.179,0.198,0.008,0.016,0.000:
00000000
00000000
00000000
00000000
,
00000000
00000000
00000000
00000000
,
00000000
00000000
00000000
00000000
,
00000000
00000000
00000000
00000000
,
00000000
00000000
00000000
00000000
,
00000000
00000000
00000000
00000000
,
00010000
00000000
00001000
00000000
,
00010000
00000000
01000000
00000000
,
10000000
00000000
00100000
00000000
,
01000000
00000000
00001000
00000000
,
00010000
00001000
00001000
00000000
,
00010000
00000100
00000010
00000000
,
00000001
00000000
00000100
00000000
,
00000010
00000000
00010000
00000000
,
00001000
00010000
00010000
00000000
,
00001000
01000000
00100000
00000000
,
10000000
00000000
00010000
00000000
,
10000000
00000000
01000000
00100000
,
00010000
01000000
01000000
00000000
,
00100000
10000000
01000000
00000000
,
00010000
00000000
00001000
00000000
,
00010000
00000000
00000100
00000000
,
00000010
00000001
00000001
00000000
,
00000010
00000100
00001000
00000000
,
00000001
00000000
00000100
00000000
,
00001000
00000000
00010000
00010000
,
00001000
00000000
00010000
00000000
,
01000000
00000000
10000000
00000000
,
00010000
10000000
01000000
00000000
,
00100000
00001000
00010000
00000000
,
00001000
00000000
00010000
00000000
,
00000100
00000000
00001000
00000000
,
00000010
00000100
00000001
00000000
,
00000010
00000100
00001000
00000000
,
00000001
00000000
00000100
00000000
,
00001000
00000000
00010000
00000000
,
00100000
00000000
10000000
00000000
,
00010000
10000000
00010000
00000000
,
10000000
01000000
00000000
00010000
,
00000000
00001000
00000000
00000010
,
00000000
00000001
00000000
00000100
,
00000010
00000100
00000000
00000010
,
00000000
00010000
00000000
00001000
,
00000000
01000000
00000000
00100000
,
10000000
00010000
00000000
00100000
,
00000000
01000000
00000000
10000000
,
00000000
00010000
00000000
01000000
,
00000000
00001000
00000000
00010000
,
00000100
00001000
00000000
00000010
,
00000000
00000100
00000000
00000001
,
00000000
00001000
00000000
00000100
,
00000000
00010000
00001000
01000000
,
00010000
00010000
00000000
10000000
,
01000000
00100000
00000000
00001000
,
00000000
00010000
00000000
00000100
,
00000010
00000001
00000000
00001000
,
00000010
00000010
00000000
00000100
,
00000001
00001000
00000000
00000100
,
00000000
00010000
00000000
00001000
,
00000000
01000000
00000000
00100000
,
10000000
01000000
00000000
00100000
,
00010000
01000000
00000000
00001000
,
00010000
00000100
00000000
00001000
,
00000000
00000010
00000000
00000100
,
00000000
00000001
00000000
00001000
,
00000000
00000100
00000100
00000100
,
00000000
00010000
00000000
00001000
,
00000000
01000000
00010000
00100000
,
00000000
00000000
00000000
01000000
,
00000000
00000000
00000000
20020000
,
00000000
00000000
00000000
00000000
,
00000000
00000000
00000000
30030000
;

//---------------dance-single - ----------------
#NOTES:
     dance-single:
     :
     Beginner:
     1:
     0.105,0.137,0.008,0.000,0.000: // measure 1
0000
0000
0000
0000
,  // measure 2
0000
0000
0000
0000
,  // measure 3
0000
0000
0000
0000
,  // measure 4
0000
0000
0000
0000
,  // measure 5
0000
0000
0000
0000
,  // measure 6
0000
0000
0000
0000
,  // measure 7
1000
0000
1000
0000
,  // measure 8
0001
0000
0001
0000
,  // measure 9
1000
0000
0000
0000
,  // measure 10
0001
0000
0000
0000
,  // measure 11
1000
0000
0000
0000
,  // measure 12
0100
0000
0100
0000
,  // measure 13
0100
0000
0000
0000
,  // measure 14
0001
0000
0000
0000
,  // measure 15
1000
0000
0000
0000
,  // measure 16
0100
0000
0100
0000
,  // measure 17
0100
0000
0000
0000
,  // measure 18
0001
0000
0000
0000
,  // measure 19
1000
0000
1000
0000
,  // measure 20
1000
0000
0000
0000
,  // measure 21
0001
0000
0001
0000
,  // measure 22
0001
0000
0000
0000
,  // measure 23
1000
0000
1000
0000
,  // measure 24
1000
0000
0000
0000
,  // measure 25
0010
0000
0010
0000
,  // measure 26
0010
0000
0000
0000
,  // measure 27
0100
0000
0100
0000
,  // measure 28
0100
0000
0100
0000
,  // measure 29
0000
0001
0000
0000
,  // measure 30
1000
0000
0000
0000
,  // measure 31
0001
0000
0001
0000
,  // measure 32
0001
0000
0001
0000
,  // measure 33
0000
1000
0000
0000
,  // measure 34
0010
0000
0000
0000
,  // measure 35
0100
0000
0100
0000
,  // measure 36
0000
0000
0100
0000
,  // measure 37
0100
0000
0100
0000
,  // measure 38
0000
0000
0001
0000
,  // measure 39
0001
0001
0000
0000
,  // measure 40
0000
1000
0000
1000
,  // measure 41
0000
1000
0000
0000
,  // measure 42
0000
0001
0000
0001
,  // measure 43
0000
0001
0000
1000
,  // measure 44
0000
1000
0000
0100
,  // measure 45
0000
0000
0000
0100
,  // measure 46
0000
0000
0000
0100
,  // measure 47
0000
0100
0000
0010
,  // measure 48
0000
0010
0000
0100
,  // measure 49
0000
0000
0000
0000
,  // measure 50
0000
0000
0000
0000
,  // measure 51
0000
0000
0000
0000
,  // measure 52
0000
0001
0000
1000
,  // measure 53
0000
1000
0000
1000
,  // measure 54
0000
0000
0000
0001
,  // measure 55
0000
0001
0000
0001
,  // measure 56
0000
0000
0000
0100
,  // measure 57
0000
0100
0000
0100
,  // measure 58
0000
0000
0000
0010
,  // measure 59
0000
0010
0000
0010
,  // measure 60
0000
0000
0000
0100
,  // measure 61
0000
0100
0000
0100
,  // measure 62
0000
0000
0000
0001
,  // measure 63
0000
0001
0000
0001
,  // measure 64
0000
0000
0000
0100
,  // measure 65
0000
0100
0000
0010
,  // measure 66
0000
0010
0000
0100
,  // measure 67
0000
0100
0000
0100
,  // measure 68
0000
0000
0000
0010
,  // measure 69
0000
0000
0000
0100
,  // measure 70
0000
0000
0000
1001
;
