#TITLE:rainbow guitar weeps;
#SUBTITLE:;
#ARTIST:dj TAKA;
#TITLETRANSLIT:;
#SUBTITLETRANSLIT:;
#ARTISTTRANSLIT:;
#GENRE:;
#CREDIT:Silverhawke;
#MENUCOLOR:;
#METERTYPE:DDR;
#BANNER:rainbow guitar weeps.png;
#BACKGROUND:rainbow guitar weeps-bg.png;
#LYRICSPATH:;
#CDTITLE:cdtitle.png;
#MUSIC:rainbow guitar weeps.mp3;
#OFFSET:-0.028;
#SAMPLESTART:25.390;
#SAMPLELENGTH:15.000;
#SELECTABLE:YES;
#LISTSORT:;
#BPMS:0.000=156.000;
#STOPS:;
#BGCHANGES:0.000=rainbow guitar weeps.avi=1.000=1=0=0,
99999=-nosongbg-=1.000=0=0=0 // don't automatically add -songbackground-
;
#ATTACKS:;

//---------------dance-single - ----------------
#NOTES:
     dance-single:
     :
     Hard:
     14:
     0.697,0.718,0.024,0.260,0.402:
0000
0000
0000
0000
,
0000
0000
0000
0000
,
0000
0000
0000
0000
,
0000
0000
0000
0000
,
0000
0000
0000
0000
,
0001
0010
0100
1000
,
0010
0001
0100
1000
,
0001
0100
0010
1000
,
0100
0001
0010
1000
,
0001
0100
0010
0100
0001
0001
0010
0100
,
1000
0100
0010
0100
1000
1000
0010
0100
,
0001
0100
0010
0100
0001
0001
0010
0100
,
1000
0100
0010
0100
1000
1000
0010
0100
,
0001
0100
0010
1000
0001
1000
0010
0100
,
0001
0010
0100
1000
0001
1000
0100
0010
,
0001
0001
0100
0100
0010
0010
1000
1000
,
2002
0000
0000
0000
3003
0000
0000
0000
0010
0000
0000
0010
0000
0000
0100
0000
,
0001
0000
0000
1000
0100
0000
0010
0000
0100
0000
0000
0100
0000
0000
1000
0000
,
0100
0000
0000
0010
0001
0000
0100
0000
0001
0000
0000
0001
0000
0000
1000
0000
,
0001
0000
0000
0010
0100
0000
1000
0000
0001
0000
0000
0100
0000
0000
0010
0000
,
1000
0000
0001
0100
0001
0000
0100
0010
0100
0000
0010
1000
0010
0000
1000
0000
,
0001
0000
0000
0000
0010
0100
0010
0000
0001
0000
0100
0000
1000
0000
0100
0000
,
0001
0010
0010
0100
1000
1000
0010
0100
,
0001
0010
0001
0000
1000
0000
0010
0000
1000
0100
1000
0000
0001
0000
0100
0000
,
0001
0000
0010
0000
0100
0000
1000
0000
0001
0000
0000
0001
0000
0000
0100
0000
,
0001
0000
0000
1000
0010
0000
0100
0000
0010
0000
0000
0010
0000
0000
1000
0000
,
0010
0000
0000
0100
0001
0000
0010
0000
0001
0000
0000
0001
0000
0000
1000
0000
,
0001
0000
0000
0100
0010
0000
1000
0000
0001
0000
0000
0010
0000
0000
0100
0000
,
1000
0000
0001
0010
0001
0000
0010
0100
0010
0000
0100
1000
0100
0000
1000
0000
,
0001
0000
0000
0000
0100
0010
0100
0000
0001
0000
0010
0000
1000
0000
0010
0000
,
0001
0100
0100
0010
1000
1000
0100
0010
,
0001
0100
0001
0000
1000
0000
0100
0000
1000
0010
1000
0000
0001
0000
0010
0000
,
0001
0100
0010
1000
0001
0010
0100
1000
,
2002
0000
0000
0000
,
3003
0000
0000
0000
0001
0100
0100
0010
,
0020
0000
0030
1000
0100
0010
0001
0100
,
0020
0000
0130
0001
0010
0100
1000
0100
,
0010
0000
0000
0010
0001
0000
0000
0001
0100
0000
0000
0100
0010
0000
1000
0000
,
0100
0100
0010
0010
0001
0100
0010
0100
,
0002
0000
0000
0000
1003
0100
1000
0000
0200
0000
0000
0000
0310
0001
0010
0000
,
0002
0000
0000
0000
0103
0010
0100
0000
0010
0000
1000
0000
0000
0000
1000
0000
,
0100
0010
0001
1000
0001
0010
0100
1000
,
0010
0100
0001
1000
0100
0001
0100
1000
,
0002
0000
0000
0000
0103
0010
0100
0000
0002
0000
0000
0000
0013
0100
0010
0000
,
0002
0000
0000
1003
0100
0000
0010
0001
0020
0000
0000
0130
1000
0000
0001
0100
,
0002
0000
0003
1000
0100
0010
0001
0100
,
0010
0001
0010
1000
0100
0010
0001
0100
,
0020
0000
0030
0100
0001
0010
0100
1000
,
0100
0000
0000
0010
0001
0000
0100
0000
0010
0000
1000
0000
0100
0000
0010
0000
,
0002
0000
0000
0000
0103
0000
0010
0000
1000
0001
0000
0010
0001
0000
0100
0001
,
0000
1000
0001
0000
0010
0001
0000
1000
0001
0000
0100
0000
1000
0000
0100
0000
,
0002
0000
0000
0000
0003
0000
1000
0010
1000
0000
0001
0100
0001
0000
1000
0000
,
0200
0000
0000
0000
0310
0001
0010
0000
0100
1000
0100
0000
1000
0010
1000
0000
,
0001
0000
0000
0001
0100
0000
0000
0100
1000
0000
0000
1000
0100
0000
0000
0100
,
0010
0000
1000
0100
1000
0000
0100
0000
0010
0000
0001
1000
0001
0000
0010
0000
,
0200
0000
0000
0000
1300
0100
1000
0000
0002
0000
0000
0000
0103
0010
0100
0000
,
0002
0000
0000
0000
1003
0010
1000
0000
0001
0000
0100
0020
0000
0000
1030
0000
,
0001
0100
0001
0000
0010
0000
0100
1000
0100
0000
0010
0000
0001
0000
0100
0000
,
1000
0001
1000
0100
0010
1000
0100
0001
,
0200
0000
0000
0000
0310
0001
0010
0000
0200
0000
0000
0000
1300
0010
1000
0000
,
0002
0000
0000
1003
0100
0000
1000
0001
2000
0000
0000
3001
0100
0000
0001
1000
,
0002
0000
0000
0000
0003
0000
1000
0100
1000
0000
0100
0010
0100
0000
0010
0001
,
0010
0000
0001
0100
0001
0000
0100
0010
0100
0000
0010
1000
0010
0000
0100
0001
,
0200
0000
0000
0000
0300
0000
0001
1000
0001
0000
1000
0100
1000
0000
0010
0000
,
2000
0000
0000
0000
3100
0010
0100
0000
0010
0001
0010
0000
0001
1000
0001
0000
,
2000
0000
0000
0000
3100
0010
0100
0000
1000
0100
0000
1000
0001
0000
1000
0010
,
0000
1000
0001
0000
1000
0100
0000
1000
0001
0000
0000
0000
0110
0000
0000
0000
,
1000
0100
0010
0001
0200
0010
0310
1000
,
0001
0010
0100
1000
0002
0100
0103
0010
,
1000
0000
0000
0100
0000
0000
0010
0000
0000
0100
0000
0000
1000
0000
0010
0000
0100
0000
0010
0000
0000
1000
0000
0000
,
0001
0000
0000
0010
0000
0000
0100
0000
0000
0010
0000
0000
0001
0000
0100
0000
0010
0000
0100
0000
0000
0001
0000
0000
,
1000
0000
0000
0100
0000
0000
0010
0000
0000
0001
0000
0000
1000
0000
0010
0000
0100
0000
0001
0000
0000
1000
0000
0000
,
0001
0000
0000
0010
0000
0000
0100
0000
0000
1000
0000
0000
0001
0000
0100
0000
0010
0000
1000
0000
0000
0001
0000
0000
,
1000
0000
0000
0100
0000
0000
0010
0000
0000
0001
0000
0000
0100
0000
0010
0000
1000
0000
0001
0000
0000
0010
0000
0000
,
0100
0000
0000
0010
0000
0000
0001
0000
0000
1000
0000
0000
0010
0000
0100
0000
0001
0000
1000
0000
0000
0100
0000
0000
,
0010
0001
1000
0001
0100
0100
0001
1000
,
0010
1000
0001
1000
0100
0100
1000
0001
;

//---------------dance-single - ----------------
#NOTES:
     dance-single:
     :
     Medium:
     10:
     0.478,0.437,0.024,0.032,0.053:
0000
0000
0000
0000
,
0000
0000
0000
0000
,
0000
0000
0000
0000
,
0000
0000
0000
0000
,
0000
0000
0000
0000
,
0001
0001
0100
0010
,
1000
1000
0100
0010
,
0001
0001
0010
0100
,
1000
1000
0010
0100
,
0001
0000
1000
0000
0100
0010
0100
0000
,
1000
0000
0001
0000
0100
0010
0100
0000
,
0001
0000
1000
0000
0010
0100
0010
0000
,
1000
0000
0001
0000
0010
0100
0010
0000
,
0001
0000
0100
0000
0010
1000
0001
0000
,
1000
0000
0100
0000
0010
0001
1000
0000
,
0001
0100
0010
0000
1000
0100
0010
0000
,
2002
0000
0000
0000
3003
0000
0000
0000
0100
0000
0000
0100
0000
0000
0001
0000
,
0100
0000
0000
0000
0010
0000
1000
0000
0001
0000
0000
0001
0000
0000
1000
0000
,
0001
0000
0000
0000
0010
0000
0100
0000
1000
0000
0000
1000
0000
0000
0100
0000
,
1000
0000
0000
0000
0100
0000
0010
0000
0001
0000
0000
0100
0000
0000
0010
0000
,
1000
0100
0010
0000
0100
0010
0001
0000
,
1000
0000
0010
0100
0010
0000
1000
0000
,
0001
0010
0100
0000
1000
0010
0100
0000
,
0001
1000
0001
1000
0100
0010
0100
0000
,
1000
0000
0100
0000
0010
0000
0000
0000
0100
0000
0000
0100
0000
0000
1000
0000
,
0100
0000
0000
0000
0010
0000
0001
0000
1000
0000
0000
1000
0000
0000
0001
0000
,
1000
0000
0000
0000
0010
0000
0100
0000
0001
0000
0000
0001
0000
0000
0010
0000
,
0001
0000
0000
0000
0100
0000
0010
0000
1000
0000
0000
0100
0000
0000
0010
0000
,
0001
0100
0010
0000
0100
0010
1000
0000
,
0001
0000
0010
0100
0010
0000
0001
0000
,
1000
0010
0100
0000
0001
0010
0100
0000
,
1000
0001
1000
0001
0100
0010
0100
0000
,
0001
0100
0010
0000
0100
0010
1000
0000
,
2002
0000
0000
0000
,
3003
0000
0000
0000
0001
1000
0100
1000
,
0001
0000
0000
1000
0001
0100
0010
0000
,
0100
0000
0001
1000
0100
0000
0010
0000
,
0100
1000
0001
0000
0100
0001
1000
0000
,
0010
1000
0100
0000
0010
0001
0100
0000
,
0010
0000
1000
0100
1000
0000
0001
0100
,
0001
0000
1000
0010
1000
0001
0000
0001
,
1000
0100
0010
0001
,
1000
0010
0100
0001
0010
0100
1000
0000
,
0001
0000
1000
0100
0001
0000
1000
0100
,
0001
0000
1000
0100
0001
0000
0100
1000
,
0001
0000
0100
0000
0010
1000
0100
0000
,
0010
0001
0100
0001
0010
0000
0100
0000
,
1000
0000
0000
0001
0100
0000
0010
0100
,
0001
0000
1000
0000
0100
0010
0001
0000
,
1000
0000
0000
0000
0010
0000
0000
0000
0100
0000
0000
0001
0000
0000
1000
0000
,
0000
0001
0000
0000
0100
0000
0000
0000
0010
0000
1000
0000
0100
0000
0010
0000
,
0001
0000
1000
0100
0010
0001
0100
0010
,
1000
0000
0001
0100
0010
0100
0001
0010
,
0100
0000
1000
0000
0001
0100
0010
0000
,
1000
0100
1000
0100
0010
0100
1000
0000
,
0001
0000
0100
0010
1000
0000
0100
0010
,
1000
0000
0100
0010
1000
0100
0000
0010
,
0001
0100
0010
0000
0001
0100
0010
0000
,
1000
0100
0001
0100
1000
0001
0100
0000
,
0010
0000
0100
0001
1000
0000
0100
0001
,
1000
0000
0100
0001
1000
0000
0100
0001
,
0010
0000
0000
0100
1000
0100
1000
0000
,
0001
0100
0010
0000
0100
0001
1000
0100
,
0010
0000
0000
0100
1000
0001
0100
0010
,
1000
0000
0001
0100
0010
0100
0001
0010
,
0100
0000
0000
0000
1000
0000
0000
0000
0001
0000
0000
0010
0000
0000
0100
0000
,
0000
1000
0000
0000
0001
0000
0000
0010
0000
0000
0000
0000
0110
0000
0000
0000
,
1000
0100
0010
0000
0100
1000
0001
0000
,
0100
0001
1000
0000
0010
1000
0100
0000
,
0010
0001
0100
0000
0001
1000
0100
0000
,
0010
0001
0100
0000
0010
1000
0001
1000
,
0100
0010
0001
0000
0100
0010
1000
0000
,
0001
0100
0010
0000
1000
0100
0010
0000
,
0100
1000
0001
0000
0100
0010
1000
0000
,
0010
0100
0001
0000
1000
0010
1000
0010
,
0100
0001
1000
0000
0010
0010
0000
0100
,
0001
1000
0100
0000
0010
0010
0000
0001
;

//---------------dance-single - ----------------
#NOTES:
     dance-single:
     :
     Easy:
     7:
     0.256,0.312,0.008,0.008,0.000:
0000
0000
0000
0000
,
0000
0000
0000
0000
,
0000
0000
0000
0000
,
0000
0000
0000
0000
,
0000
0000
0000
0000
,
0010
0000
1000
0000
,
0100
0000
0001
0000
,
0010
0000
0001
0000
,
0100
0000
1000
0000
,
0010
0100
0001
0001
,
0010
0100
1000
1000
,
0010
0100
0010
1000
,
0100
0010
0100
1000
,
0010
0100
0001
0001
,
0010
0100
1000
1000
,
0100
0010
0001
0100
,
1001
0000
0100
0000
,
0100
0010
0100
0000
,
0100
0001
0100
0000
,
0100
0010
1000
0000
,
1000
0100
0010
0001
,
0100
0001
0010
0100
,
1000
0001
0100
0010
,
1000
1000
0100
0010
,
0001
0001
0100
0000
,
0100
0010
0100
0000
,
0100
0010
0100
0000
,
0100
0001
0010
0000
,
0010
0100
1000
0001
,
0100
0010
0100
0001
,
1000
0100
0010
0001
,
1000
1000
0010
0100
,
0001
0001
0010
0100
,
2000
0000
0000
0000
,
3000
0000
0001
0001
,
0001
0000
0100
0100
,
0100
0000
1000
1000
,
1000
0000
0010
0000
,
0001
0100
0010
0000
,
1000
0000
1000
0000
,
0100
0000
0100
0000
,
0001
0000
0001
0000
,
0010
0010
0010
0000
,
1000
0000
0100
0000
,
0001
0000
0100
0000
,
1000
0000
0001
0000
,
0100
0000
0010
0000
,
1000
0000
0001
0010
,
0100
0000
0010
0001
,
1000
0000
1000
0000
,
0001
0100
0010
1000
,
0001
0000
0010
0100
,
1000
0001
0100
0001
,
1000
0000
0100
0000
,
0010
0001
0100
0000
,
0010
1000
0100
0000
,
0010
0001
0100
0000
,
0010
1000
0001
1000
,
0100
0010
0001
0000
,
1000
0000
1000
0000
,
1000
0001
1000
0100
,
1000
0000
1000
0100
,
0010
0001
0100
0010
,
1000
0000
0001
0100
,
0010
0000
0100
0001
,
1000
0000
0001
0000
,
0010
0100
1000
0001
,
1000
0010
0100
0000
,
0001
0010
0100
0000
,
1000
0100
0010
0000
,
0001
0100
0010
0000
,
1000
0100
0001
0000
,
1000
0010
0001
0000
,
0001
0100
1000
0000
,
0001
0010
1000
0000
,
0001
0000
0010
0000
0100
0000
0000
1000
,
0000
0000
0010
0000
0100
0000
0000
0001
;

//---------------dance-single - ----------------
#NOTES:
     dance-single:
     :
     Beginner:
     3:
     0.144,0.185,0.000,0.008,0.000:
0000
0000
0000
0000
,
0000
0000
0000
0000
,
0000
0000
0000
0000
,
0000
0000
0000
0000
,
0000
0000
0000
0000
,
0001
0000
0000
0000
,
1000
0000
0000
0000
,
0100
0000
0000
0000
,
0010
0000
0000
0000
,
0100
0000
0100
0000
,
0100
0000
0000
0000
,
1000
0000
1000
0000
,
1000
0000
0000
0000
,
0001
0000
0001
0000
,
0001
0000
0000
0000
,
0100
0000
0100
0000
,
0100
0000
0000
0000
,
0010
0000
0010
0000
,
0010
0000
0010
0000
,
0010
0000
0000
0000
,
0100
0100
0100
0000
,
0100
0000
0100
0000
,
0001
0000
0001
0000
,
1000
0000
0000
0000
,
0001
0000
0000
0000
,
0100
0000
0100
0000
,
0100
0000
0100
0000
,
0100
0000
0000
0000
,
0010
0010
0010
0000
,
0010
0000
0010
0000
,
1000
0000
1000
0000
,
0001
0000
0001
0000
,
0010
0000
0010
0000
,
0200
0000
0000
0000
,
0300
0000
0001
0001
,
0001
0000
0001
0000
,
1000
0000
1000
0000
,
0100
0000
0100
0000
,
0010
0000
0010
0000
,
0001
0000
0000
0000
,
0001
0000
0000
0000
,
0001
0000
0001
0000
,
0100
0000
0100
0000
,
0010
0000
0000
0000
,
0010
0000
0000
0000
,
0010
0000
0010
0000
,
1000
0000
1000
0000
,
0001
0000
0000
0000
,
0010
0000
0000
0000
,
0100
0000
0100
0000
,
1000
0000
1000
0000
,
0001
0000
0001
0000
,
1000
0000
1000
0000
,
0010
0000
0010
0000
,
0100
0000
0100
0000
,
0001
0000
0000
0000
,
0001
0000
0000
0000
,
0001
0000
0001
0000
,
0010
0000
0010
0000
,
0100
0000
0000
0000
,
0100
0000
0000
0000
,
0100
0000
0100
0000
,
1000
0000
1000
0000
,
0001
0000
0000
0000
,
0100
0000
0000
0000
,
0010
0000
0010
0000
,
1000
0000
1000
0000
,
0001
0000
0001
0000
,
0001
0001
0001
0000
,
0100
0000
0100
0000
,
0100
0100
0100
0000
,
0010
0000
0010
0000
,
0010
0010
0010
0000
,
1000
0000
1000
0000
,
1000
1000
1000
0000
,
0001
0000
0000
0000
,
1000
0000
0000
0000
;

//---------------dance-double - ----------------
#NOTES:
     dance-double:
     :
     Hard:
     15:
     0.733,0.843,0.024,0.195,0.573: // measure 1
00000000
00000000
00000000
00000000
,  // measure 2
00000000
00000000
00000000
00000000
,  // measure 3
00000000
00000000
00000000
00000000
,  // measure 4
00000000
00000000
00000000
00000000
,  // measure 5
00000000
00000000
00000000
00000000
,  // measure 6
00010000
00000000
01000000
00000000
00100000
00010000
01000000
00000000
,  // measure 7
00001000
00000000
00010000
00000000
00000100
00001000
00000010
00000000
,  // measure 8
00000100
00000000
00000001
00000000
00000010
00000100
00010000
00000000
,  // measure 9
00001000
00000000
01000000
00000000
00100000
10000000
00010000
00000000
,  // measure 10
10000000
01000000
00010000
00000000
00001000
00010000
00001000
00000000
,  // measure 11
00000100
00000010
00001000
00000000
00000001
00001000
00000001
00000000
,  // measure 12
00000010
00001000
00010000
00000000
00100000
01000000
00100000
00000000
,  // measure 13
10000000
00010000
00100000
00000000
01000000
00010000
01000000
00000000
,  // measure 14
10000000
00000000
00010000
00000000
01000000
00100000
00000000
01000000
00100000
00000000
00010000
00000000
00001000
00010000
00000000
00001000
,  // measure 15
00010000
00000000
00000100
00000000
00000010
00000100
00000000
00000010
00000100
00000000
00001000
00000000
00000001
00000100
00000000
00000001
,  // measure 16
00000100
00001000
00010000
00100000
10000000
01000000
00100000
00001000
,  // measure 17
00022000
00000000
00000000
00000000
00033000
00000000
00000000
00000000
00010000
00000000
00000000
00010000
00000000
00000000
00000100
00000000
,  // measure 18
00010000
00000000
00000000
00000010
00000100
00000000
00000010
00000000
00001000
00000000
00000000
00001000
00000000
00000000
00000100
00000000
,  // measure 19
00001000
00000000
00000000
00001000
00000010
00000000
00000100
00000000
00001000
00000000
00000000
00001000
00000000
00000000
00010000
00000000
,  // measure 20
00001000
00000000
00000000
00001000
01000000
00000000
00100000
00000000
10000000
00000000
00000000
00010000
00000000
00000000
00100000
00000000
,  // measure 21
01000000
00000000
10000000
01000000
10000000
00000000
00010000
01000000
00010000
00000000
00100000
00001000
00100000
00000000
00001000
00010000
,  // measure 22
00001000
00000000
00000000
00000000
00010000
00000100
00010000
00000000
00000010
00000000
00000100
00000000
00000001
00000000
00001000
00000000
,  // measure 23
00000100
00000000
00001000
00000100
00001000
00000000
00000010
00000100
00000010
00000000
00001000
00000000
00000100
00000000
00010000
00000000
,  // measure 24
00001000
01000000
00001000
00000000
00010000
00000000
01000000
00000000
00100000
00010000
00100000
00000000
01000000
00000000
10000000
00010000
,  // measure 25
01000000
00100000
10000000
00000000
00010000
00000000
00100000
01000000
10000000
00000000
00000000
10000000
00000000
00000000
01000000
00000000
,  // measure 26
10000000
00000000
00000000
10000000
00010000
00000000
01000000
00000000
00001000
00000000
00000000
00001000
00000000
00000000
00010000
00000000
,  // measure 27
00001000
00000000
00000000
00001000
00000100
00000000
00000010
00000000
00001000
00000000
00000000
00001000
00000000
00000000
00000001
00000000
,  // measure 28
00001000
00000000
00000000
00001000
00000100
00000000
00000010
00000000
00000001
00000000
00000000
00000100
00000000
00000000
00000010
00000000
,  // measure 29
00010000
00000000
00001000
01000000
00001000
00000000
01000000
00100000
01000000
00000000
00100000
10000000
00100000
00000000
10000000
00010000
,  // measure 30
10000000
00000000
00000000
00000000
01000000
00100000
01000000
00000000
10000000
00000000
00010000
00000000
01000000
00000000
00001000
00000000
,  // measure 31
00010000
00000000
00000100
00001000
00000100
00000000
00001000
00000010
00001000
00000000
00000100
00000000
00000010
00000000
00000001
00000000
,  // measure 32
00000100
00000010
00000100
00000000
00001000
00000000
00010000
00000000
01000000
00100000
01000000
00000000
10000000
00000000
00100000
01000000
,  // measure 33
00010000
10000000
01000000
00000000
00100000
00000000
00010000
00000000
01000000
00000000
00001000
00010000
00000100
00000000
00010000
00000100
,  // measure 34
00000020
00000000
00000000
00000000
,  // measure 35
00000030
00000000
00000000
00000000
00000000
00000000
00000000
00000000
00000001
00000000
00000100
00000010
00000100
00000000
00000001
00001000
,  // measure 36
00000001
00000000
00001000
00000100
00010000
00001000
00010000
01000000
,  // measure 37
10000000
00000000
00100000
01000000
00100000
10000000
01000000
00010000
,  // measure 38
00001000
00000000
00000000
00001000
00000100
00000000
00000000
00000100
00000010
00000000
00000000
00000010
00001000
00000000
00000000
00001000
,  // measure 39
00000001
00000010
00000100
00001000
00000010
00000100
00001000
00010000
,  // measure 40
00100000
00000000
10000000
00010000
10000000
00000000
10000000
00010000
,  // measure 41
00100000
00000000
00100000
01000000
00100000
00001000
00000000
00001000
,  // measure 42
00010000
00000100
00000010
00001000
00000010
00000001
00000100
00000010
,  // measure 43
00010000
00001000
00010000
01000000
00100000
00010000
10000000
00100000
,  // measure 44
02100000
00000000
13000000
02000000
00010000
00000000
13000000
01000000
,  // measure 45
00020000
00000000
10030000
01000000
00020000
00000000
00031000
00000010
,  // measure 46
00000002
00000000
00000000
00001003
00000001
00001000
00000001
00000100
,  // measure 47
00000010
00000100
00000010
00010000
00001000
00010000
01000000
00100000
,  // measure 48
00020000
00000000
00000000
10030000
01000000
10000000
00100000
00010000
,  // measure 49
00002000
00000000
00013000
00000010
00000100
00001000
00000100
00000001
,  // measure 50
00002000
00000000
00000000
00000000
00003100
00000000
00000010
00000000
00000001
00000100
00000000
00000010
00000100
00000000
00000010
00001000
,  // measure 51
00000000
00000100
00001000
00000000
00000100
00010000
00000000
00001000
00010000
00000000
00001000
01000000
00001000
00000000
01000000
00100000
,  // measure 52
02000000
00000000
00000000
00000000
03000000
00010000
01000000
00010000
10000000
00000000
01000000
00100000
00010000
00000000
00100000
00001000
,  // measure 53
00200000
00000000
00000000
00000000
00301000
00010000
00000100
00010000
00001000
00000000
00000100
00000010
00000100
00000000
00000010
00001000
,  // measure 54
00000001
00000000
00001000
00000100
00001000
00000000
00000100
00000010
00000100
00000000
00000010
00000001
00000010
00000000
00000001
00000000
,  // measure 55
00000100
00000010
00000100
00000010
00000100
00000000
00001000
00000000
00010000
00001000
00010000
00001000
00010000
00000000
00100000
00000000
,  // measure 56
20000000
00000000
00000000
00000000
30010000
01000000
00010000
10000000
00020000
00000000
00000000
00000000
10030000
01000000
10000000
00010000
,  // measure 57
20000000
00000000
00000000
00000000
30010000
00100000
00001000
00100000
00001000
00010000
00001000
00010000
00000000
00000000
00000100
00001000
,  // measure 58
00000001
00000100
00000001
00000100
00000010
00000000
00001000
00000100
00001000
00000100
00000010
00000000
00000001
00000100
00000010
00010000
,  // measure 59
00001000
00000000
01000000
00100000
01000000
00000000
00100000
10000000
00100000
00000000
01000000
00010000
01000000
00000000
00010000
10000000
,  // measure 60
00020000
00000000
00000000
00000000
10030000
01000000
00100000
00010000
02000000
00000000
00000000
00000000
03001000
00100000
00010000
01000000
,  // measure 61
00002000
00000000
00000000
00013000
00000100
00001000
00000010
00010000
00002000
00000000
00000000
00003010
00000001
00001000
00000010
00000100
,  // measure 62
00000002
00000000
00000000
00000000
00000003
00000000
00001000
00000100
00001000
00000100
00010000
00001000
00010000
00001000
01000000
00000000
,  // measure 63
00100000
10000000
00010000
10000000
01000000
00000000
00100000
00010000
00100000
00010000
01000000
00000000
00001000
00010000
00000010
00010000
,  // measure 64
00002000
00000000
00000000
00000000
00003000
00000000
00000010
00000001
00001000
00000000
00000001
00001000
00000100
00000000
00001000
00000100
,  // measure 65
00020000
00000000
00000000
00031000
01000000
00010000
01000000
00100000
01000000
00000000
00010000
10000000
01000000
00000000
10000000
01000000
,  // measure 66
00200000
00000000
00000000
00000000
00301000
00010000
00001000
00000100
00000010
00001000
00000000
00000100
00001000
00000000
00000100
00010000
,  // measure 67
00000000
00001000
00010000
00000000
00001000
01000000
00000000
00010000
01000000
00000000
00000000
00000000
10010000
00000000
00000000
00000000
,  // measure 68
10000000
01000000
00100000
01000000
10000000
10000000
00010000
01000000
,  // measure 69
00001000
00010000
00000100
00000010
00000001
00000001
00001000
00000010
,  // measure 70
00000100
00000000
00000000
00001000
00000000
00000000
00010000
00000000
00000000
00100000
00000000
00000000
01000000
00000000
00010000
00000000
10000000
00000000
01000000
00000000
00000000
00100000
00000000
00000000
,  // measure 71
00001000
00000000
00000000
00010000
00000000
00000000
00001000
00000000
00000000
00000100
00000000
00000000
00000010
00000000
00001000
00000000
00000001
00000000
00001000
00000000
00000000
00000100
00000000
00000000
,  // measure 72
00000010
00000000
00000000
00000001
00000000
00000000
00000100
00000000
00000000
00001000
00000000
00000000
00010000
00000000
00001000
00000000
00010000
00000000
00100000
00000000
00000000
01000000
00000000
00000000
,  // measure 73
00010000
00000000
00000000
10000000
00000000
00000000
01000000
00000000
00000000
00100000
00000000
00000000
00001000
00000000
00010000
00000000
00001000
00000000
00000100
00000000
00000000
00000010
00000000
00000000
,  // measure 74
00001000
00000000
00000000
00000001
00000000
00000000
00000010
00000000
00000000
00000100
00000000
00000000
00010000
00000000
00001000
00000000
00010000
00000000
01000000
00000000
00000000
10000000
00000000
00000000
,  // measure 75
00100000
01000000
00001000
00010000
00001000
00001000
00001000
00001000
,  // measure 76
00000100
00000010
00001000
00000100
00000010
00001000
00010000
01000000
,  // measure 77
10000000
00010000
01000000
10000000
00010000
00100000
01000000
00001000
;

//---------------dance-double - ----------------
#NOTES:
     dance-double:
     :
     Medium:
     11:
     0.512,0.500,0.016,0.041,0.041:
00000000
00000000
00000000
00000000
,
00000000
00000000
00000000
00000000
,
00000000
00000000
00000000
00000000
,
00000000
00000000
00000000
00000000
,
00000000
00000000
00000000
00000000
,
00001000
00010000
00001000
00000100
,
00000010
00001000
00000010
00000100
,
00001000
00010000
01000000
00100000
,
10000000
00100000
00010000
10000000
,
00100000
00000000
01000000
00000000
00001000
00010000
00001000
00000000
,
00000100
00000000
00000010
00000000
00001000
00000001
00001000
00000000
,
00000100
00000000
00010000
00000000
00001000
01000000
00001000
00000000
,
00010000
00000000
01000000
00000000
10000000
00010000
10000000
00000000
,
00100000
01000000
00010000
00000000
01000000
00010000
00100000
00000000
,
00010000
00100000
00001000
00000000
00100000
00001000
00010000
00000000
,
00001000
00000100
00000010
00001000
00000001
00000010
00000100
00001000
,
00001001
00000000
00000000
00000000
00000000
00000000
00000000
00000000
00000001
00000000
00000000
00001000
00000000
00000000
00000001
00000000
,
00000100
00000000
00000000
00000000
00001000
00000000
00010000
00000000
00001000
00000000
00000000
01000000
00000000
00000000
00010000
00000000
,
00100000
00000000
00000000
00000000
01000000
00000000
10000000
00000000
01000000
00000000
00000000
00100000
00000000
00000000
00010000
00000000
,
01000000
00000000
00000000
00000000
00001000
00000000
00100000
00000000
00001000
00000000
00000000
00010000
00000000
00000000
00000100
00000000
,
00000010
00000100
00001000
00000001
00000100
00000010
00001000
00000001
,
00000010
00000000
00000100
00010000
00001000
00010000
00001000
00000000
,
01000000
00010000
00100000
00000000
01000000
10000000
00010000
01000000
,
00100000
00000000
10000000
00000000
00010000
00100000
00001000
00000000
,
00010000
00000000
00000100
00000000
00001000
00000000
00000010
00000000
00000100
00000000
00000000
00000001
00000000
00000000
00001000
00000000
,
00000001
00000000
00000000
00000000
00000100
00000000
00000010
00000000
00010000
00000000
00000000
00001000
00000000
00000000
01000000
00000000
,
00010000
00000000
00000000
00000000
00100000
00000000
01000000
00000000
10000000
00000000
00000000
00100000
00000000
00000000
01000000
00000000
,
00010000
00000000
00000000
00000000
10000000
00000000
01000000
00000000
00010000
00000000
00000000
00001000
00000000
00000000
00010000
00000000
,
00000100
00000010
00000001
00000010
00000100
00001000
00000001
00000100
,
00000010
00000000
00010000
00001000
00010000
00001000
01000000
00000000
,
00010000
10000000
01000000
00000000
00010000
01000000
00100000
00001000
,
00010000
00000000
00000100
00000000
00000010
00000001
00000100
00000000
,
00000010
00001000
00000001
00000100
00000010
00001000
00000001
00001000
,
00000200
00000000
00000000
00000000
,
00000300
00000000
00000000
00000000
00000010
00000001
00001000
00000001
,
00000100
00000000
00000010
00000000
00010000
00001000
00010000
01000000
,
00100000
00000000
00010000
00000000
10000000
00100000
01000000
00010000
,
10000000
01000000
00100000
00001000
,
00010000
00000100
00000010
00000000
00000001
00000100
00000010
00000100
,
00000001
00000000
00001000
00000100
00000010
00000000
00000010
00000100
,
00010000
00000000
00010000
00001000
01000000
00010000
00000000
00010000
,
10000000
01000000
00100000
00000000
00100000
01000000
10000000
00000000
,
00010000
01000000
00100000
01000000
00010000
10000000
01000000
00100000
,
00010000
00000000
01000000
00001000
01000000
00000000
01000000
00001000
,
00010000
00000000
00010000
00001000
00010000
00000000
00010000
00000100
,
00000010
00000000
00000001
00000000
00000100
00000010
00000100
00000000
,
00000001
00000010
00000100
00001000
00000010
00000100
00001000
00010000
,
00001000
00000000
01000000
00000000
00010000
00100000
01000000
10000000
,
00010000
00000000
01000000
00100000
01000000
00000000
00010000
10000000
,
00010000
10000000
01000000
00100000
,
00001000
00000000
00010000
00000000
00001000
00000100
00000010
00001000
,
00000001
00000000
00000010
00000000
00000100
00010000
00001000
00010000
,
01000000
00000000
10000000
00000000
00100000
00010000
00001000
00010000
,
00000020
00002030
00003002
00000023
,
00000130
00010000
00001000
00010000
01000000
00100000
01000000
10000000
,
01000000
00000000
01000000
00100000
00010000
00000000
01000000
00100000
,
00010000
00000000
01000000
00100000
00010000
10000000
00000000
10000000
,
00100000
01000000
00010000
00000000
00100000
01000000
00010000
00000000
,
00100000
01000000
00010000
00100000
00001000
00010000
00001000
00000100
,
00000010
00000000
00001000
00000001
00000100
00000000
00001000
00000001
,
00000100
00000000
00001000
00000001
00000100
00000000
00000010
00001000
,
00000100
00000000
00010000
00000000
00001000
01000000
00001000
00010000
,
00100000
01000000
00010000
10000000
01000000
00100000
00010000
01000000
,
00001000
00000000
00010000
00000000
00000100
00001000
00000010
00001000
,
00000100
00000000
00000010
00000001
00000100
00000010
00000100
00000001
,
00000010
00000000
00000000
00000000
00000100
00000000
00000000
00000000
00010000
00000000
00000000
00001000
00000000
00000000
01000000
00000000
,
00000000
00010000
00000000
00000000
10000000
00000000
00000000
00000000
01000000
00000000
00000000
00000000
01100000
00000000
00000000
00000000
,
00100000
00010000
01000000
00000000
00100000
00010000
01000000
00100000
,
10000000
01000000
00010000
00000000
10000000
01000000
00010000
00001000
,
00010000
00001000
00000100
00000000
00010000
00001000
00000100
00000010
,
00001000
00000001
00000010
00000000
00001000
00000001
00000010
00000100
,
00010000
00001000
00100000
00000000
00010000
00001000
00100000
01000000
,
10000000
01000000
00010000
00000000
10000000
01000000
00010000
00001000
,
00010000
00001000
00000010
00000000
00010000
00001000
00000010
00000001
,
00001000
00000010
00000100
00000000
00001000
00000010
00000100
00000001
,
00000100
00000010
00000100
00000001
00001000
00001000
00010000
10000000
,
01000000
00100000
01000000
10000000
00010000
00010000
00001000
00000001
;

//---------------dance-double - ----------------
#NOTES:
     dance-double:
     :
     Easy:
     7:
     0.256,0.312,0.008,0.008,0.000:
00000000
00000000
00000000
00000000
,
00000000
00000000
00000000
00000000
,
00000000
00000000
00000000
00000000
,
00000000
00000000
00000000
00000000
,
00000000
00000000
00000000
00000000
,
00010000
00000000
00001000
00000000
,
00100000
00000000
01000000
00000000
,
10000000
00000000
00100000
00000000
,
01000000
00000000
00001000
00000000
,
00010000
00000100
00001000
00001000
,
00000010
00000100
00000001
00000001
,
00000010
00000100
00010000
00001000
,
00010000
00001000
00100000
01000000
,
10000000
00100000
01000000
01000000
,
00001000
00100000
00010000
00010000
,
01000000
00001000
00010000
00001000
,
00011000
00000000
00000100
00000000
,
00000100
00000010
00000100
00000000
,
00000100
00001000
00000100
00000000
,
00000100
00000010
00000001
00000000
,
00001000
00000010
00000100
00000010
,
00010000
00001000
00010000
01000000
,
00100000
01000000
10000000
00010000
,
10000000
10000000
01000000
00100000
,
00100000
00001000
00010000
00000000
,
00010000
00001000
00010000
00000000
,
00010000
00001000
00010000
00000000
,
00010000
00000100
00001000
00000000
,
00001000
00000100
00000010
00000001
,
00000100
00000010
00000100
00010000
,
00001000
00100000
00010000
01000000
,
00001000
00010000
00000100
00001000
,
00000010
00000010
00000100
00000001
,
00002000
00000000
00000000
00000000
,
00003000
00000000
00000100
00000100
,
00000100
00000000
00010000
00010000
,
00001000
00000000
01000000
01000000
,
01000000
00000000
00010000
00000000
,
10000000
01000000
00100000
00000000
,
00010000
00000000
00001000
00000000
,
00000100
00000000
00000100
00000000
,
00000010
00000000
00000010
00000000
,
00000001
00000001
00000001
00000000
,
00001000
00000000
00010000
00000000
,
10000000
00000000
01000000
00000000
,
00100000
00000000
00001000
00000000
,
00010000
00000000
00000010
00000000
,
00000100
00000000
00000001
00001000
,
00001000
00000000
00000100
00010000
,
00001000
00000000
00001000
00000000
,
01000000
00100000
10000000
00010000
,
00100000
00000000
01000000
00100000
,
00001000
00010000
00000010
00000100
,
00000001
00000000
00000100
00000000
,
00000010
00001000
00000100
00000000
,
00010000
00001000
01000000
00000000
,
00100000
10000000
01000000
00000000
,
00100000
00001000
01000000
00010000
,
00100000
00001000
00010000
00000000
,
00000100
00000000
00000100
00000000
,
00000010
00000001
00000010
00000100
,
00000010
00000000
00000010
00000100
,
00010000
00001000
00100000
00010000
,
01000000
00000000
00100000
10000000
,
10000000
00000000
00010000
01000000
,
00100000
00000000
10000000
00000000
,
01000000
00100000
00001000
00010000
,
00001000
00000100
00000010
00000000
,
00001000
00000100
00010000
00000000
,
00001000
01000000
00010000
00000000
,
00100000
00001000
00010000
00000000
,
00000010
00010000
00001000
00000000
,
01000000
00001000
00010000
00000000
,
00000100
00010000
00001000
00000000
,
00100000
01000000
10000000
00000000
,
01000000
00000000
00100000
00000000
00001000
00000000
00000000
00010000
,
00000000
00000000
00000100
00000000
00000010
00000000
00000000
00000001
;
