#TITLE:portal;
#SUBTITLE:;
#ARTIST:猫叉Master+;
#TITLETRANSLIT:;
#SUBTITLETRANSLIT:;
#ARTISTTRANSLIT:Nekomata Master+;
#GENRE:;
#CREDIT:Silverhawke;
#MENUCOLOR:;
#METERTYPE:DDR;
#BANNER:portal.png;
#BACKGROUND:portal-bg.png;
#LYRICSPATH:;
#CDTITLE:cdtitle.png;
#MUSIC:portal.mp3;
#OFFSET:-0.028;
#SAMPLESTART:75.699;
#SAMPLELENGTH:15.000;
#SELECTABLE:YES;
#LISTSORT:;
#BPMS:0.000=130.000;
#STOPS:;
#BGCHANGES:0.000=portal.avi=1.000=1=1=0,
99999=-nosongbg-=1.000=0=0=0 // don't automatically add -songbackground-
;
#ATTACKS:;

//---------------dance-single - ----------------
#NOTES:
     dance-single:
     :
     Hard:
     13:
     0.656,0.644,0.288,0.508,0.914: // measure 1
0000
0000
0000
0000
,  // measure 2
0000
0000
0000
0000
,  // measure 3
0000
0000
0000
0000
,  // measure 4
0000
0000
0000
0000
,  // measure 5
0000
0000
0000
0000
,  // measure 6
0001
1000
0000
0001
0100
0001
0010
0100
0000
1000
0000
0100
,  // measure 7
0010
0100
0000
1000
0001
1000
0010
0000
0010
0100
0000
0100
,  // measure 8
0001
0100
0000
0001
0100
0001
1000
0000
0000
1000
0100
1000
,  // measure 9
0010
0100
0000
0001
0000
1000
0001
0010
0100
1001
0000
0000
,  // measure 10
0001
0000
0010
0100
1000
0000
0100
0000
0010
0100
1000
0000
,  // measure 11
0100
1000
0000
0001
0100
0000
0001
0000
0010
0000
0100
0000
,  // measure 12
1000
0000
0001
0100
0001
0000
1000
0010
0100
0000
0001
0000
,  // measure 13
1000
0000
0001
0010
0001
0000
0100
0000
0010
0000
1000
0100
,  // measure 14
1000
0000
0000
0001
0100
0000
0001
0000
0000
1000
0100
0000
,  // measure 15
1000
0000
0001
0100
0001
0000
1000
0000
0010
0000
0100
0000
,  // measure 16
0001
0000
0010
0100
1000
0000
0001
0100
0010
0000
1000
0000
,  // measure 17
0001
0000
0010
0100
1000
0000
0001
0000
0100
0000
0010
1000
,  // measure 18
0010
0000
0000
0100
0010
0000
1010
0000
0000
1000
0001
0000
,  // measure 19
0011
0000
0000
0010
0100
0000
1000
0000
0010
0000
0100
0000
,  // measure 20
0001
0000
1000
0100
0001
0000
0100
1000
0001
0000
0100
0000
,  // measure 21
0010
0000
1000
0010
0001
0000
0010
0000
1000
0000
0001
0010
,  // measure 22
0100
0000
0000
1000
0100
0000
0110
0000
0000
0010
0001
0000
,  // measure 23
1001
0000
0000
1000
0010
0000
0110
0000
0100
0000
0001
0000
,  // measure 24
1001
0000
1000
0100
0001
0000
0100
1000
0001
0000
0100
0000
,  // measure 25
1000
0000
0000
0000
0000
0000
0000
0000
0100
0000
0000
0000
0010
0000
0000
0000
1000
0000
0000
0000
0000
0000
0000
0000
0001
0000
0000
0000
0000
0000
0010
0000
0000
0000
0000
0000
0100
0000
0000
1000
0000
0000
0100
0000
0000
0000
0000
0000
,  // measure 26
1000
0000
0000
0102
0000
0000
1003
0000
0001
0100
0000
0000
,  // measure 27
0010
0000
0000
0000
1000
0000
0000
0000
0100
0000
0000
0000
0020
0000
0000
0000
0000
0000
0031
0000
0000
0010
0000
0000
0001
0000
0000
0000
0100
0000
0000
0000
0010
0000
0000
0000
2000
0000
0000
0000
0000
0000
0000
0000
0000
0000
0000
0000
,  // measure 28
3001
0000
0000
2100
0000
0000
3001
0010
0100
2000
0000
0000
,  // measure 29
3001
0100
0001
0102
0000
0000
1003
0000
0100
2000
0000
0000
,  // measure 30
3001
0000
0000
2100
0000
0000
3001
0000
1000
0100
0000
0000
,  // measure 31
0010
0000
0000
0000
0001
0000
0000
0000
0100
0000
0000
0000
0020
0000
0000
0000
0000
0000
1030
0000
0000
0010
0000
0000
1000
0000
0000
0000
0100
0000
0000
0000
0010
0000
0000
0000
0002
0000
0000
0000
0000
0000
0000
0000
0000
0000
0000
0000
,  // measure 32
1003
0000
0000
0000
0000
0000
0000
0000
0000
0000
0000
0000
0102
0000
0000
0000
0000
0000
0000
0000
0000
0000
0000
0000
1003
0000
0000
0000
0010
0000
0000
0000
0100
0000
0000
0000
0002
0000
0000
0000
0000
0000
1003
0000
0000
0010
0000
0000
,  // measure 33
1000
0000
0000
0000
0000
0000
0000
0000
0100
0000
0000
0000
2000
0000
0000
0000
0000
0000
3001
0000
0000
1000
0000
0000
0001
0000
0000
0000
0100
0000
0000
0000
0001
0000
0000
0000
0102
0000
0000
0000
0000
0000
0000
0000
0000
0000
0000
0000
,  // measure 34
1003
0000
0000
0000
0000
0000
0000
0000
0100
0000
0000
0000
0020
0000
0000
0000
0000
0000
0000
0000
0000
0000
0000
0000
0031
0000
0000
0000
0000
0000
0000
0000
0100
0000
0000
0000
0010
0000
0000
0000
0000
0000
1000
0000
0000
0001
0000
0000
,  // measure 35
1000
0100
0010
0002
0000
0000
0013
0000
0100
2000
0000
0000
,  // measure 36
3001
0000
0000
0000
0000
0000
1000
0000
0000
0000
0000
0000
0021
0000
0000
0000
0000
0000
0000
0000
0000
0000
0000
0000
0130
0000
0000
0000
1000
0000
0000
0000
0001
0000
0000
0000
0200
0000
0000
0000
0000
0000
0301
0000
0000
1000
0000
0000
,  // measure 37
0001
0000
0000
0000
0010
0000
0000
0000
0100
0000
0000
0000
2100
0000
0000
0000
0000
0000
3001
0000
0000
0100
0000
0000
0001
0000
0000
0000
0010
0000
0000
0000
0100
0000
0000
0000
2000
0000
0000
0000
0000
0000
0000
0000
3001
0000
0000
0000
,  // measure 38
0100
0010
1000
1002
0000
0000
0013
0000
0100
1000
0000
0001
,  // measure 39
0100
0000
0000
0000
0010
0000
0000
0000
1000
0000
0000
0000
0002
0000
0000
0000
0000
0000
0013
0000
0000
0100
0000
0000
0010
0000
0000
0000
0000
0000
0000
0000
0000
0000
0000
0000
2001
0000
0000
0000
0000
0000
0000
0000
0000
0000
0000
0000
,  // measure 40
3010
0000
0100
0002
0000
0000
0013
0100
1000
0002
0100
0103
,  // measure 41
0001
0000
0010
0000
0001
0000
1000
0000
0010
0000
1000
0000
0001
0000
0010
0000
0100
0000
2002
0000
0000
3003
0000
0000
,  // measure 42
0120
0000
0000
2030
0000
0000
3001
0010
0100
2000
0000
0000
,  // measure 43
3001
0000
0000
0000
0100
0000
0000
0000
0010
0000
0000
0000
0100
0000
0000
0001
0000
0000
0100
0000
0000
0001
0000
0000
0100
0000
0000
0000
0000
0000
0000
0000
0010
0000
0000
0000
2000
0000
0000
0000
0000
0000
3000
0000
0000
0000
0000
0000
,  // measure 44
2100
0000
0000
3002
0000
0000
0013
0100
1000
0002
0000
0000
,  // measure 45
0103
0000
0000
0000
0010
0000
0000
0000
1000
0000
0000
0000
0001
0000
0000
0100
0000
0000
0001
0000
0000
0100
0000
0000
0001
0000
0000
0000
0000
0000
0000
0000
1000
0000
0000
0000
0001
0000
0000
0000
0000
0000
0000
0000
0000
0000
0000
0000
,  // measure 46
0201
0000
0000
0320
0000
0000
1030
0100
0010
0002
0000
0000
,  // measure 47
0103
0000
0000
0000
0010
0000
0000
0000
1000
0000
0000
0000
0100
0000
0000
0010
0000
0000
0100
0000
0000
0010
0000
0000
0100
0000
0000
0000
0000
0000
0000
0000
1000
0000
0000
0000
0001
0000
0000
0000
0000
0000
0000
0000
0000
0000
0000
0000
,  // measure 48
0102
0000
0000
0023
0000
0000
0130
1000
0001
0020
0000
0000
,  // measure 49
0130
0000
0000
0000
1000
0000
0000
0000
0010
0000
0000
0000
0100
0000
0000
0001
0000
0000
0100
0000
0000
0001
0000
0000
0100
0000
0000
0000
0000
0000
0000
0000
0010
0000
0000
0000
1000
0000
0000
0000
0000
0000
0000
0000
0000
0000
0000
0000
,  // measure 50
0011
0000
0000
2010
0000
0000
3001
0010
0001
0200
0000
0000
,  // measure 51
0310
0000
0000
0000
1000
0000
0000
0000
0001
0000
0000
0000
0010
0000
0000
0100
0000
0000
1000
0000
0000
0100
0000
0000
0010
0000
0000
0000
0000
0000
0000
0000
0001
0000
0000
0000
2002
0000
0000
0000
0000
0000
3003
0000
0000
0000
0000
0000
,  // measure 52
0101
0000
0000
1200
0000
0000
1300
0010
0100
0020
0000
0000
,  // measure 53
1030
0000
0000
0000
0100
0000
0000
0000
0010
0000
0000
0000
0001
0000
0000
0100
0000
0000
0010
0000
0000
0100
0000
0000
0001
0000
0000
0000
0000
0000
0000
0000
1000
0000
0000
0000
2200
0000
0000
0000
0000
0000
3300
0000
0000
0000
0000
0000
,  // measure 54
1010
0000
0000
0012
0000
0000
1003
0010
1000
0200
0000
0000
,  // measure 55
0310
0000
0000
0000
0001
0000
0000
0000
1000
0000
0000
0000
0010
0000
0000
0100
0000
0000
0001
0000
0000
0100
0000
0000
0010
0000
0000
0000
0000
0000
0000
0000
1000
0000
0000
0000
2002
0000
0000
0000
0000
0000
3003
0000
0000
0000
0000
0000
,  // measure 56
1100
0000
0000
0201
0000
0000
0301
0010
0100
0020
0000
0000
,  // measure 57
0031
0000
0000
0000
0100
0000
0000
0000
0010
0000
0000
0000
1000
0000
0000
0100
0000
0000
0010
0000
0000
0100
0000
0000
1000
0000
0000
0000
0000
0000
0000
0000
0001
0000
0000
0000
0202
0000
0000
0000
0000
0000
0303
0000
0000
0000
0000
0000
,  // measure 58
0000
0000
0000
0000
1000
0000
0000
0000
0001
0000
0000
0000
0010
0000
0000
0100
0000
0000
0010
0000
0000
0100
0000
0000
0010
0000
0000
0000
0000
0000
0000
0000
0001
0000
0000
0000
2000
0000
0000
0000
0000
0000
0000
0000
0000
0000
0000
0000
,  // measure 59
3000
0000
0000
0000
0010
0000
0000
0000
0100
0000
0000
0000
0001
0000
0000
1000
0000
0000
0001
0000
0000
1000
0000
0000
0001
0000
0000
0000
0000
0000
0000
0000
0010
0000
0000
0000
0100
0000
0000
1000
0000
0000
0100
0000
0000
1000
0000
0000
,  // measure 60
0000
0000
0000
0000
0001
0000
0000
0000
0100
0000
0000
0000
0010
0000
0000
1000
0000
0000
0010
0000
0000
1000
0000
0000
0010
0000
0000
0000
0000
0000
0000
0000
0100
0000
0000
0000
0002
0000
0000
0000
0000
0000
0000
0000
0000
0000
0000
0000
,  // measure 61
0003
0000
0000
0000
0010
0000
0000
0000
0100
0000
0000
0000
1000
0000
0000
0001
0000
0000
1000
0000
0000
0001
0000
0000
1000
0000
0000
0000
0000
0000
0000
0000
0010
0000
0000
0000
0200
0000
0000
0000
0000
0000
0300
0000
0000
0000
0000
0000
;

//---------------dance-single - ----------------
#NOTES:
     dance-single:
     :
     Medium:
     10:
     0.463,0.412,0.152,0.271,0.554: // measure 1
0000
0000
0000
0000
,  // measure 2
0000
0000
0000
0000
,  // measure 3
0000
0000
0000
0000
,  // measure 4
0000
0000
0000
0000
,  // measure 5
0000
0000
0000
0000
,  // measure 6
1000
0000
1000
0100
0000
0000
0010
0000
0010
0001
0000
0000
,  // measure 7
0001
0000
0001
0100
0000
0000
0010
0000
0010
1000
0000
0000
,  // measure 8
0001
0000
1000
0001
0000
0000
0010
0000
0100
1000
0000
0000
,  // measure 9
0010
0000
0100
0001
0000
1000
0100
0000
0010
0001
0000
0000
,  // measure 10
1000
1100
0001
0101
,  // measure 11
1000
0000
0000
1100
0000
0000
0001
0000
0010
0000
0100
0000
,  // measure 12
1000
0000
0001
0100
0000
0000
0001
0000
1000
0100
0000
0000
,  // measure 13
0010
0000
0001
0100
0000
0010
1000
0000
0100
0000
0010
0000
,  // measure 14
0001
0000
0010
0100
0000
0000
1000
0000
0010
0100
0000
0000
,  // measure 15
0001
0000
0010
0100
0000
0000
1000
0000
0010
0000
0100
0000
,  // measure 16
0001
0000
1000
0100
0000
0000
1000
0000
0001
0100
0000
0000
,  // measure 17
0001
0000
1000
0010
0000
0010
0100
0000
0100
0001
0000
0000
,  // measure 18
0010
1100
0010
0101
,  // measure 19
0010
1000
0000
0101
0000
0000
1000
0000
0100
0000
0010
0000
,  // measure 20
0001
0000
1000
0100
0000
0000
1000
0000
0001
0100
0000
0000
,  // measure 21
0001
0000
1000
0010
0000
0010
0100
0000
0100
0001
1000
0000
,  // measure 22
0001
0000
1000
0100
0000
0000
1000
0000
0001
0100
0000
0000
,  // measure 23
0001
0000
1000
0010
0000
0000
1000
0000
0001
0000
0010
0000
,  // measure 24
0100
0000
1000
0010
0000
0000
0100
0000
0001
0010
0000
0000
,  // measure 25
0100
0000
0000
0000
1000
0000
0001
0000
0000
0000
0001
0000
0100
0000
0000
0010
0000
0000
0100
0000
0000
0100
0000
0000
,  // measure 26
0110
0000
0000
0002
0000
0000
1003
0000
1000
0100
0000
0000
,  // measure 27
0001
0000
0001
0100
0000
0100
0010
0000
0000
2000
0000
0000
,  // measure 28
3001
0000
0000
2000
0000
0000
3001
0000
1000
0100
0000
0000
,  // measure 29
0001
1000
0001
1000
0000
0100
0010
0000
0000
0002
0000
0000
,  // measure 30
1003
0000
0000
2100
0000
0000
3001
0000
0100
0010
0000
0000
,  // measure 31
1000
0000
0001
0200
0000
0000
0310
0000
0000
1002
0000
0000
,  // measure 32
1003
0000
0000
0110
0000
0000
0001
0000
0100
0010
0000
0000
,  // measure 33
1000
0000
0000
0020
0000
0000
1030
0001
1000
0002
0000
0000
,  // measure 34
0013
0000
0000
2100
0000
0000
3010
0000
0100
0001
0000
0000
,  // measure 35
1000
0000
0001
1000
0000
0000
0001
0000
0000
0200
0000
0000
,  // measure 36
0310
0000
0000
0010
0000
0000
0010
0000
0000
0000
0000
0000
1000
0000
0000
0000
0001
0000
0100
0000
0000
0000
0000
0000
,  // measure 37
0001
1000
0001
1000
0000
0000
0100
0000
0000
0120
0000
0000
,  // measure 38
0031
1000
0001
1000
0000
0000
0100
0000
0010
0001
0000
0000
,  // measure 39
0100
0000
0010
1000
0000
0000
0001
0000
0000
1002
0000
0000
,  // measure 40
0103
0000
0000
1020
0000
0000
0130
0000
0100
0001
0000
1000
,  // measure 41
0001
0100
0000
0100
0010
0000
0010
1000
0000
2000
0000
0000
,  // measure 42
3001
0000
0000
0210
0000
0000
0300
0001
1000
0001
0000
0000
,  // measure 43
0000
1000
0100
1000
0000
0001
0100
0000
0100
0010
0000
0000
,  // measure 44
1000
0000
0000
0120
0000
0000
0030
1000
0001
1000
0000
0000
,  // measure 45
0000
0100
0010
0100
0000
1000
0010
0000
0010
0100
0000
0000
,  // measure 46
0001
0000
0000
0021
0000
0000
0030
0100
1000
0100
0000
0000
,  // measure 47
0000
0010
0001
1000
0000
0010
0100
0000
0100
0001
0000
0000
,  // measure 48
1000
0000
0000
1200
0000
0000
0300
0010
0001
0010
0000
0000
,  // measure 49
0000
0100
1000
0001
0000
0100
0010
0000
0010
1000
0000
0000
,  // measure 50
0002
0000
0000
2003
0000
0000
3000
0001
0100
0010
0000
0000
,  // measure 51
0000
1000
0100
0010
0000
0010
0001
0000
0001
2000
0000
0000
,  // measure 52
3020
0000
0000
0230
0000
0000
0300
0010
0100
0001
0000
0000
,  // measure 53
0000
0010
0100
1000
0000
0001
1000
0000
1000
0200
0000
0000
,  // measure 54
0320
0000
0000
0032
0000
0000
0003
1000
0100
0010
0000
0000
,  // measure 55
0000
0001
0100
0010
0000
1000
0100
0000
0100
0020
0000
0000
,  // measure 56
0032
0000
0000
0203
0000
0000
0300
0010
1000
0001
0000
0000
,  // measure 57
0000
0010
0001
1000
0000
0100
0010
0000
0010
0002
0000
0000
,  // measure 58
0003
0000
1000
0100
0000
0100
0010
0000
0010
0001
0000
0000
,  // measure 59
0000
0000
0001
0100
0000
0100
0010
0000
0010
1000
0000
0000
,  // measure 60
0000
0000
1000
0010
0000
0010
0100
0000
0100
0001
0000
0000
,  // measure 61
0000
0000
0000
0000
0001
0000
0010
0000
0000
0000
0010
0000
0100
0000
0000
0000
0100
0000
2000
0000
0000
3000
0000
0000
;

//---------------dance-single - ----------------
#NOTES:
     dance-single:
     :
     Easy:
     5:
     0.222,0.231,0.008,0.042,0.000: // measure 1
0000
0000
0000
0000
,  // measure 2
0000
0000
0000
0000
,  // measure 3
0000
0000
0000
0000
,  // measure 4
0000
0000
0000
0000
,  // measure 5
0000
0000
0000
0000
,  // measure 6
0001
0100
0001
0100
,  // measure 7
0010
1000
0010
1000
,  // measure 8
0100
0010
0100
0010
,  // measure 9
0001
1000
0001
1001
,  // measure 10
1000
0000
1000
0000
,  // measure 11
1000
0100
0010
0001
,  // measure 12
1000
0000
1000
0000
,  // measure 13
1000
0010
0100
0001
,  // measure 14
0001
0000
0001
0000
,  // measure 15
0001
0100
0010
1000
,  // measure 16
0001
0000
0001
0000
,  // measure 17
0001
0010
0100
1000
,  // measure 18
0001
0100
0001
0100
,  // measure 19
0001
0010
0100
1000
,  // measure 20
0001
0010
0001
0010
,  // measure 21
0001
0100
0010
1000
,  // measure 22
1000
0100
1000
0100
,  // measure 23
1000
0010
0100
0001
,  // measure 24
1000
0010
1000
0010
,  // measure 25
1000
0100
0010
0001
,  // measure 26
1000
0200
0300
0100
,  // measure 27
0010
0001
0000
0001
,  // measure 28
0100
0010
0000
0010
,  // measure 29
1000
0100
0000
0100
,  // measure 30
1000
0002
0003
1000
,  // measure 31
0100
0010
0000
0010
,  // measure 32
0001
1000
0000
1000
,  // measure 33
0010
0100
0000
0100
,  // measure 34
0001
2000
3000
0001
,  // measure 35
1000
0100
0000
0010
,  // measure 36
0001
0001
0001
0000
0000
0000
1000
0000
,  // measure 37
0100
0010
0000
0001
,  // measure 38
0100
0010
0000
1000
,  // measure 39
0100
0001
0000
0100
,  // measure 40
1000
0002
0003
0100
,  // measure 41
0010
1000
0000
0010
,  // measure 42
0100
0001
0000
0001
,  // measure 43
0000
0001
1000
0100
,  // measure 44
0010
0001
0000
0001
,  // measure 45
0000
0001
0100
0010
,  // measure 46
1000
0100
0000
0100
,  // measure 47
0000
0100
1000
0010
,  // measure 48
0100
0001
0000
1000
,  // measure 49
0000
1000
0100
0010
,  // measure 50
0001
0100
0000
0010
,  // measure 51
0000
0100
0001
1000
,  // measure 52
0100
0010
0000
0001
,  // measure 53
0000
0010
0100
1000
,  // measure 54
0001
0100
0000
0010
,  // measure 55
0000
0100
0001
1000
,  // measure 56
0100
0010
0000
0100
,  // measure 57
0000
1000
0001
0200
,  // measure 58
0300
0010
0000
0010
,  // measure 59
0000
0100
0000
0100
,  // measure 60
0000
0001
0000
0001
,  // measure 61
0000
1000
0100
0010
;

//---------------dance-double - ----------------
#NOTES:
     dance-double:
     :
     Hard:
     13:
     0.604,0.566,0.220,0.372,0.871:
00000000
00000000
00000000
00000000
,
00000000
00000000
00000000
00000000
,
00000000
00000000
00000000
00000000
,
00000000
00000000
00000000
00000000
,
00000000
00000000
00000000
00000000
,
00001000
00000000
00000000
01000000
00000000
00100000
10000000
00000000
00000000
01000000
00100000
00001000
,
00100000
00001000
00000000
00010000
00000000
00000100
00000010
00000000
00000001
00000100
00000000
00000010
,
00010000
00000000
00001000
01000000
00001000
01000000
00010000
00000000
00000000
00100000
00000000
01000000
,
10000000
00000000
10000000
00010000
00000000
00010000
01000000
00001000
00010000
00000200
00000000
00000000
,
00000310
00000000
00000000
00000010
00000001
00000000
00000100
00000000
00000000
00000010
00001000
00000000
,
00000100
00010000
00000000
00001000
01000000
00000000
00010000
00000000
00100000
00000000
01000000
00000000
,
10000000
00000000
00010000
10000000
01000000
00000000
00010000
00001000
00000100
00000000
00000010
00000000
,
00001000
00000000
00000001
00000010
00000100
00000000
00010000
00000000
00001000
00000000
01000000
00010000
,
10000000
00000000
00000000
01000000
00100000
00000000
00001000
00000000
00000000
00010000
00000100
00000000
,
00000010
00000000
00000001
00000100
00000001
00000000
00001000
00000000
00000100
00000000
00010000
00000000
,
00001000
00000000
01000000
00010000
00100000
00000000
01000000
10000000
00100000
00000000
01000000
00000000
,
00010000
00000000
00100000
00001000
00010000
00000000
00000100
00000000
00001000
00000000
00000010
00000100
,
00000001
00000000
00000000
00001000
00000100
00000000
00010000
00000000
00000000
00001000
01000000
00000000
,
00010000
10000000
00000000
10000000
01000000
00000000
00100000
00000000
00001000
00000000
00010000
00000000
,
00000100
00000000
00000000
00000000
00001000
00000000
00000010
00000100
00000010
00000000
00000000
00000000
00000010
00000000
00001000
00000001
00001000
00000000
00000000
00000000
00000010
00000000
00000000
00000000
,
00010000
00000000
00000000
00000000
00001000
00000000
01000000
00100000
01000000
00000000
00000000
00000000
00010000
00000000
00000000
00000000
10000000
00000000
00000000
00000000
01000000
00000000
00100000
00000000
,
00010000
00000000
00000000
00000000
00000000
00000000
10000000
01000000
10000000
00000000
00000000
00000000
00010000
00000000
00000000
00000000
00000000
00000000
01000000
00001000
01000000
00000000
00000000
00000000
,
00001000
00000000
00000000
00000000
00000000
00000000
00010000
00000100
00010000
00000000
00000000
00000000
00000010
00000000
00000000
00000000
00000100
00000000
00000000
00000000
00000001
00000000
00000000
00000000
,
00001000
00000000
00000000
00000000
00000100
00000000
00010000
00001000
00010000
00000000
00000000
00000000
00001000
00000000
01000000
00100000
01000000
00000000
00000000
00000000
00010000
00000000
00000000
00000000
,
10000000
00000000
00000000
00000000
00000000
00000000
00000000
00000000
01000000
00000000
00000000
00000000
00100000
00000000
00001000
00000000
00100000
00000000
00000000
00000000
00000000
00000000
00000000
00000000
00001000
00000000
00000000
00000000
00000000
00000000
00010000
00000000
00000000
00000000
00000000
00000000
00000100
00000000
00000000
00000010
00000000
00000000
00000100
00000000
00000000
00000000
00000000
00000000
,
00000011
00000000
00000000
00002100
00000000
00000000
00003001
00000100
00000010
00010000
00000000
00000000
,
00001000
00000000
00000000
00000000
00100000
00000000
00000000
00000000
01000000
00000000
00000000
00000000
20000000
00000000
00000000
00000000
00000000
00000000
30010000
00000000
00000000
00010000
00000000
00000000
01000000
00000000
00000000
00000000
00000000
00000000
00000000
00000000
00000000
00000000
00000000
00000000
01200000
00000000
00000000
00000000
00000000
00000000
00000000
00000000
00000000
00000000
00000000
00000000
,
10300000
00000000
00000000
21000000
00000000
00000000
30010000
00100000
00001000
00020000
00000000
00000000
,
00031000
00000100
00000010
00002010
00000000
00000000
00003001
00000000
00000000
00000120
00000000
00000000
,
00010030
00000000
00000000
01002000
00000000
00000000
00103000
00000000
01000000
10000000
00000000
00000000
,
00010000
01000000
00001000
00020000
00000000
00000000
00030100
00000000
00000000
00000021
00000000
00000000
,
00000130
00000000
00000000
00000000
00000000
00000000
00000000
00000000
00000000
00000000
00000000
00000000
00021000
00000000
00000000
00000000
00000000
00000000
00000000
00000000
00000000
00000000
00000000
00000000
01030000
00000000
00000000
00000000
10000000
00000000
00000000
00000000
00100000
00000000
00000000
00000000
02000000
00000000
00000000
00000000
00000000
00000000
03001000
00000000
00000000
00001000
00000000
00000000
,
00010000
00000000
00000000
00002000
00000000
00000000
00013000
00100000
01000000
01200000
00000000
00000000
,
10300000
00000000
00000000
00000000
00000000
00000000
00000000
00000000
00000000
00000000
00000000
00000000
12000000
00000000
00000000
00000000
00000000
00000000
00000000
00000000
00000000
00000000
00000000
00000000
03100000
00000000
00000000
00000000
00000000
00000000
00000000
00000000
00001000
00000000
00000000
00000000
00010000
00000000
00000000
00000000
00000000
00000000
00001000
00000000
00000000
00010000
00000000
00000000
,
00000100
00000010
00000001
00002000
00000000
00000000
00003010
00000000
00000000
00000201
00000000
00000000
,
00001300
00000000
00000000
00010000
00000000
00000000
00021000
00000000
00000000
00000000
00000000
00000000
01030000
00000000
10000000
00000000
00010000
00000000
01000000
00000000
00000000
00100000
00000000
00000000
,
01000000
00010000
10000000
12000000
00000000
00000000
03100000
00000000
00001000
00010000
00000000
00000100
,
00001000
00000010
00000100
00000102
00000000
00000000
00000013
00000000
00001000
00010000
00000000
00100000
,
10000000
00000000
00000000
00000000
01000000
00000000
00000000
00000000
00100000
00000000
00000000
00000000
00020000
00000000
00000000
00000000
00000000
00000000
10030000
00000000
00000000
10000000
00000000
00000000
01000000
00000000
00000000
00000000
00000000
00000000
00000000
00000000
00000000
00000000
00000000
00000000
00210000
00000000
00000000
00000000
00000000
00000000
00000000
00000000
00000000
00000000
00000000
00000000
,
01300000
00000000
00000000
21000000
00000000
00000000
30100000
01000000
00010000
10000000
01000000
01000000
,
00100000
00001000
00010000
00000100
00010000
00001000
01000000
00001000
00010000
00000020
00000000
00001030
,
00000001
00000000
00000000
00000101
00000000
00000000
00000100
00001000
00010000
00100000
00000000
00000000
,
10000000
00000000
00000000
00000000
00010000
00000000
00000000
00000000
10000000
00000000
00000000
00000000
01000000
00000000
00000000
00100000
00000000
00000000
01000000
00000000
00000000
00100000
00000000
00000000
01000000
00000000
00000000
00000000
00000000
00000000
00000000
00000000
10000000
00000000
00000000
00000000
00020000
00000000
00000000
00000000
00000000
00000000
00000000
00000000
00000000
00000000
00000000
00000000
,
10030000
00000000
00000000
11000000
00000000
00000000
01000000
00010000
00001000
00000010
00000000
00000000
,
00000001
00000000
00000000
00000000
00000010
00000000
00000000
00000000
00000100
00000000
00000000
00000000
00001000
00000000
00000000
00000010
00000000
00000000
00000100
00000000
00000000
00000010
00000000
00000000
00001000
00000000
00000000
00000000
00000000
00000000
00000000
00000000
00000001
00000000
00000000
00000000
00001001
00000000
00000000
00000000
00000000
00000000
00000000
00000000
00000000
00000000
00000000
00000000
,
00000001
00000000
00000000
00000011
00000000
00000000
00000010
00001000
00010000
01000000
00000000
00000000
,
10000000
00000000
00000000
00000000
00010000
00000000
00000000
00000000
10000000
00000000
00000000
00000000
00100000
00000000
00000000
01000000
00000000
00000000
00100000
00000000
00000000
01000000
00000000
00000000
00100000
00000000
00000000
00000000
00000000
00000000
00000000
00000000
10000000
00000000
00000000
00000000
10010000
00000000
00000000
00000000
00000000
00000000
00000000
00000000
00000000
00000000
00000000
00000000
,
10000000
00000000
00000000
10100000
00000000
00000000
00100000
00010000
00001000
00000100
00000000
00000000
,
00000001
00000000
00000000
00000000
00000100
00000000
00000000
00000000
00000010
00000000
00000000
00000000
00001000
00000000
00000000
00000100
00000000
00000000
00000010
00000000
00000000
00000100
00000000
00000000
00001000
00000000
00000000
00000000
00000000
00000000
00000000
00000000
00000001
00000000
00000000
00000000
00001001
00000000
00000000
00000000
00000000
00000000
00000000
00000000
00000000
00000000
00000000
00000000
,
00000002
00000000
00000000
00000203
00000000
00000000
00000300
00001000
00010000
00200000
00000000
00000000
,
00300000
00000000
00000000
00000000
10000000
00000000
00000000
00000000
01000000
00000000
00000000
00000000
00100000
00000000
00000000
00001000
00000000
00000000
00100000
00000000
00000000
00001000
00000000
00000000
00100000
00000000
00000000
00000000
00000000
00000000
00000000
00000000
00001000
00000000
00000000
00000000
00020000
00000000
00000000
00000000
00000000
00000000
00000000
00000000
00000000
00000000
00000000
00000000
,
00030200
00000000
00000000
00000320
00000000
00000000
00000030
00000001
00000100
00002000
00000000
00000000
,
00003000
00000000
00000000
00000000
00010000
00000000
00000000
00000000
00100000
00000000
00000000
00000000
10000000
00000000
00000000
00010000
00000000
00000000
10000000
00000000
00000000
00010000
00000000
00000000
10000000
00000000
00000000
00000000
00000000
00000000
00000000
00000000
00010000
00000000
00000000
00000000
01010000
00000000
00000000
00000000
00000000
00000000
00000000
00000000
00000000
00000000
00000000
00000000
,
20000000
00000000
00000000
32000000
00000000
00000000
03000000
00010000
00001000
00000020
00000000
00000000
,
00000030
00000000
00000000
00000000
00000001
00000000
00000000
00000000
00000100
00000000
00000000
00000000
00000010
00000000
00000000
00010000
00000000
00000000
00000010
00000000
00000000
00010000
00000000
00000000
00000010
00000000
00000000
00000000
00000000
00000000
00000000
00000000
00010000
00000000
00000000
00000000
00002000
00000000
00000000
00000000
00000000
00000000
00000000
00000000
00000000
00000000
00000000
00000000
,
02003000
00000000
00000000
03200000
00000000
00000000
00300000
10000000
01000000
00020000
00000000
00000000
,
00030000
00000000
00000000
00000000
00001000
00000000
00000000
00000000
00000010
00000000
00000000
00000000
00000001
00000000
00000000
00001000
00000000
00000000
00000001
00000000
00000000
00001000
00000000
00000000
00000001
00000000
00000000
00000000
00000000
00000000
00000000
00000000
00001000
00000000
00000000
00000000
00001200
00000000
00000000
00000000
00000000
00000000
00000000
00000000
00000000
00000000
00000000
00000000
,
00000300
00000000
00000000
00000000
00000010
00000000
00000000
00000000
00000001
00000000
00000000
00000000
00000100
00000000
00000000
00000010
00000000
00000000
00001000
00000000
00000000
00000010
00000000
00000000
00000100
00000000
00000000
00000000
00000000
00000000
00000000
00000000
00001000
00000000
00000000
00000000
00020000
00000000
00000000
00000000
00000000
00000000
00000000
00000000
00000000
00000000
00000000
00000000
,
00030000
00000000
00000000
00000000
00100000
00000000
00000000
00000000
10000000
00000000
00000000
00000000
00010000
00000000
00000000
00100000
00000000
00000000
01000000
00000000
00000000
00100000
00000000
00000000
00010000
00000000
00000000
00000000
00000000
00000000
00000000
00000000
10000000
00000000
00000000
00000000
01000000
00000000
00000000
00100000
00000000
00000000
01000000
00000000
00000000
00100000
00000000
00000000
,
00000000
00000000
00000000
00000000
00001000
00000000
00000000
00000000
00010000
00000000
00000000
00000000
00000100
00000000
00000000
00000010
00000000
00000000
00001000
00000000
00000000
00000010
00000000
00000000
00000100
00000000
00000000
00000000
00000000
00000000
00000000
00000000
00001000
00000000
00000000
00000000
00000002
00000000
00000000
00000000
00000000
00000000
00000000
00000000
00000000
00000000
00000000
00000000
,
00000003
00000000
00000000
00000000
00000100
00000000
00000000
00000000
00000010
00000000
00000000
00000000
00010000
00000000
00000000
00001000
00000000
00000000
00100000
00000000
00000000
00001000
00000000
00000000
00010000
00000000
00000000
00000000
00000000
00000000
00000000
00000000
01000000
00000000
00000000
00000000
20000000
00000000
00000000
00000000
00000000
00000000
30000000
00000000
00000000
00000000
00000000
00000000
;

//---------------dance-double - ----------------
#NOTES:
     dance-double:
     :
     Medium:
     10:
     0.427,0.463,0.364,0.144,0.317:
00000000
00000000
00000000
00000000
,
00000000
00000000
00000000
00000000
,
00000000
00000000
00000000
00000000
,
00000000
00000000
00000000
00000000
,
00000000
00000000
00000000
00000000
,
00010000
00000000
00000000
00000100
00000000
00000100
00001000
00000000
00000000
00000010
00000000
00000000
,
00000100
00000000
00000000
00000001
00000000
00000001
00001000
00000000
00000000
00000100
00000000
00000000
,
00010000
00000000
00000000
00001000
00000000
00001000
01000000
00000000
00000000
00010000
00000000
00000000
,
00100000
00000000
00000000
01000000
00000000
01000000
10000000
00000000
00000000
10010000
00000000
00000000
,
10000000
01000000
10000000
01000000
,
00100000
00000000
00000000
00001000
00000000
00000000
00010000
00000000
00000100
00000000
00010000
00000000
,
00000100
00000000
00000000
00001000
00000100
00000000
00000010
00000000
00000000
00000001
00000000
00000000
,
00000100
00000000
00000000
00000010
00010000
00000000
00001000
00000000
01000000
00000000
00001000
00000000
,
00100000
00000000
00000000
01000000
10000000
00000000
10000000
00000000
00000000
00010000
01000000
00000000
,
01000000
00000000
00000000
00001000
00010000
00000000
00010000
00000000
00000100
00000000
00001000
00000000
,
00000010
00000000
00000100
00000001
00000000
00000000
00001000
00000000
00001000
00000100
00000000
00000000
,
00000100
00000000
00010000
00001000
00000000
00000000
01000000
00000000
00010000
00000000
00100000
00000000
,
01000000
00000000
00000000
10000000
01000000
00000000
10000000
00000000
00000000
00010000
00000000
01000000
,
00001000
00000000
00000000
00010000
00000000
00000000
00000100
00000000
00001000
00000000
00000010
00000000
,
00000100
00000000
00000001
00001000
00000000
00000000
00000100
00000000
00010000
00001000
00000000
00000000
,
01000000
00000000
00000000
00010000
00000000
00000000
00100000
00000000
01000000
00000000
10000000
00000000
,
00010000
00000000
00000000
10000000
01000000
00000000
00100000
00000000
00000000
00001000
00010000
00000000
,
00001000
00000000
00000000
00000100
00000010
00000000
00001000
00000000
00000100
00000000
00000010
00000000
,
00000001
00000000
00000001
00000100
00000000
00000000
00000010
00000000
00000010
00001000
00000000
00000000
,
00000100
00000000
00010000
00000000
00001000
01000000
00100000
10000000
,
10010000
01010000
10010000
01010000
,
10010000
11000000
10010000
11000000
,
01010000
00011000
00001100
00000110
,
00001010
00000101
00000011
00001100
,
00010100
00011000
01001000
01100000
,
10100000
10010000
00110000
00101000
,
00010100
00001100
00001010
00000101
,
00001010
00001100
00010100
00011000
,
00002000
01000000
00010000
00103000
,
00020000
00000100
00001000
00030010
,
00001000
00010000
00002000
00000000
01000000
00000000
00103000
00000000
,
00020000
00031000
00002000
00013000
,
00010000
00001000
00010000
00002000
00000000
00000000
00100000
00000000
00000000
01003000
00000000
00000000
,
00020000
00000010
00001000
00030100
,
00010000
01000000
10000000
00000000
10000000
01000000
00010000
00000000
,
00001000
00000000
00001000
00010000
00000000
00010000
00001000
00010000
00001000
00020000
00000000
00000000
,
00032000
00003200
00000301
00001001
,
00000001
00000000
00000001
00000100
00000000
00000100
00001000
00000000
00001000
00010000
00000000
00000000
,
00020000
02030000
13000000
10010000
,
10000000
00000000
10000000
01000000
00000000
01000000
00010000
00000000
00010000
00001000
00000000
00000000
,
00020000
00000000
00000000
00230000
00000000
00000000
10300000
00000000
10000000
01000000
00000000
00000000
,
10000000
00000000
10000000
00100000
00000000
00100000
00010000
00000000
00010000
00001000
00000000
00000000
,
00002000
00000000
00000000
00003020
00000000
00000000
00000031
00000000
00000001
00000100
00000000
00000000
,
00000001
00000000
00000001
00000010
00000000
00000010
00001000
00000000
00001000
00010000
00000000
00000000
,
00011000
00011000
00010000
01000000
,
10000000
00000000
01000000
00100000
00000000
00000000
00001000
00000000
00000000
00010000
00000000
00000000
,
00011000
00011000
00000100
00000010
,
00000001
00000000
00000000
00001000
00000000
00000100
00000010
00000000
00000100
00000010
00000000
00000000
,
00001001
00001001
00000100
00000010
,
00010000
00000000
00000000
00001000
00000000
01000000
00010000
00000000
01000000
00010000
00000000
00000000
,
10010000
10010000
10000000
01000000
,
00100000
00000000
00001000
00010000
00000000
00001000
00010000
00000000
00000100
00002000
00000000
00000000
,
00003000
00000000
00000001
00000100
00000000
00000100
00000010
00000000
00000010
00010000
00000000
00000000
,
00000000
00000000
00001000
01000000
00000000
01000000
00100000
00000000
00100000
10000000
00000000
00000000
,
00000000
00000000
01000000
00100000
00000000
00100000
00001000
00000000
00001000
00010000
00000000
00000000
,
00000000
00000000
00000100
00000010
00000000
00000010
00000001
00000000
00000001
00001000
00000000
00000000
;

//---------------dance-double - ----------------
#NOTES:
     dance-double:
     :
     Easy:
     4:
     0.197,0.206,0.000,0.000,0.000:
00000000
00000000
00000000
00000000
,
00000000
00000000
00000000
00000000
,
00000000
00000000
00000000
00000000
,
00000000
00000000
00000000
00000000
,
00000000
00000000
00000000
00000000
,
10000000
01000000
00000000
01000000
,
00100000
00001000
00000000
00001000
,
00010000
00000100
00000000
00000100
,
00001000
00000010
00000000
00001000
,
00000001
00000100
00000001
00000100
,
00000010
00000000
00000010
00001000
,
00010000
01000000
00000000
00100000
,
00000000
10000000
01000000
00100000
,
00001000
00000000
00010000
00000000
,
00000100
00000000
00001000
00000010
,
00000100
00000000
00000001
00000000
,
00000010
00000100
00010000
00000000
,
00001000
00000000
00001000
00000000
,
01000000
00010000
00100000
00010000
,
01000000
00000000
00100000
00000000
,
10000000
01000000
00100000
00000000
,
00001000
00000000
00010000
00000000
,
00000100
00001000
00000001
00000000
,
00000100
00000000
00000010
00000000
,
00001000
00000000
00010000
01000000
,
00100000
00100000
01000000
01000000
,
00010000
00000000
10000000
00000000
,
01000000
01000000
00100000
00100000
,
00001000
00000000
00010000
00000000
,
00000100
00000100
00000010
00000010
,
00000001
00000000
00001000
00000000
,
00000010
00000010
00000100
00000100
,
00000001
00000000
00001000
00000000
,
00000100
00010000
00000100
00010000
,
00001000
00000000
01000000
00000000
,
00010000
00100000
00010000
00100000
,
01000000
00000000
10000000
00000000
,
00010000
01000000
00010000
01000000
,
00001000
00000000
00010000
00000000
,
00000100
00001000
00000100
00001000
,
00000010
00000010
00000100
00000100
,
00000001
00001000
00000000
00001000
,
00000000
00001000
00000100
00010000
,
00001000
01000000
00000000
01000000
,
00000000
01000000
00100000
10000000
,
01000000
00100000
00000000
00100000
,
00000000
00100000
00001000
00010000
,
00000100
00001000
00000000
00001000
,
00000000
00001000
00000100
00000010
,
00000001
00000100
00000000
00000100
,
00000000
00000100
00000010
00010000
,
00001000
01000000
00000000
01000000
,
00000000
01000000
00100000
10000000
,
01000000
00010000
00000000
00010000
,
00000000
00010000
00001000
00000100
,
00000010
00001000
00000000
00001000
,
00000000
00001000
00010000
10000000
,
00000000
00100000
00000000
00100000
,
00000000
01000000
00000000
01000000
,
00000000
00001000
00000000
00001000
,
00000000
00010000
00000100
00000010
;

//---------------dance-single - ----------------
#NOTES:
     dance-single:
     :
     Beginner:
     1:
     0.105,0.127,0.000,0.000,0.000: // measure 1
0000
0000
0000
0000
,  // measure 2
0000
0000
0000
0000
,  // measure 3
0000
0000
0000
0000
,  // measure 4
0000
0000
0000
0000
,  // measure 5
0000
0000
0000
0000
,  // measure 6
1000
0000
0000
0000
,  // measure 7
1000
0000
0000
0000
,  // measure 8
0001
0000
0001
0000
,  // measure 9
1000
0000
1000
0000
,  // measure 10
0010
0000
0010
0000
,  // measure 11
0010
0000
0000
0000
,  // measure 12
0100
0000
0100
0000
,  // measure 13
0100
0000
0000
0000
,  // measure 14
0001
0000
0001
0000
,  // measure 15
0001
0000
0000
0000
,  // measure 16
1000
0000
1000
0000
,  // measure 17
1000
0000
0000
0000
,  // measure 18
0100
0000
0100
0000
,  // measure 19
0010
0000
0000
0000
,  // measure 20
0001
0000
0001
0000
,  // measure 21
1000
0000
0000
0000
,  // measure 22
1000
0000
1000
0000
,  // measure 23
0001
0000
0000
0000
,  // measure 24
0100
0000
0100
0000
,  // measure 25
0010
0000
0000
0000
,  // measure 26
1000
0000
1000
0000
,  // measure 27
0001
0000
0001
0000
,  // measure 28
1000
0000
1000
0000
,  // measure 29
0001
0000
0000
0000
,  // measure 30
0001
0000
0001
0000
,  // measure 31
1000
0000
1000
0000
,  // measure 32
0001
0000
0001
0000
,  // measure 33
1000
0000
0000
0000
,  // measure 34
0100
0000
0100
0000
,  // measure 35
0010
0000
0010
0000
,  // measure 36
0100
0000
0100
0000
,  // measure 37
0010
0000
0000
0000
,  // measure 38
0010
0000
0010
0000
,  // measure 39
0100
0000
0100
0000
,  // measure 40
0010
0000
0010
0000
,  // measure 41
0100
0000
0100
0000
,  // measure 42
0100
0000
0000
0000
,  // measure 43
0001
0000
0001
0000
,  // measure 44
0001
0000
0000
0000
,  // measure 45
1000
0000
1000
0000
,  // measure 46
1000
0000
0000
0000
,  // measure 47
0010
0000
0010
0000
,  // measure 48
0010
0000
0000
0000
,  // measure 49
0100
0000
0100
0000
,  // measure 50
0100
0000
0000
0000
,  // measure 51
0001
0000
0001
0000
,  // measure 52
0001
0000
0000
0000
,  // measure 53
1000
0000
1000
0000
,  // measure 54
1000
0000
0000
0000
,  // measure 55
0100
0000
0100
0000
,  // measure 56
0100
0000
0000
0000
,  // measure 57
0010
0000
0010
0000
,  // measure 58
0000
0010
0000
0000
,  // measure 59
0000
0001
0000
0000
,  // measure 60
0000
1000
0000
0000
,  // measure 61
0000
0010
0000
0000
;
