#TITLE:planarian;
#SUBTITLE:;
#ARTIST:S-C-U;
#TITLETRANSLIT:;
#SUBTITLETRANSLIT:;
#ARTISTTRANSLIT:;
#GENRE:;
#CREDIT:Silverhawke+xRGTMx;
#MENUCOLOR:;
#METERTYPE:DDR;
#BANNER:planarian.png;
#BACKGROUND:planarian-bg.png;
#LYRICSPATH:;
#CDTITLE:cdtitle.png;
#MUSIC:planarian.mp3;
#OFFSET:-0.028;
#SAMPLESTART:13.190;
#SAMPLELENGTH:15.000;
#SELECTABLE:YES;
#LISTSORT:;
#BPMS:0.000=164.000;
#STOPS:;
#BGCHANGES:;
#ATTACKS:;

//---------------dance-single - ----------------
#NOTES:
     dance-single:
     :
     Hard:
     13:
     0.611,0.673,0.051,0.211,0.329:
0000
0000
0000
0000
,
0000
0000
0000
0000
,
0000
0000
0000
0000
,
0000
0000
0000
0000
,
0000
0000
0000
0000
,
1000
0001
0100
0010
0000
1000
0100
0010
,
0000
0001
0100
0010
0000
1000
0100
0010
,
0002
0203
0320
1030
,
0110
0000
0000
0110
0000
0000
0110
0000
1001
0000
0001
1000
0001
0000
0100
0000
,
0001
0000
0010
0000
0100
0000
1000
0000
0000
0000
0001
0000
0100
0000
0010
1000
,
0010
0100
0001
0010
0100
1000
0001
0100
,
0010
0000
1000
0000
0100
0000
1000
0000
0000
0000
0001
0000
0100
0000
0001
0010
,
0001
0000
0100
0000
0010
0000
1000
0000
0100
0000
0010
0100
0010
0000
0100
0000
,
1000
0001
0100
0010
0000
1000
0100
0010
,
0000
0001
0100
0001
0000
1000
0100
1000
,
0001
0000
0100
0010
0100
0000
0001
0000
0010
0000
0000
0100
0000
0000
1000
0000
,
0001
0100
0001
0000
1000
0000
0001
0010
0000
0001
1000
0001
0010
0000
0000
0000
,
0001
0000
1000
0100
1000
0000
0001
0000
0100
0000
0000
0010
0000
0000
2000
0000
,
0100
0000
0000
0000
3001
0000
0010
0100
0010
0000
0001
0000
0100
0000
0010
0000
,
1000
0000
0000
0001
0000
0000
0200
0000
0000
0000
0310
0000
1000
0000
0001
0000
,
0010
0000
0100
0000
1000
0000
0001
1000
0000
0000
0010
0000
0100
0000
0000
0100
,
0000
0100
0001
0020
0000
0130
1000
0001
,
1000
0000
0100
0000
0010
0000
0001
0100
0000
0000
0010
0000
0100
0000
0000
0100
,
0000
0000
0001
0000
0000
0010
0000
0000
0100
0000
0000
1000
0000
0000
0010
0000
,
0000
0100
0000
0000
0001
0000
1000
0100
1000
0000
0010
0000
0100
0000
0001
0000
,
0000
0000
1000
0010
1000
0000
0001
0000
0010
0000
0000
0100
0000
0000
2000
0000
,
0010
0000
0000
0000
3001
0000
0100
0010
0100
0000
0001
0000
0010
0000
0100
0000
,
1000
0000
0000
0001
0000
0000
0020
0000
0000
0000
0130
0000
1000
0000
0001
0000
,
0100
0000
0010
0000
1000
0000
0001
1000
0000
0000
0100
0000
0010
0000
0000
0010
,
0000
0000
0100
0000
1000
0000
0010
0000
0100
0000
0000
0100
0000
0000
0010
0000
,
1000
0000
0100
0000
0010
0000
0001
0100
0000
0000
0010
0000
0100
0000
0000
0100
,
0000
0000
0001
0000
0000
0010
0000
0000
0100
0000
0000
1000
0000
0000
0010
0000
,
0000
0100
0000
0000
0001
0000
1000
0100
1000
0000
0010
0000
0100
0000
0001
0000
,
0000
0000
1000
0000
1100
0000
0010
0000
0001
0000
0000
0100
0000
0000
0020
0000
,
0000
1030
0100
0001
0200
0000
1300
0020
,
0000
0000
0130
0000
0010
0000
1000
0000
0100
0000
0000
0010
0000
0000
0002
0000
,
0000
1003
0010
2000
0000
3001
0010
0100
,
0100
0000
0000
1000
0000
0000
0002
0000
0000
0000
0010
0000
0000
0000
0100
0000
,
0100
0000
1000
0000
0010
0000
0103
0010
,
0100
0000
0000
0001
0000
0000
2000
0000
0000
0000
0010
0000
0000
0000
0100
0000
,
0100
0000
3001
0000
1000
0100
0001
0010
,
1000
0000
0001
0000
0100
0000
0010
0000
1000
0000
0000
0100
0000
0000
0020
0000
,
0000
0031
0100
1000
0200
0000
0301
0020
,
0000
0000
0130
0000
0010
0000
0001
0000
0100
0000
0000
0010
0000
0000
2000
0000
,
0000
3001
0010
0002
0000
1003
0010
0100
,
0100
0000
0000
0001
0000
0000
2000
0000
0000
0000
0010
0000
0000
0000
0100
0000
,
0100
0001
0010
3100
,
1000
0000
0000
1000
0000
0000
0002
0000
0000
0000
0013
0000
0100
0000
2000
0000
,
0000
0000
3010
0000
0100
0000
0001
0000
1000
0000
0100
0000
1000
0100
1000
0100
,
0000
0000
0000
0000
,
0000
0000
0000
0000
,
0001
0000
0000
0001
0000
0000
0100
0000
1000
0000
0000
1000
0000
0000
0100
0000
,
0010
0000
0000
0010
0000
0000
1000
0000
0100
0000
0001
0000
0100
0000
0010
0000
,
0001
0000
0000
0001
0000
0000
0010
0000
1000
0000
0000
1000
0000
0000
0010
0000
,
0100
0000
0000
0100
0000
0000
0010
0000
0001
0000
0100
0000
0010
0000
1000
0000
,
0100
0000
0000
0010
0000
0000
0001
0000
0100
0000
0010
0000
1000
0000
0010
0000
,
0100
0000
0000
0001
0000
0000
0010
0000
0100
0000
1000
0000
0100
0000
0001
0000
,
0100
0000
0000
0100
0000
0000
1000
0000
0010
0000
0000
0010
0000
0000
0100
0000
,
0001
0000
0000
0001
0000
0000
0010
0000
0100
0000
1000
0000
0010
0000
0010
0000
,
1000
0000
0000
1000
0000
0000
0100
0000
0001
0000
0000
0001
0000
0000
0100
0000
,
0010
0000
0000
0010
0000
0000
0001
0000
0100
0000
1000
0000
0100
0000
0010
0000
,
1000
0000
0000
1000
0000
0000
0010
0000
0001
0000
0000
0001
0000
0000
0010
0000
,
0100
0000
0000
0100
0000
0000
0010
0000
1000
0000
0100
0000
0010
0000
0001
0000
,
0100
1000
0100
0001
0100
1000
0100
0001
,
0010
1000
0010
0001
0010
1000
0010
0001
,
0100
1000
0100
0010
1000
0100
0001
0100
,
1000
0010
0000
0010
0100
0000
0100
0001
0000
0001
0010
0000
0010
0100
0000
0100
,
1000
0000
0010
0000
0100
0000
0001
0000
0000
0000
1000
0000
0100
0000
0010
0001
,
0010
0100
1000
0010
0100
0001
1000
0100
,
0010
0000
0001
0000
0100
0000
0001
0000
0000
0000
1000
0000
0100
0000
1000
0010
,
1000
0000
0100
0000
0010
0000
0001
0000
0100
0000
0010
0100
0010
0000
0100
0000
,
0001
1000
0100
0010
0000
0001
0100
0010
,
0000
1000
0100
1000
0000
0001
0100
0001
,
1000
0000
0100
0010
0100
0000
1000
0000
0010
0000
0000
0100
0000
0000
0001
0000
,
1000
0100
1000
0000
0001
0000
1000
0010
0000
1000
0001
1000
0010
0000
0100
0000
,
2002
0000
0000
0000
,
3003
0000
0000
0000
;

//---------------dance-single - ----------------
#NOTES:
     dance-single:
     :
     Medium:
     9:
     0.455,0.449,0.169,0.025,0.042:
0000
0000
0000
0000
,
0000
0000
0000
0000
,
0000
0000
0000
0000
,
0000
0000
0000
0000
,
0000
0000
0000
0000
,
0000
0001
0010
0001
0000
1000
0010
1000
,
0000
0001
0100
0001
0000
1000
0100
1000
,
0001
0010
0100
1000
,
0010
0000
0000
0010
0000
0000
0010
0000
0200
0000
0000
0000
0300
0000
0000
0000
,
0001
0000
1100
0000
0010
0000
0001
0100
,
0010
0000
1000
0000
0001
0100
0001
0000
,
1000
0000
0100
0000
0010
0100
1000
0000
,
0010
0000
0100
0000
0001
1000
0001
0000
,
0010
0100
1000
1000
,
0010
0100
0001
0001
,
1000
0000
0100
0000
0010
0000
0000
0000
0001
0000
0000
1000
0000
0000
0001
0000
,
1000
0100
0010
0100
1000
0001
0100
0000
,
0010
0100
0010
0000
1000
0000
0100
0000
,
0010
0001
0100
0000
0010
1000
0100
1000
,
0010
0000
0100
0000
0001
0000
1000
0100
,
0010
0000
0001
0000
0100
0001
0010
0000
,
0100
0000
1000
0000
0001
0100
0001
0000
,
1000
0000
0010
0000
0100
0001
0100
0010
,
0100
0101
0010
1010
,
1000
0100
0010
0000
0010
0100
1000
0000
,
0001
0100
0001
0000
1000
0000
0100
0000
,
0010
0100
1000
0000
0010
0000
0100
0001
,
0100
0000
0001
0000
1000
0100
0010
0000
,
0001
0000
0100
0000
0010
1000
0100
0000
,
0010
0100
1000
0010
,
0100
0000
0001
0000
0010
0100
1000
0000
,
0001
0101
1000
1100
,
0001
0010
0100
0000
0100
0010
0001
0000
,
0000
1000
0100
0000
1000
0000
0010
0000
,
0100
0001
0010
0000
0010
0001
0100
0000
,
0001
0010
0100
1000
,
0010
0100
0001
0000
0001
0100
0010
0000
,
1000
0000
0000
0100
0000
0000
1000
0000
0000
0000
0001
0000
1000
0000
0000
0000
,
0001
0011
0010
0110
,
0001
0000
0000
1000
0000
0000
0001
0000
0000
0000
1000
0000
0100
0000
0000
0000
,
1000
0000
1010
0000
0010
0100
0010
0000
,
1000
0001
0100
0000
0001
0000
0010
0000
,
0100
1000
0010
0000
0010
1000
0100
0000
,
1000
0010
0100
0001
,
0010
0100
1000
0000
1000
0100
0010
0000
,
0001
0000
0000
0100
0000
0000
0001
0000
0000
0000
1000
0000
0001
0000
0000
0000
,
1000
1010
0010
0110
,
1000
0000
0000
0001
0000
0000
1000
0000
0000
0000
0001
0000
0100
0000
0010
0000
,
0000
0100
0001
1000
0100
0010
0100
0010
,
0000
0000
0000
0000
,
0000
0000
0000
0000
,
0001
0101
1000
1100
,
0001
0100
1000
0000
1000
0100
0001
0000
,
1000
1100
0001
0101
,
1000
0100
0001
0000
0001
0100
1000
0000
,
0001
0010
1000
0010
,
0001
0000
0100
0000
0010
1000
0100
0010
,
0100
0000
0000
0100
0000
0000
0100
0000
1000
0000
0000
1000
0000
0000
1000
0000
,
0010
0000
0000
0010
0000
0000
0010
0000
0100
0000
0001
0000
1000
0000
0000
0000
,
0001
0011
1000
1010
,
0001
0010
1000
0000
1000
0010
0001
0000
,
1000
1010
0001
0011
,
1000
0010
0001
0010
1000
0100
0010
0000
,
0001
0100
0001
0000
0100
1000
0100
0000
,
1000
0010
1000
0000
0010
0001
0010
0000
,
0001
0100
1000
0000
0100
1000
0010
0000
,
1000
0010
0001
0000
0010
0001
0100
0000
,
0001
0000
1100
0000
0010
0000
0001
0100
,
0010
0000
1000
0000
0001
0100
0001
0000
,
1000
0000
0100
0000
0010
0100
1000
0000
,
0010
0000
0100
0000
0001
1000
0001
0000
,
0010
0100
1000
1000
,
0010
0100
0001
0001
,
1000
0000
0100
0000
0010
0000
0000
0000
0001
0000
0000
1000
0000
0000
0001
0000
,
1000
0100
0010
0100
1000
0001
0100
0000
,
2002
0000
0000
0000
,
3003
0000
0000
0000
;

//---------------dance-single - ----------------
#NOTES:
     dance-single:
     :
     Challenge:
     15:
     0.736,0.769,0.346,0.320,0.595:
0000
0000
0000
0000
,
0000
0000
0000
0000
,
0000
0000
0000
0000
,
0000
0000
0000
0000
,
0000
0000
0000
0000
,
0001
0010
0100
1000
0000
0001
0100
0010
,
0000
0100
1000
0100
0000
0001
1000
0100
,
1000
0000
0000
1000
0010
0000
0000
0010
0001
0000
0000
0001
0010
0000
0000
0010
,
1000
0000
0000
1100
0000
0000
0101
0000
1001
0000
0000
0000
MMMM
0000
0000
0000
,
0001
0000
0010
0000
1000
0000
0020
0000
0000
0000
0031
0000
0100
0000
0010
1000
,
0010
0100
0001
0010
1000
0010
0001
0200
,
0010
0000
0000
0000
1000
0000
1000
0000
0000
0300
0000
0000
MMMM
0000
0001
1000
,
0001
0000
0100
0000
0010
0000
0100
0000
1000
0000
0100
0010
0100
0000
0002
0000
,
1000
0000
0000
0010
0000
1003
0001
0010
,
MMMM
0010
0100
1000
MMMM
1000
0001
0100
,
0010
0000
1000
0100
1000
0000
0001
0000
0010
0000
0000
1000
0000
0000
0010
0000
,
0001
0100
0000
0100
0010
0000
0010
1000
0000
1000
0001
1000
0100
0000
MMMM
0000
,
1001
0000
0000
0001
0010
0000
0100
0000
1000
0000
0000
0010
0000
0000
0200
0000
,
0000
0000
1300
0000
0100
0000
0001
1000
0001
0000
0000
0001
0010
0000
0100
0000
,
1000
0000
0000
0002
0000
0000
2000
0000
3003
0000
MMMM
0000
1000
0000
0010
0000
,
0100
0000
1000
0000
0001
0000
0010
0000
0100
0000
0001
0000
1000
0100
0000
0100
,
0010
0001
0100
1000
MMMM
1000
0100
0001
,
MMMM
0000
0001
0000
0010
0000
0100
0000
1000
0000
0010
0000
0100
0001
0100
0000
,
0001
0000
0010
0000
0000
0100
0000
0000
1000
0000
0000
0010
0000
0000
0001
0000
,
0000
0010
0000
0000
1000
0000
0000
0001
0010
0000
0100
0000
1000
0000
0001
0000
,
MMMM
0000
0000
1000
0010
0000
0100
0000
0001
0000
0000
0010
0000
0000
0200
0000
,
0000
0000
0301
0000
0100
0000
1000
0001
1000
0000
0000
1000
0010
0000
0100
0000
,
0001
0000
0000
2000
0000
0000
0002
0000
3003
0000
MMMM
0000
0001
0000
0100
0000
,
0000
0000
0001
0000
1000
0000
0001
0000
0000
0000
1000
0010
0000
0010
0100
0000
,
0001
0000
0010
0000
0200
0000
0000
0000
1300
0000
0000
1100
0000
0000
0101
0000
,
0000
MMMM
0000
0000
2001
0000
0000
0000
3100
0000
0010
1000
0000
0010
0001
0000
,
1000
0000
0010
0000
0000
0100
0000
0000
0001
0000
0000
1000
0000
0000
0100
0000
,
0010
0000
0110
0000
1001
0000
0000
1000
0000
1000
0001
0000
0100
0000
0110
0000
,
0000
MMMM
0000
0000
1001
0000
0000
0000
0101
0000
0000
1010
0000
0000
2100
0000
,
0000
0000
3001
0000
1000
0000
0010
0000
0100
0000
0001
0010
0000
0100
1000
0001
,
1000
0000
MMMM
0000
1001
0000
0000
0000
1100
0000
0000
0011
0000
0000
0102
0000
,
0000
0000
1003
0000
0100
0000
0010
0000
0100
0000
1000
0001
0000
0001
1000
0010
,
0200
0000
0000
0302
0000
0000
0023
0000
0000
0000
1030
0000
0010
0000
0001
0000
,
0100
0000
0010
1000
0001
0000
0010
0001
1000
0000
0100
1000
0001
0000
0100
0001
,
2000
0000
0000
3200
0000
0000
0302
0000
0000
0000
0000
0000
0013
0000
0001
0000
,
0100
0000
1000
0010
0100
0000
0001
0010
0100
1000
0100
1000
0001
0100
0001
0100
,
0010
0000
MMMM
0000
1001
0000
0000
0000
0101
0000
0000
0011
0000
0000
2100
0000
,
0000
0000
3001
0000
0001
0000
1000
0000
0010
0000
0100
0001
0000
0001
1000
0100
,
0010
0000
MMMM
0000
1001
0000
0000
0000
1100
0000
0000
1010
0000
0000
0102
0000
,
0000
0000
0013
0000
0100
0000
1000
0000
0010
0000
0100
0001
0000
0001
0010
0100
,
1000
0000
0000
1010
0000
0000
0102
0000
0000
0000
0000
0000
0023
0000
1000
0000
,
0031
0000
1000
0010
0100
0000
0100
0010
0001
0000
0001
0010
0100
0000
0001
1000
,
0001
0000
0000
0011
0000
0000
2100
0000
0000
0000
0001
0000
3020
0000
0001
0000
,
1030
0000
0010
0100
0001
0000
0010
0100
0001
0100
1000
0100
0010
0100
0001
0200
,
0300
MMMM
0000
0000
0000
0000
0000
0000
,
0000
0000
0000
0000
,
1001
0000
0000
1000
0100
0010
0100
0010
0001
0000
0001
0100
0000
1000
0100
0000
,
0001
0000
0010
1000
0000
0010
0001
0000
1000
0010
0100
0000
0001
0000
1000
0000
,
0100
0000
0010
0002
0000
0103
0001
0000
1000
0000
0010
0200
0000
1300
0100
0000
,
0001
0000
0010
0100
0000
0100
1000
0000
0001
0000
1000
0000
0110
0000
MMMM
0000
,
1001
0000
1000
0010
0000
1000
0001
0000
0010
0100
2000
0000
0010
0000
3001
0000
,
1000
0000
0001
0010
0000
0001
1000
0000
0010
0100
0002
0000
0010
0000
1003
0000
,
0001
0000
0010
0100
0000
1000
0020
0000
0031
0000
0010
1000
0000
0100
0002
0000
,
0103
0000
1000
0001
0000
0001
0100
0000
0010
0100
0001
1000
0100
0000
MMMM
0000
,
1001
0000
0000
0001
0100
0010
0100
0010
1000
0000
1000
0100
0000
0001
0100
0000
,
1000
0000
0010
0001
0000
0010
1000
0000
0001
0010
0100
0000
1000
0000
0001
0000
,
0100
0000
0010
2000
0000
3100
1000
0000
0001
0000
0010
0200
0000
0301
0100
0000
,
1000
0000
0010
0100
0000
0100
0001
0000
1000
0000
0001
0000
0110
0000
MMMM
0000
,
1001
1000
0001
0100
1000
0001
0110
MMMM
,
1001
0001
1000
0100
0001
1000
0110
MMMM
,
1001
1000
0100
MMMM
1001
0001
0100
MMMM
,
0010
0100
0000
0001
1000
0000
0100
0010
0000
1000
0001
0000
0100
0010
0001
1000
,
0001
0000
0100
0000
1000
0000
0200
0000
0000
0000
0301
0000
0010
0000
0100
1000
,
0100
0010
0001
0100
1000
0100
0001
0020
,
0100
0000
0000
0000
1000
0000
1000
0000
0030
0000
0000
0000
MMMM
0000
0001
1000
,
0001
0000
0010
0000
0100
0000
0010
0000
1000
0000
0010
0100
0010
0000
0002
0000
,
1000
0000
0000
0100
0000
1003
0001
0100
,
MMMM
0100
0010
1000
MMMM
1000
0001
0010
,
0100
0000
1000
0010
1000
0000
0001
0000
0100
0000
0000
1000
0000
0000
0100
0000
,
0001
0010
0000
0010
0100
0000
0100
1000
0000
1000
0001
1000
0010
0000
MMMM
0000
,
0200
0000
0000
0000
,
0300
0000
0000
0000
;

//---------------dance-single - ----------------
#NOTES:
     dance-single:
     :
     Beginner:
     3:
     0.201,0.221,0.093,0.034,0.000:
0000
0000
0000
0000
,
0000
0000
0000
0000
,
0000
0000
0000
0000
,
0000
0000
0000
0000
,
0000
0000
0000
0000
,
1000
0000
0000
1000
0000
0000
0000
0000
,
0000
0000
0000
0000
,
0001
0001
0001
0001
,
0002
0000
0003
0000
,
0000
1000
0000
1000
,
0000
0010
0000
0010
,
0000
0100
0000
0100
,
0001
0000
0001
0000
,
0000
1000
0000
0100
,
0000
0010
0000
0001
,
0000
0100
0000
0010
,
0020
0000
0000
0000
0000
0030
0000
0000
,
1001
0000
1000
0000
,
0100
0100
0100
0000
,
1000
0000
1000
0000
,
0001
1000
0000
0000
,
0001
0000
0100
0000
,
0010
0010
0010
0000
,
1000
0000
0100
0000
,
0000
0010
0100
0000
,
1001
0000
1000
0000
,
0010
0010
0010
0000
,
1000
0000
1000
0000
,
0001
1000
0000
0000
,
0001
0000
0010
0000
,
0100
0100
0100
0000
,
1000
0000
0010
0000
,
0000
0100
0010
0000
,
0000
1001
0000
1000
,
0000
0100
0100
0100
,
0000
1001
0000
0001
,
0000
0100
0100
0100
,
0100
0000
0010
0000
,
1000
0001
0000
0001
,
1000
0000
0100
0000
,
0010
0010
0010
0000
,
0000
1001
0000
1000
,
0000
0010
0010
0010
,
0000
1001
0000
0001
,
0000
0010
0010
0010
,
0010
0000
0100
0000
,
1000
0001
0000
0001
,
1000
0000
0010
0000
,
0100
0000
0000
0000
0100
0000
0000
0000
0100
0000
0000
0000
0200
0000
0000
0300
,
0000
0000
0000
0000
,
0000
0000
0000
0000
,
1001
0000
1000
0000
,
0100
0100
0100
0000
,
0001
0000
0001
0000
,
0010
0010
0010
0000
,
1001
0000
1000
0000
,
0010
0010
0010
0000
,
0001
0000
0001
0000
,
0100
0100
0100
0000
,
1001
0000
1000
0000
,
0100
0010
0000
0000
,
0001
0000
0001
0000
,
0100
0010
0000
0000
,
1001
0000
1000
0000
,
0010
0000
0100
0000
,
0001
0000
0001
0000
,
0010
0100
0010
0000
,
0000
1000
0000
1000
,
0000
0100
0000
0100
,
0000
0010
0000
0010
,
0001
0000
0001
0000
,
0000
1000
0000
0010
,
0000
0100
0000
0001
,
0000
0010
0000
0100
,
0200
0000
0000
0000
0000
0300
0000
0000
,
1001
0000
0000
0000
;

//---------------dance-single - ----------------
#NOTES:
     dance-single:
     :
     Easy:
     6:
     0.310,0.411,0.202,0.186,0.000:
0000
0000
0000
0000
,
0000
0000
0000
0000
,
0000
0000
0000
0000
,
0000
0000
0000
0000
,
0000
0000
0000
0000
,
0001
0000
0000
0010
0000
0000
0000
0200
,
0000
0000
0300
0000
,
1000
1000
0001
0001
,
0100
0000
0000
2002
3003
0000
0000
0000
,
0000
1000
0010
1000
,
0000
0001
0010
0001
,
0100
0100
0010
0000
,
1000
0001
0001
1000
,
1000
0200
0300
0100
,
0010
0002
0003
1000
,
2000
3000
0002
0003
,
0010
0000
0000
2002
0000
3003
0000
0000
,
1000
0010
0100
0000
,
1000
0100
0001
0000
,
0010
0000
0000
0010
0000
0000
0000
0000
,
0002
0100
2003
0100
,
3001
0010
0100
0000
,
1000
0001
0100
0000
,
1000
0100
0001
0010
,
0100
1000
0010
1000
,
0001
0010
0100
0000
,
0001
0100
1000
0000
,
0010
0000
0000
0010
0000
0000
0000
0000
,
2000
0100
3002
0100
,
1003
0010
0100
0000
,
0001
1000
0100
0000
,
0001
0100
1000
0010
,
0100
0001
0010
0001
,
0000
1001
0000
0010
,
0000
1000
0100
0001
,
0000
1001
0000
0010
,
0000
0001
0100
1000
,
0001
0001
1000
0000
,
1000
1000
0001
0000
,
1000
0010
0001
0100
,
1000
0010
0100
0100
,
0000
1001
0000
0100
,
0000
1000
0010
0001
,
0000
1001
0000
0100
,
0000
0001
0010
1000
,
0001
0001
1000
0000
,
1000
1000
0001
0000
,
1000
0100
0001
0010
,
1000
0000
0000
0000
0100
0000
0000
0000
0010
0000
0000
0000
0020
0000
0000
0030
,
0000
0000
0000
0000
,
0000
0000
0000
0000
,
1001
0100
1000
0000
,
1001
0100
0001
0000
,
1000
0100
0010
1000
,
0001
0010
1000
0000
,
1001
0100
0001
0000
,
1001
0100
1000
0000
,
0001
0100
0010
0001
,
1000
0010
0001
0000
,
1001
1000
0100
0010
,
1001
0001
0100
0010
,
1000
0100
0001
0001
,
0100
1000
0001
0000
,
1001
0110
1000
0000
,
1001
0110
0001
0000
,
1001
0100
0110
0010
,
1001
0110
0110
2002
,
3003
0001
0010
0001
,
0000
1000
0010
1000
,
0100
0100
0010
0000
,
0001
1000
1000
0001
,
0001
0200
0300
0100
,
0010
2000
3000
0001
,
0002
0003
2000
3000
,
0010
0000
0000
2002
0000
3003
0000
0000
,
1001
0000
0000
0000
;

//---------------dance-double - ----------------
#NOTES:
     dance-double:
     :
     Hard:
     12:
     0.572,0.609,0.059,0.093,0.245: // measure 1
00000000
00000000
00000000
00000000
,  // measure 2
00000000
00000000
00000000
00000000
,  // measure 3
00000000
00000000
00000000
00000000
,  // measure 4
00000000
00000000
00000000
00000000
,  // measure 5
00000000
00000000
00000000
00000000
,  // measure 6
00000001
00000100
00000010
00000100
00000000
00000010
00001000
00000010
,  // measure 7
00000000
00001000
00000100
00001000
00000000
00000100
00010000
00000100
,  // measure 8
00001100
00011000
00110000
01100000
,  // measure 9
00010000
00000000
00000000
10000000
00000000
00000000
00010000
00000000
20020000
00000000
00000000
00000000
30030000
00000000
00000000
00000000
,  // measure 10
00010000
10000000
01000000
00100000
00000000
01000000
00100000
00001000
,  // measure 11
00010000
00001000
00000100
00000010
00001000
00000001
00000010
00000200
,  // measure 12
00001000
00000000
00000310
00000001
00000000
00001000
00000010
00000100
,  // measure 13
00001000
00010000
00100000
00010000
00001000
00010000
01000000
20000000
,  // measure 14
00100000
00000000
31000000
00100000
00000000
00100000
00001000
00100000
,  // measure 15
00000000
00001000
00010000
00001000
00000000
00010000
00000010
00010000
,  // measure 16
00000100
00000000
00001000
00000000
00001000
00000000
00000001
00000000
00000100
00000000
00000000
00000010
00000000
00000000
00000100
00000000
,  // measure 17
00000001
00000000
00001000
00000000
00000100
00000000
00010000
00000100
00000000
00010000
00001000
00000000
00200000
00000000
00000000
00000000
,  // measure 18
00300000
00000000
00010000
00000000
01000000
00000000
00100000
00000000
01000000
00000000
00000000
00010000
00000000
00000000
10000000
00000000
,  // measure 19
00000000
01000000
00100000
00000000
01000000
10000000
00010000
01000000
,  // measure 20
00001000
00000000
00000000
00001000
00000000
00000000
00010000
00000000
00000000
00000000
00000010
00000000
00001000
00000000
00010000
00000000
,  // measure 21
00001000
00000000
00000010
00000000
00000100
00000000
00000001
00001000
00000000
00000000
00000100
00000000
00000010
00000000
00000000
00000010
,  // measure 22
00000000
00000001
00000100
00001000
00000000
00010000
00100000
00010000
,  // measure 23
00001000
00000000
00010000
00000000
01000000
00000000
10000000
00010000
00000000
00000000
10000000
00000000
01000000
00000000
00000000
01000000
,  // measure 24
00000000
00000000
00100000
00000000
00000000
00001000
00000000
00000000
00010000
00000000
00000000
00000010
00000000
00000000
00000100
00000000
,  // measure 25
00000000
00001000
00000000
00000000
00010000
00000000
00100000
00000000
10000000
00000000
01000000
00000000
00100000
00000000
00010000
00000000
,  // measure 26
00000000
00000000
00001000
00000000
00000100
00000000
00000010
00000000
00000100
00000000
00000000
00001000
00000000
00000000
00000001
00000000
,  // measure 27
00000000
00000100
00000010
00000000
00000100
00000001
00001000
00000100
,  // measure 28
00010000
00000000
00000000
00010000
00000000
00000000
00001000
00000000
00000000
00000000
00100000
00000000
00010000
00000000
00001000
00000000
,  // measure 29
00010000
00000000
00100000
00000000
01000000
00000000
10000000
00010000
00000000
00000000
01000000
00000000
00100000
00000000
00000000
00100000
,  // measure 30
00000000
00000000
10000000
00000000
01000000
00000000
00010000
00000000
00001000
00000000
00000000
00000010
00000000
00000000
00001000
00000000
,  // measure 31
00010000
00000000
00001000
00000000
00000100
00000000
00000001
00001000
00000000
00000000
00000001
00000000
00000100
00000000
00000000
00000100
,  // measure 32
00000000
00000000
00000010
00000000
00000000
00010000
00000000
00000000
00001000
00000000
00000000
00100000
00000000
00000000
01000000
00000000
,  // measure 33
00000000
00010000
00000000
00000000
00001000
00000000
00000010
00000000
00000001
00000000
00000100
00000000
00000010
00000000
00001000
00000000
,  // measure 34
00000000
00000000
00000000
00000000
00000101
00000000
00000000
00000000
00001000
00000000
00000000
00000100
00000000
00000000
00010000
00000000
,  // measure 35
00000000
00001000
01000000
00100000
01000000
00010000
10000000
02000000
,  // measure 36
00000000
00000000
03100000
00000000
00001000
00000000
00010000
00000000
00001000
00000000
00000000
00000010
00000000
00000000
00000001
00000000
,  // measure 37
00000000
00001000
00000100
00001000
00000000
00000100
00010000
00001000
,  // measure 38
00001000
00000000
00000000
01000000
00000000
00000000
00100000
00000000
00000000
00000000
10000000
00000000
01000000
00000000
00100000
00000000
,  // measure 39
00100000
00001000
00001000
00010000
00010000
00000010
00000010
00000100
,  // measure 40
00000001
00000000
00000000
00001000
00000000
00000000
00010000
00000000
00000000
00000000
10000000
00000000
01000000
00000000
00100000
00000000
,  // measure 41
00100000
00001000
00001000
01000000
00010000
00100000
10000000
00010000
,  // measure 42
01000000
00000000
10000000
00000000
00100000
00000000
01000000
00000000
00010000
00000000
00000000
01000000
00000000
00000000
00001000
00000000
,  // measure 43
00000000
00010000
00000100
00000010
00000100
00001000
00000001
00000200
,  // measure 44
00000000
00000000
00000310
00000000
00010000
00000000
00001000
00000000
00010000
00000000
00000000
00100000
00000000
00000000
10000000
00000000
,  // measure 45
00000000
00010000
01000000
00010000
00000000
01000000
00001000
00010000
,  // measure 46
00010000
00000000
00000000
00000100
00000000
00000000
00000010
00000000
00000000
00000000
00000001
00000000
00000100
00000000
00000010
00000000
,  // measure 47
00000010
00010000
00010000
00001000
00001000
00100000
00100000
01000000
,  // measure 48
10000000
00000000
00000000
00010000
00000000
00000000
00001000
00000000
00000000
00000000
00000001
00000000
00000100
00000000
00000010
00000000
,  // measure 49
00000000
00000010
00010000
00000010
00001000
00000100
00000001
00000100
,  // measure 50
00000000
00000000
00000000
00000000
,  // measure 51
00000000
00000000
00000000
00000000
,  // measure 52
00010000
00000000
00000000
00010000
00000000
00000000
01000000
00000000
10000000
00000000
00000000
10000000
00000000
00000000
00100000
00000000
,  // measure 53
00010000
00000000
00000000
00010000
00000000
00000000
00001000
00000000
00000100
00000000
00000010
00000000
00001000
00000000
00000010
00000000
,  // measure 54
00000100
00000000
00000000
00000100
00000000
00000000
00001000
00000000
00010000
00000000
00000000
00010000
00000000
00000000
01000000
00000000
,  // measure 55
00100000
00000000
00000000
00100000
00000000
00000000
00001000
00000000
00010000
00000000
00000100
00000000
00001000
00000000
00000001
00000000
,  // measure 56
00000010
00000000
00000000
00000001
00000000
00000000
00000100
00000000
00001000
00000000
00010000
00000000
00100000
00000000
10000000
00000000
,  // measure 57
01000000
00000000
00000000
00100000
00000000
00000000
00001000
00000000
00010000
00000000
01000000
00000000
00100000
00000000
00001000
00000000
,  // measure 58
00010000
00000000
00000000
00000010
00000000
00000000
00001000
00000000
00000100
00000000
00000000
00010000
00000000
00000000
00001000
00000000
,  // measure 59
00100000
00000000
00000000
00010000
00000000
00000000
10000000
00000000
01000000
00000000
00100000
00000000
00010000
00000000
01000000
00000000
,  // measure 60
00001000
00000000
00000000
00001000
00000000
00000000
00000100
00000000
00000001
00000000
00000000
00000001
00000000
00000000
00000010
00000000
,  // measure 61
00001000
00000000
00000000
00001000
00000000
00000000
00010000
00000000
01000000
00000000
00100000
00000000
00010000
00000000
00100000
00000000
,  // measure 62
01000000
00000000
00000000
01000000
00000000
00000000
00010000
00000000
00001000
00000000
00000000
00001000
00000000
00000000
00000100
00000000
,  // measure 63
00000010
00000000
00000000
00000010
00000000
00000000
00010000
00000000
00001000
00000000
01000000
00000000
00010000
00000000
10000000
00000000
,  // measure 64
00100000
10000000
01000000
00010000
00001000
00010000
01000000
00100000
,  // measure 65
00001000
00010000
00001000
00000100
00000010
00001000
00000001
00000010
,  // measure 66
00000100
00000010
00000001
00000100
00001000
00010000
00100000
10000000
,  // measure 67
00010000
01000000
00000000
00001000
01000000
00000000
00001000
00010000
00000000
00000100
00010000
00000000
00000100
00001000
00000000
00000010
,  // measure 68
00001000
00000001
00000100
00000010
00000000
00000100
00000010
00010000
,  // measure 69
00001000
00010000
01000000
00100000
00010000
10000000
00100000
02000000
,  // measure 70
00010000
00000000
03100000
10000000
00000000
00010000
00100000
01000000
,  // measure 71
00010000
00001000
00000010
00001000
00010000
00001000
00000100
00000002
,  // measure 72
00000010
00000000
00000103
00000010
00000000
00000010
00010000
00000010
,  // measure 73
00000000
00010000
00001000
00010000
00000000
00001000
00100000
00001000
,  // measure 74
01000000
00000000
00010000
00100000
00010000
00000000
10000000
00000000
01000000
00000000
00000000
00100000
00000000
00000000
01000000
00000000
,  // measure 75
10000000
00000000
00010000
00000000
01000000
00000000
00001000
01000000
00000000
00001000
00010000
00000000
00000010
00000000
00000000
00000000
,  // measure 76
00002002
00000000
00000000
00000000
,  // measure 77
00003003
00000000
00000000
00000000
;

//---------------dance-double - ----------------
#NOTES:
     dance-double:
     :
     Medium:
     9:
     0.419,0.417,0.051,0.017,0.030:
00000000
00000000
00000000
00000000
,
00000000
00000000
00000000
00000000
,
00000000
00000000
00000000
00000000
,
00000000
00000000
00000000
00000000
,
00000000
00000000
00000000
00000000
,
10000000
00000000
00010000
01000000
00000000
00000000
01000000
00001000
,
00000000
00000000
00001000
00010000
00000000
00000000
00010000
00000100
,
00001000
00000010
00000100
00000001
,
00001000
00000000
00000000
00000001
00000000
00000000
00001000
00000000
00000100
00000000
00000000
00000000
00000000
00000000
00000000
00000000
,
00010000
00000000
00001000
00000000
01000000
00000000
00010000
00100000
,
01000000
00000000
10000000
00000000
00010000
10000000
00010000
00100000
,
01000000
00000000
10000000
00000000
00100000
00000000
01000000
00001000
,
00010000
00000000
00000100
00000000
00001000
00000010
00001000
00000100
,
00000010
00000001
00000100
00001000
,
00010000
00100000
10000000
01000000
,
00100000
00000000
00000000
00000000
00001000
00000000
00000000
00000000
00010000
00000000
00000000
00001000
00000000
00000000
00010000
00000000
,
00000100
00000000
00000000
00000000
00001000
00000000
00000000
00000010
00000000
00000000
00000100
00000000
00000010
00000000
00000000
00000000
,
00001000
00000000
00000000
00000000
00000100
00000000
00000000
00000000
00010000
00000000
00000000
00001000
00000000
00000000
00100000
00000000
,
00010000
00000000
10000000
00000000
01000000
00100000
00010000
00000000
,
01000000
00000000
00100000
00000000
10000000
00010000
01000000
00000000
,
00001000
00010000
00000100
00000000
00001000
00000000
00000001
00000000
,
00000100
00000010
00000100
00000000
00000001
00000000
00001000
00000000
,
00010000
00000000
10000000
00000000
00010000
00100000
00010000
00000000
,
10000000
01000000
00100000
00010000
,
00001000
00000000
00000100
00000000
00000010
00000001
00001000
00000000
,
00010000
00000000
00000000
00000000
01000000
00000000
00000000
00000000
00001000
00000000
00000000
00010000
00000000
00000000
00000010
00000000
,
00001000
00000000
00000001
00000000
00000100
00000010
00001000
00000000
,
00000100
00000000
00000010
00000000
00000001
00001000
00000100
00000000
,
00010000
00001000
01000000
00000000
00010000
00000000
10000000
00000000
,
01000000
00100000
01000000
00000000
10000000
00000000
00010000
00000000
,
00001000
00000000
00000001
00000000
00001000
00000010
00001000
00000000
,
00000001
00000100
00000010
00001000
,
00010000
00000000
01000000
00000000
00100000
10000000
00010000
00000000
,
00000000
10010000
10000000
01000000
,
00100000
00000000
00001000
00000000
00010000
00000010
00001000
00000000
,
00000001
00000100
00001000
00010000
,
00001000
00000000
01000000
00000000
00010000
00100000
01000000
00000000
,
00010000
00001000
00010000
01000000
,
10000000
00010000
00001000
00000001
,
00000100
00000010
00000100
00000001
,
00000100
00001000
00000100
00000010
,
00000110
00001001
00000001
00000100
,
00000010
00000000
00010000
00000000
00001000
00100000
00010000
00000000
,
10000000
01000000
00010000
00001000
,
00010000
00000000
00000100
00000000
00001000
00000010
00000100
00000000
,
00001000
00010000
00001000
00000100
,
00000001
00001000
00010000
10000000
,
01000000
00100000
01000000
10000000
,
01000000
00100000
00010000
00000000
01000000
00100000
01000000
00100000
,
00000000
00000000
00000000
00000000
,
00000000
00000000
00000000
00000000
,
01000000
00000000
00001000
00100000
00010000
00000000
00100000
00001000
,
00010000
00000000
00000100
00010000
00000010
00000000
00001000
00000001
,
00000010
00000000
00000001
00000100
00000010
00000000
00000100
00000001
,
00001000
00000000
00000100
00010000
00000010
00000000
00001000
00000100
,
00010000
00000000
00001000
01000000
00010000
01000000
00010000
00000000
,
10000000
00000000
01000000
00100000
01000000
00100000
00001000
00000000
,
00010000
00000000
00000010
00001000
00000100
00000000
00000010
00000001
,
00000100
00000000
00001000
00010000
00001000
00000000
00011000
00000000
,
00000100
00000000
00010000
00000010
00001000
00000000
00000010
00010000
,
00001000
00000000
01000000
00001000
00100000
00000000
00010000
10000000
,
00100000
00000000
10000000
01000000
00100000
00000000
01000000
10000000
,
00010000
00000000
01000000
00001000
00100000
00000000
00010000
00100000
,
00001000
00000000
00010000
00000100
00001000
00000100
00001000
00000000
,
00000001
00000000
00000100
00000010
00000100
00000010
00010000
00000000
,
00001000
00000000
00100000
00010000
01000000
00000000
00100000
10000000
,
01000000
00000000
00010000
00001000
00010000
00000000
00011000
00000000
,
00001000
00000000
00010000
00000000
00000100
00000000
00001000
00000010
,
00000100
00000000
00000001
00000000
00001000
00000001
00001000
00000010
,
00000100
00000000
00000001
00000000
00000010
00000000
00000100
00010000
,
00001000
00000000
01000000
00000000
00010000
00100000
00010000
01000000
,
00100000
10000000
01000000
00010000
,
00001000
00000010
00000001
00000100
,
00000010
00000000
00000000
00000000
00010000
00000000
00000000
00000000
00001000
00000000
00000000
00010000
00000000
00000000
00001000
00000000
,
01000000
00000000
00000000
00000000
00010000
00000000
00000000
00100000
00000000
00000000
01000000
00000000
00100000
00000000
00000000
00000000
,
20020000
00000000
00000000
00000000
,
30030000
00000000
00000000
00000000
;

//---------------dance-double - ----------------
#NOTES:
     dance-double:
     :
     Easy:
     5:
     0.236,0.256,0.008,0.042,0.000:
00000000
00000000
00000000
00000000
,
00000000
00000000
00000000
00000000
,
00000000
00000000
00000000
00000000
,
00000000
00000000
00000000
00000000
,
00000000
00000000
00000000
00000000
,
00010000
00000000
00001000
00000000
,
00010000
00000000
00001000
00000000
,
00010000
00001000
01000000
00010000
,
20020000
00000000
30030000
00000000
,
10000000
01000000
00000000
01000000
,
00100000
00001000
00010000
00000100
,
00001000
00000010
00000000
00000010
,
00000100
00000001
00000100
00001000
,
00010000
00001000
00000000
00001000
,
00000000
00010000
00000000
00010000
,
01000000
10000000
00010000
01000000
,
00200000
00000000
00300000
00000000
,
10000000
00000000
01000000
00000000
,
00100000
00001000
00010000
00000100
,
00001000
00000000
00000010
00000000
,
00000100
00000001
00000100
00001000
,
00010000
00000000
01000000
00000000
,
10000000
00010000
01000000
00000000
,
00100000
10000000
01000000
00000000
,
00010000
00001000
00010000
00000000
,
00001000
00000010
00000001
00000000
,
00000100
00000000
00000010
00000000
,
00001000
00000100
00010000
00000000
,
00001000
00000000
01000000
00000000
,
00010000
00100000
01000000
00000000
,
10000000
00000000
00100000
00000000
,
01000000
00001000
00010000
00000000
,
00000100
00001000
00000010
00000000
,
00000000
00000100
00000001
00000000
,
00001000
00000100
00010000
00000000
,
00001000
01000000
00001000
00000000
,
01000000
00000000
00010000
00000000
,
00100000
01000000
10000000
00000000
,
00100000
00000000
00100000
00000000
,
01000000
00001000
00010000
00000000
,
00000100
00000000
00001000
00000000
,
00000001
00000100
00000001
00000000
,
00001000
00000100
00010000
00000000
,
00001000
01000000
00001000
00000000
,
01000000
00000000
00010000
00000000
,
00100000
01000000
10000000
00000000
,
00100000
00000000
00100000
00000000
,
01000000
00001000
00010000
00000000
,
00000100
00000100
00000100
00000100
,
00000000
00000000
00000000
00000000
,
00000000
00000000
00000000
00000000
,
01000000
00010000
00100000
00000000
,
01000000
10000000
00100000
00000000
,
01000000
00000000
00010000
00000000
,
00100000
00001000
00010000
00000000
,
00000100
00000000
00001000
00000000
,
00000010
00000100
00000001
00000000
,
00000010
00000000
00000100
00000000
,
00010000
00001000
01000000
00000000
,
00010000
00000000
00100000
00000000
,
01000000
10000000
01000000
00000000
,
00010000
00000000
00001000
00000000
,
00000100
00000010
00001000
00000000
,
00000001
00000100
00000001
00000000
,
00000100
00001000
00000100
00000000
,
00001000
00010000
00001000
00000000
,
00010000
01000000
00010000
01000000
,
10000000
01000000
00000000
01000000
,
00100000
00001000
00010000
00000100
,
00001000
00000010
00000000
00000010
,
00000100
00000001
00000100
00001000
,
00010000
00001000
00000000
00001000
,
00000000
00010000
00000000
00010000
,
01000000
10000000
00010000
01000000
,
00200000
00000000
00300000
01000000
,
00020000
00000000
00000000
00000000
,
00030000
00000000
00000000
00000000
;

//---------------dance-double - ----------------
#NOTES:
     dance-double:
     :
     Challenge:
     15:
     0.710,0.737,0.194,0.017,0.599: // measure 1
00000000
00000000
00000000
00000000
,  // measure 2
00000000
00000000
00000000
00000000
,  // measure 3
00000000
00000000
00000000
00000000
,  // measure 4
00000000
00000000
00000000
00000000
,  // measure 5
00000000
00000000
00000000
00000000
,  // measure 6
00010000
00001000
01000000
00100000
00000000
10000000
01000000
00100000
,  // measure 7
00000000
00010000
01000000
00001000
00000000
00010000
00000010
00000100
,  // measure 8
00001100
MMMMMMMM
00011000
00000000
00110000
MMMMMMMM
10100000
MMMMMMMM
,  // measure 9
10010000
00000000
00000000
01100000
00000000
00000000
10010000
00000000
01100000
00000000
00000000
00000000
MMMMMMMM
00000000
00000000
00000000
,  // measure 10
10000000
00000000
01000000
00000000
00100000
00000000
00010000
00000000
00000000
00000000
01000000
00000000
00001000
00000000
00010000
00000100
,  // measure 11
00010000
00000010
00001000
00000100
00000001
00000100
00001000
00000010
,  // measure 12
MMMMMMMM
00000000
00000100
00000000
00010000
00000000
00001000
00000000
00000000
00000000
01000000
00000000
00010000
00000000
00100000
01000000
,  // measure 13
00100000
00000000
00010000
00000000
10000000
00000000
00100000
00000000
01000000
00000000
00001000
00010000
00001000
00000000
00000100
00000000
,  // measure 14
MMMMMMMM
00000010
00000001
00000100
00000000
00001000
00010000
00100000
,  // measure 15
00000000
10000000
01000000
00010000
00000000
01000000
00100000
00001000
,  // measure 16
00010000
00000000
00000100
00001000
00000100
00000000
00000010
00000000
00000001
00000000
00000000
00000100
00000000
00000000
00001000
00000000
,  // measure 17
00010000
00001000
00010000
00001000
01000000
00000000
00001000
00010000
00000000
00100000
01000000
00010000
10000000
00000000
00000000
00000000
,  // measure 18
MMMMMMMM
00000000
10000000
01000000
10000000
00000000
00010000
00000000
01000000
00000000
00000000
00001000
00000000
00000000
00010000
00000000
,  // measure 19
00000100
00000000
00000010
00000000
00000001
00000000
00000100
00000010
00000100
00000000
00000001
00000000
00000010
00000100
00000010
00000100
,  // measure 20
00010000
00000000
00000000
00011000
00000000
00000000
01001000
00000000
MMMMMMMM
00000000
01000000
00000000
00100000
00000000
10000000
00000000
,  // measure 21
00010000
00000000
01000000
00000000
00100000
00000000
10000000
01000000
00000000
00000000
00100000
00001000
00100000
00000000
00001000
00010000
,  // measure 22
00000000
00010000
00000100
00000000
00001000
00000000
00000010
00000000
MMMMMMMM
00000000
00000001
00000000
00000010
00000000
00001000
00000000
,  // measure 23
00010000
00000000
00000100
00000000
00001000
00000000
00000010
00000100
00000000
00000000
00001000
00010000
00001000
00000000
01000000
00010000
,  // measure 24
00000000
00000000
10000000
00000000
00000000
01000000
00000000
00000000
00010000
00000000
00000000
00001000
00000000
00000000
00000010
00000000
,  // measure 25
00000000
00000001
00000000
00000000
00000100
00000000
00000010
00010000
00001000
00010000
00001000
00000000
00000100
00000000
00000001
00000000
,  // measure 26
MMMMMMMM
00000000
00000001
00000100
00000001
00000000
00001000
00000000
00000100
00000000
00000000
00010000
00000000
00000000
00001000
00000000
,  // measure 27
01000000
00000000
00100000
00000000
10000000
00000000
01000000
00100000
01000000
00000000
10000000
00000000
00100000
01000000
00100000
01000000
,  // measure 28
00001000
00000000
00000000
00011000
00000000
00000000
00010100
00000000
MMMMMMMM
00000000
00000100
00000000
00000010
00000000
00000001
00000000
,  // measure 29
00001000
00000000
00000100
00000000
00000010
00000000
00000001
00000100
00000000
00000000
00000010
00010000
00000010
00000000
00010000
00001000
,  // measure 30
00000000
00001000
01000000
00000000
00010000
00000000
00100000
00000000
01000000
00000000
00000000
01100000
00000000
00000000
00101000
00000000
,  // measure 31
00001000
00000000
01000000
00000000
00010000
00000000
00100000
01000000
00000000
00000000
00010000
00001000
00010000
00000000
00000100
00001000
,  // measure 32
00000000
00000000
00000001
00000000
00000000
00000100
00000000
00000000
00001000
00000000
00000000
00010000
00000000
00000000
00100000
00000000
,  // measure 33
00000000
10000000
00000000
00000000
01000000
00000000
00100000
00001000
00010000
00001000
00010000
00000000
01000000
00000000
10000000
00000000
,  // measure 34
MMMMMMMM
00000000
00100000
00000000
00001000
00000000
00000100
00000000
00000010
00000000
00000000
00001010
00000000
00000000
00001001
00000000
,  // measure 35
MMMMMMMM
00000000
00000001
00000000
00000010
00000000
00000100
00000000
00010000
00000000
00001000
01000000
00001000
00000000
01000000
00010000
,  // measure 36
00000000
00000000
01000000
00000000
00001000
00000000
00000010
00000000
00000100
00000000
00000000
00010100
00000000
00000000
00011000
00000000
,  // measure 37
MMMMMMMM
00001000
01000000
00001000
00000000
01000000
00010000
00100000
,  // measure 38
00100000
00000000
00000000
01000000
00000000
00000000
10000000
00000000
MMMMMMMM
00000000
00100000
00000000
01000000
00000000
10000000
00010000
,  // measure 39
10000000
00000000
00010000
01000000
00010000
00000000
01000000
00001000
01000000
00000000
00001000
00010000
00001000
00000000
00010000
00000100
,  // measure 40
00000010
00000000
00000000
00000001
00000000
00000000
00000100
00000000
MMMMMMMM
00000000
00000010
00000000
00000001
00000000
00001000
00000100
,  // measure 41
00001000
00000000
00000100
00010000
00000100
00000000
00010000
00001000
00000010
00000001
00000010
00000000
00000001
00000100
00000001
00000000
,  // measure 42
MMMMMMMM
00000000
00000010
00000000
00010000
00000000
01000000
00000000
00100000
00000000
00000000
00110000
00000000
00000000
10010000
00000000
,  // measure 43
MMMMMMMM
00000000
10000000
00000000
00100000
00000000
01000000
00000000
00001000
00000000
00010000
00000100
00010000
00000000
00000100
00001000
,  // measure 44
00000000
00000000
00000100
00000000
00010000
00000000
00100000
00000000
01000000
00000000
00000000
01001000
00000000
00000000
00011000
00000000
,  // measure 45
MMMMMMMM
00010000
00000100
00010000
00000000
00000100
00001000
00000010
,  // measure 46
00000010
00000000
00000000
00000100
00000000
00000000
00000001
00000000
MMMMMMMM
00000000
00000010
00000000
00000100
00000000
00000001
00001000
,  // measure 47
00000001
00000000
00001000
00000100
00001000
00000000
00000100
00010000
00000100
00000000
00010000
00001000
00010000
00000000
00001000
01000000
,  // measure 48
00100000
00000000
00000000
10000000
00000000
00000000
01000000
00000000
MMMMMMMM
00000000
00100000
00000000
10000000
00000000
00010000
00000000
,  // measure 49
00000000
00000000
00010000
00000000
10000000
00000000
00010000
00000000
01000000
00100000
01000000
00100000
01000000
00100000
01000000
00100000
,  // measure 50
00000000
MMMM0000
00000000
0000MMMM
00000000
MMMM0000
00000000
0000MMMM
,  // measure 51
00000000
00000000
00000000
00000000
,  // measure 52
00000001
00000000
00000100
00000010
00000000
00000100
00000010
00000000
00000100
00000000
00001000
00010000
00000000
00001000
00010000
00000000
,  // measure 53
01000000
00000000
00100000
01000000
00000000
00100000
01000000
00000000
10000000
01000000
10000000
00000000
00010000
01000000
00010000
01000000
,  // measure 54
00001000
00000000
00010000
00000010
00000000
00010000
00000010
00000000
00000100
00000000
00000001
00000010
00000000
00000001
00000010
00000000
,  // measure 55
00000100
00000000
00010000
00001000
00000000
00010000
00001000
00000000
01000000
00010000
01000000
00000000
00100000
10000000
00100000
00000000
,  // measure 56
MMMMMMMM
00000000
00010000
00100000
00000000
00010000
00100000
00000000
01000000
10000000
01000000
00000000
00100000
00000000
00001000
00000000
,  // measure 57
MMMMMMMM
00000000
00010000
01000000
00000000
00010000
01000000
00000000
00001000
00010000
00001000
00000000
00000100
00000000
00000010
00000000
,  // measure 58
00001000
00000000
00000100
00010000
00000000
00000100
00010000
00000000
00001000
00000000
00100000
01000000
00000000
00100000
01000000
00000000
,  // measure 59
10000000
00000000
00100000
01000000
00000000
00100000
01000000
00000000
00001000
00010000
00001000
00000000
01000000
00000000
MMMMMMMM
00000000
,  // measure 60
10000000
00000000
01000000
00100000
00000000
01000000
00100000
00000000
01000000
00000000
00010000
00001000
00000000
00010000
00001000
00000000
,  // measure 61
00000100
00000000
00000010
00000100
00000000
00000010
00000100
00000000
00000001
00000100
00000001
00000000
00001000
00000100
00001000
00000100
,  // measure 62
00010000
00000000
00001000
00100000
00000000
00001000
00100000
00000000
01000000
00000000
10000000
00100000
00000000
10000000
00100000
00000000
,  // measure 63
01000000
00000000
00001000
00010000
00000000
00001000
00010000
00000000
00000100
00001000
00000100
00000000
00000010
00000001
00000010
00000000
,  // measure 64
MMMMMMMM
00000100
00000001
00000100
00001000
00000100
00000001
00000100
,  // measure 65
00001000
00100000
10000000
00100000
00010000
00100000
10000000
00100000
,  // measure 66
00001000
00000010
00000001
00000010
00001000
00000010
00000001
00000010
,  // measure 67
00001000
00010000
00000000
00010000
00000100
00000000
00000100
00001000
00000000
00001000
00000010
00000000
00000010
00000100
00000001
00001000
,  // measure 68
00000001
00000000
00000100
00000000
00000010
00000000
00001000
00000000
00000000
00000000
00000100
00000000
00010000
00000000
00001000
01000000
,  // measure 69
00001000
00100000
00010000
01000000
10000000
01000000
00010000
00100000
,  // measure 70
MMMMMMMM
00000000
01000000
00000000
00001000
00000000
00010000
00000000
00000000
00000000
00000100
00000000
00001000
00000000
00000010
00000100
,  // measure 71
00000010
00000000
00001000
00000000
00000001
00000000
00000010
00000000
00000100
00000000
00010000
00001000
00010000
00000000
01000000
00000000
,  // measure 72
MMMMMMMM
00100000
10000000
01000000
00000000
00010000
00001000
00000010
,  // measure 73
00000000
00000001
00000100
00001000
00000000
00000100
00000010
00010000
,  // measure 74
00001000
00000000
01000000
00010000
01000000
00000000
00100000
00000000
10000000
00000000
00000000
01000000
00000000
00000000
00010000
00000000
,  // measure 75
00001000
00010000
00001000
00010000
00000100
00000000
00010000
00001000
00000000
00000010
00000100
00001000
00000001
00000000
MMMMMMMM
00000000
,  // measure 76
00002002
00000000
00000000
00000000
,  // measure 77
00003003
00000000
00000000
00000000
;
