#TITLE:perditus†paradisus;
#SUBTITLE:;
#ARTIST:iconoclasm;
#TITLETRANSLIT:perditus paradisus;
#SUBTITLETRANSLIT:;
#ARTISTTRANSLIT:;
#GENRE:;
#CREDIT:Silverhawke;
#MENUCOLOR:;
#METERTYPE:DDR;
#BANNER:perditus paradisus.png;
#BACKGROUND:perditus paradisus-bg.png;
#LYRICSPATH:;
#CDTITLE:cdtitle.png;
#MUSIC:perditus paradisus.mp3;
#OFFSET:-0.028;
#SAMPLESTART:29.312;
#SAMPLELENGTH:15.000;
#SELECTABLE:YES;
#LISTSORT:;
#BPMS:0.000=172.000;
#STOPS:;
#BGCHANGES:;
#ATTACKS:;

//---------------dance-single - ----------------
#NOTES:
     dance-single:
     :
     Hard:
     16:
     0.730,0.886,0.344,0.372,0.667:
0000
0000
0000
0000
,
0000
0000
0000
0000
,
0000
0000
0000
0000
,
0000
0000
0000
0000
,
0000
0000
0000
0000
,
0000
0000
0000
0000
,
0000
0000
0000
0000
,
0000
0000
0000
0000
0000
0000
0000
0001
,
0202
0003
0020
0300
,
2000
0030
0200
3000
,
0020
0300
0002
0030
,
0200
0003
0020
0330
,
0220
0000
0000
0030
,
0002
0000
0000
0300
,
2000
0000
0000
0003
,
0200
0000
3000
0000
0020
0000
0300
0031
,
0102
0100
0203
0310
,
0120
1000
2030
0001
,
3001
0010
0100
0010
0001
0010
0100
0010
,
0001
0010
0100
1000
0100
0010
0100
1000
,
0200
0000
0000
0300
,
1100
0000
0000
1000
0010
0000
0000
0010
0100
0000
0000
0100
0001
0000
0001
1000
,
0001
0000
0000
0001
0100
0000
0000
0100
0010
0000
0000
0010
1000
0000
0010
1000
,
0010
0000
0000
0010
0100
0000
0000
0100
0001
0000
0000
0001
0010
0000
0001
0010
,
0001
0000
0000
0001
0100
0000
0000
0100
1000
0000
0000
1000
0100
0000
0010
0000
,
1010
0000
0000
1000
0100
0000
0000
0100
0010
0001
0000
0001
0100
0010
0000
0100
,
0010
0000
0000
1000
0100
0000
0000
0100
0010
0001
0000
0001
1000
0010
0000
1000
,
0010
0000
0000
0010
0100
0000
0000
0100
0001
0000
0000
0001
1000
0000
0000
1000
,
0100
0001
1000
0010
0001
0100
0010
1000
,
0100
0010
0100
0010
0000
0000
0000
0000
0001
1000
0001
1000
0000
0000
0000
0000
,
0001
0010
0100
1000
0100
0000
0010
0000
0001
0100
0010
1000
0010
0000
0000
0000
,
1000
0100
1000
0100
0000
0000
0000
0000
0010
0001
0010
0001
0000
0000
0000
0000
,
1000
0010
0100
0001
0100
0000
0010
0000
1000
0100
0010
0001
0010
0000
0000
0000
,
0100
1000
0100
1000
0000
0000
0000
0000
0001
0100
0001
0100
0010
0000
0100
0000
,
0010
1000
0001
0100
0010
0000
0100
0000
0001
0010
0100
1000
0001
0000
0000
0000
,
1000
0100
0010
0100
0000
0000
0000
0000
1000
0010
0100
0010
0000
0000
0000
0000
,
1000
0100
0010
0001
0100
0000
0001
0000
0010
0100
1000
0010
0100
0001
0010
0100
,
1000
0000
0000
1000
0100
0000
0000
0000
0110
0000
0000
0010
0001
0000
0000
0000
,
0101
0000
0000
0100
0010
0000
0000
0000
1010
0000
0000
1000
0100
0000
0000
0000
,
0110
0000
0000
0010
0001
0000
0000
0000
0101
0000
0000
0100
0010
0000
0000
0000
,
1010
0000
0000
1000
0100
0000
0000
0000
0101
0000
0000
0001
1000
0000
0000
0000
,
2010
0000
0000
3010
0001
0000
0000
0000
0102
0000
0000
0103
1000
0000
0000
0000
,
2001
0000
0000
3001
0010
0000
0000
0000
0120
0000
0000
0130
0001
0000
0000
0000
,
0012
0000
0000
1003
0100
0000
0000
0000
0210
0000
0000
0301
1000
0000
0000
0000
,
1020
0000
0000
0031
0100
0000
0000
0000
0001
0010
0100
1000
0010
0000
0000
0000
,
1000
0000
0000
0000
0100
0000
0000
0000
0010
0000
0000
0000
0001
0010
0000
0000
0000
0000
0000
0000
0100
1000
0000
0000
0000
0000
0000
0000
0010
0100
0000
0000
,
0000
0001
1000
0000
0001
0100
0001
0000
,
0010
0001
0100
1000
0100
0001
0010
0100
,
2000
0000
0010
0000
0020
0030
3000
0000
,
0101
0001
0010
0100
1000
0010
0100
0000
,
1010
0010
0100
0001
0010
0100
1000
0000
,
1100
0100
0010
0001
0100
0010
1000
0000
,
0101
0100
1000
0100
0010
1000
0100
0000
,
0110
0010
0001
1000
0010
0100
0001
0000
,
1100
1000
0010
0100
0001
0010
0100
0000
,
0101
0001
0010
1000
0010
0001
0100
0010
,
1000
0000
0001
0000
1000
0000
0001
0000
0100
0010
0100
0010
0100
0010
0001
0000
,
0010
1000
0001
0010
0100
0000
0000
0100
1000
0000
0000
1000
0010
0000
0000
0010
,
0100
0001
0010
0100
1000
0000
0000
1000
0010
0000
0000
0010
0100
0000
0000
0100
,
0001
0010
0100
0010
0001
0000
0000
0001
0100
0000
0000
0100
0010
0000
0000
0010
,
1000
0100
0010
0100
1000
0000
0001
0000
1000
0010
0100
0010
1000
0000
0001
0000
,
1000
0100
1000
0100
0010
0000
0000
0000
0000
0001
0000
0001
0000
0001
0000
0001
,
0100
0010
0100
0010
1000
0000
0000
0000
0000
0100
0000
0100
0000
0100
0000
0100
,
0010
0001
0010
0001
1000
0000
0000
0000
0000
0010
0000
0010
0000
0010
0000
0010
,
0100
0001
0100
0001
1000
0000
0100
0000
0010
0001
1000
0001
0010
0001
1000
0000
,
1001
0011
0110
1100
,
1010
0000
0110
0000
0101
0000
1001
0001
,
0101
0000
0000
0000
0110
0000
0000
0000
1010
0000
0000
0000
1100
0000
0000
0100
,
0010
0001
0000
0001
0100
0010
0000
0010
1000
0001
0000
0001
0010
0000
0110
0000
,
1100
0000
1000
0100
0010
0000
0010
0001
0100
0000
0100
0010
1000
0000
1000
0001
,
0010
0000
0010
0100
1000
0000
1000
0010
0100
0000
0100
0001
1000
0000
0100
0000
,
0110
0000
0010
0001
1000
0000
1000
0010
0100
0000
0100
0001
1000
0000
1000
0100
,
0010
0000
0001
0100
0010
0000
0010
1000
0001
0000
0001
0010
0100
0000
0100
0000
,
2100
0000
0020
3000
,
0200
0030
2000
0300
,
0002
3000
0020
0003
,
2000
0000
0030
0000
3200
0010
0010
0010
,
0310
0001
0100
0001
0010
0001
0100
0001
,
0010
0100
1000
0100
0010
0100
1000
0100
,
0001
0100
1000
0100
0001
0100
1000
0100
,
0010
0000
0001
0000
1000
0000
0001
0000
0100
0010
0100
0010
1000
0001
1000
0001
,
0010
0000
0000
0000
0110
0000
0000
0000
0000
1000
0100
1000
0100
0010
0001
0010
,
0001
0000
0000
0000
1001
0000
0000
0000
0000
0001
0100
0001
0100
0010
1000
0010
,
1000
0000
0000
0000
1100
0000
0000
0000
0000
0100
0010
0100
0010
0001
1000
0001
,
1000
0000
0000
0000
1010
0000
0000
0000
0001
0100
0010
1000
0001
0100
0010
1000
,
0100
0000
0000
0000
0110
0000
0000
0000
0000
0010
0001
0010
0001
1000
0010
1000
,
0010
0000
0000
0000
0110
0000
0000
0000
0000
0100
0001
0100
0001
1000
0100
1000
,
0100
0010
0100
0000
0001
0000
0100
0010
0100
0000
1000
0000
0100
0010
0100
0000
,
0001
0100
0001
0100
0010
0100
0010
0100
1000
0100
1000
0100
0010
0001
0100
0010
,
2000
0000
0200
0000
0000
0000
0000
3000
,
0002
0300
0200
0000
0000
0000
0000
0003
,
2000
0300
0020
0000
0000
0000
0000
3000
,
0002
0030
0020
0000
0000
0000
0000
0003
,
0200
0030
2000
0000
0000
0000
0000
0300
,
0200
3000
0002
0000
0000
0000
0000
0300
,
0020
0003
2000
0000
0000
0000
0000
0030
,
0020
3000
0002
0000
0000
0000
0000
0000
,
0033
0000
0000
0000
;

//---------------dance-single - ----------------
#NOTES:
     dance-single:
     :
     Medium:
     11:
     0.525,0.613,0.239,0.513,0.000:
0000
0000
0000
0000
,
0000
0000
0000
0000
,
0000
0000
0000
0000
,
0000
0000
0000
0000
,
0000
0000
0000
0000
,
0000
0000
0000
0000
,
0000
0000
0000
0000
,
0000
0000
0000
0000
0000
0000
0000
1000
,
2000
0000
3200
0000
,
0320
0000
0032
0000
,
0203
0000
0320
0000
,
2030
0000
3002
0000
,
0023
0000
0000
0000
,
0230
0000
0000
0000
,
2300
0000
0000
0000
,
3002
0000
0000
0000
0203
0000
0000
0010
,
0320
0000
2030
3200
,
0320
0000
0032
0000
,
0103
0010
0100
0010
0100
0010
0100
0010
,
2000
0000
0001
0000
3001
1000
0001
1000
,
0000
0000
0000
0000
,
1100
0000
0101
0000
,
0011
0000
1010
0110
,
0101
0000
1001
0000
,
1100
0000
0110
0011
,
1001
0000
1010
0000
,
0110
0000
0101
0011
,
0110
0000
1100
0000
,
1001
0000
0001
0000
0100
0010
1000
0100
,
0010
0001
0100
0000
0010
1000
0100
0000
,
0010
0001
0100
1000
0100
0001
0010
0000
,
0100
1000
0010
0000
0100
0001
0010
0000
,
0100
1000
0010
0001
0010
1000
0100
0000
,
0010
0001
1000
0000
0100
1000
0001
0100
,
0010
1000
0010
0100
0001
0100
0010
0000
,
1000
0100
0010
0000
0001
0010
0100
1000
,
0001
0100
0010
0100
0001
0010
0100
1000
,
0001
0101
1000
1100
,
0001
0000
0011
0000
1000
0000
1010
0010
,
0100
0101
0010
1010
,
1000
0000
1100
0000
0001
0000
0011
0010
,
0100
1100
0010
0011
,
0001
0000
0101
0000
1000
0000
1010
0010
,
0100
0101
0010
1010
,
0001
0010
0100
1000
0010
0001
0010
0000
,
1000
0100
0010
0001
0000
0011
0000
1100
,
0000
1000
0010
0000
0100
0001
0100
0000
,
0010
1000
0100
0001
,
0010
0100
0010
0100
1000
0001
0100
0000
,
1000
0000
1000
0000
1000
0100
0010
0001
,
0100
0000
0100
0000
0010
1000
0100
0010
,
0001
0000
0001
0000
0001
0100
0010
0100
,
0001
0000
0001
0000
0010
0100
1000
0001
,
0100
0000
0100
0000
0100
0010
1000
0001
,
0010
0000
0010
0000
0100
1000
0001
1000
,
0100
0000
0100
0000
0100
0010
0001
0100
,
0010
1000
0010
0100
0001
0001
0001
0001
,
1000
0100
0010
0000
0001
0010
0100
1000
,
0010
0100
0001
0000
1000
0100
0010
0001
,
0100
0001
1000
0000
0100
0001
0100
1000
,
0010
0100
0001
0000
0100
1000
0100
0000
,
0001
0001
1000
0000
0100
0100
0010
0010
,
0001
0100
1000
0000
0100
0100
0010
0010
,
1000
0100
0001
0000
0100
0100
0010
0010
,
0001
1000
0100
0010
0001
0100
1000
0000
,
0200
0302
0023
0230
,
2300
0000
3002
0000
0203
0000
0320
1000
,
2030
3200
0302
0023
,
2030
0000
3200
0000
0320
0000
0032
1000
,
2003
3200
0302
2003
,
3020
0000
0032
0000
0203
0000
0320
1000
,
2030
3002
0203
0320
,
2030
0000
3200
0000
0301
0010
1000
0100
,
0020
0000
0032
0000
,
0203
0000
0320
0000
,
2030
0000
3200
0000
,
0302
0000
2003
0000
,
3010
0001
0100
0000
0010
1000
0100
0000
,
0001
0100
1000
0000
0001
0010
1000
0000
,
0010
0100
1000
0000
0010
0100
0001
0000
,
1000
0100
1000
0100
0010
0001
0100
0010
,
1000
0000
0001
0000
1000
0100
0010
0001
,
0100
0000
0010
0000
0100
0001
1000
0100
,
0010
0000
0001
0000
0100
0010
0100
0001
,
1000
0000
0100
0000
0010
0001
0100
1000
,
0010
0000
0001
0000
0100
0010
1000
0100
,
0001
0000
0100
0000
1000
0010
0001
0010
,
0100
0100
0001
0010
0010
0100
1000
1000
,
0001
0100
1000
0001
0010
1000
0100
0001
,
0020
2030
0000
0000
,
3200
0302
0000
0000
,
2003
3020
0000
0000
,
0032
0203
0000
0000
,
2300
3002
0000
0000
,
0023
2030
0000
0000
,
3200
0302
0000
0000
,
0023
2030
0000
0000
,
3000
0000
0000
0000
;

//---------------dance-single - ----------------
#NOTES:
     dance-single:
     :
     Easy:
     6:
     0.273,0.375,0.014,0.063,0.000: // measure 1
0000
0000
0000
0000
,  // measure 2
0000
0000
0000
0000
,  // measure 3
0000
0000
0000
0000
,  // measure 4
0000
0000
0000
0000
,  // measure 5
0000
0000
0000
0000
,  // measure 6
0000
0000
0000
0000
,  // measure 7
0000
0000
0000
0000
,  // measure 8
0000
0000
0000
0000
,  // measure 9
0001
0000
0100
0000
,  // measure 10
0010
0000
0100
0000
,  // measure 11
0001
0000
0010
0000
,  // measure 12
0100
0000
1000
0000
,  // measure 13
0001
0000
0000
0000
,  // measure 14
0100
0000
0000
0000
,  // measure 15
0010
0000
0000
0000
,  // measure 16
1000
0000
0100
0000
,  // measure 17
0010
0000
0001
0100
,  // measure 18
0010
0000
1000
0000
,  // measure 19
0100
0000
0010
0000
0100
0010
0100
0000
,  // measure 20
0020
0000
0030
0000
,  // measure 21
0001
1000
1001
1001
,  // measure 22
0001
0100
0010
0100
,  // measure 23
0001
0100
0010
0100
,  // measure 24
0001
0010
0100
0010
,  // measure 25
0001
0010
0100
1000
,  // measure 26
0010
0100
0010
1000
,  // measure 27
0010
0100
0010
1000
,  // measure 28
0100
0010
0001
0010
,  // measure 29
0100
1000
0001
0000
,  // measure 30
0001
1000
0000
0100
,  // measure 31
0010
0001
0100
0010
,  // measure 32
0000
0100
0000
0001
,  // measure 33
1000
0100
0010
0001
,  // measure 34
0000
0100
0000
0001
,  // measure 35
1000
0001
0010
0100
,  // measure 36
0000
1000
0000
0100
,  // measure 37
0010
0001
1000
0000
,  // measure 38
0001
0100
0001
0000
,  // measure 39
1000
0100
1000
0000
,  // measure 40
0001
0010
0001
0000
,  // measure 41
1000
0010
1000
0000
,  // measure 42
0001
0100
1000
0000
,  // measure 43
0001
0010
1000
0000
,  // measure 44
0100
0010
0001
0000
,  // measure 45
0100
0010
1000
0001
,  // measure 46
0010
0000
0000
0100
0000
0100
0000
0100
,  // measure 47
0000
1000
0000
0001
,  // measure 48
0100
0010
1000
0100
,  // measure 49
0010
0000
0010
0000
,  // measure 50
0010
0001
0100
0000
,  // measure 51
0010
1000
0100
0000
,  // measure 52
0100
1000
0010
0000
,  // measure 53
0100
0001
0010
0000
,  // measure 54
0100
1000
0001
0000
,  // measure 55
0100
0001
1000
0000
,  // measure 56
0010
1000
0001
0000
,  // measure 57
0010
0001
1000
0000
,  // measure 58
0100
0010
0000
0010
,  // measure 59
0001
0100
0000
0100
,  // measure 60
0010
1000
0000
1000
,  // measure 61
0001
0010
0100
1000
,  // measure 62
0001
0100
0000
0100
,  // measure 63
0001
1000
0000
1000
,  // measure 64
0100
0010
0000
0010
,  // measure 65
0001
0100
0010
0100
,  // measure 66
0010
0000
1000
0000
,  // measure 67
0100
0000
0001
0000
,  // measure 68
0010
0000
1000
0000
,  // measure 69
0100
0000
0001
0000
,  // measure 70
0010
1000
0100
0001
,  // measure 71
0010
1000
0100
0001
,  // measure 72
0010
0001
0100
1000
,  // measure 73
0010
0001
0100
1000
,  // measure 74
0010
0000
0100
0000
,  // measure 75
0001
0000
1000
0000
,  // measure 76
0100
0000
0010
0000
,  // measure 77
0001
0000
1000
0000
,  // measure 78
0001
0001
0100
0100
,  // measure 79
0001
0001
0100
0100
,  // measure 80
0001
0100
0001
0100
,  // measure 81
1000
0100
0001
1000
,  // measure 82
0100
0100
0000
0010
,  // measure 83
0001
0100
0000
0010
,  // measure 84
1000
0100
0000
0010
,  // measure 85
0001
0100
0001
0010
,  // measure 86
0100
1000
0000
1000
,  // measure 87
0001
0100
0000
0100
,  // measure 88
0010
1000
0001
0010
,  // measure 89
0100
0100
0010
0010
,  // measure 90
0001
0200
0000
0300
,  // measure 91
1000
0200
0000
0300
,  // measure 92
0001
0020
0000
0030
,  // measure 93
1000
0020
0000
0030
,  // measure 94
0100
0002
0000
0003
,  // measure 95
1000
0200
0000
0300
,  // measure 96
0010
0002
0000
0003
,  // measure 97
1000
0020
0000
0000
,  // measure 98
0030
0000
0000
0000
;

//---------------dance-double - ----------------
#NOTES:
     dance-double:
     :
     Hard:
     16:
     0.744,0.852,0.302,0.330,0.639:
00000000
00000000
00000000
00000000
,
00000000
00000000
00000000
00000000
,
00000000
00000000
00000000
00000000
,
00000000
00000000
00000000
00000000
,
00000000
00000000
00000000
00000000
,
00000000
00000000
00000000
00000000
,
00000000
00000000
00000000
00000000
,
00000000
00000000
00000000
00000000
00000000
00000000
00000000
00001000
,
02002000
03000000
00200000
00300000
,
00200000
00003000
02000000
00300000
,
20000000
03000000
00020000
30000000
,
00002000
00000000
00030000
00000000
00000002
00000000
00003000
00000003
,
00000202
00000000
00000000
00000003
,
00000020
00000000
00000000
00000300
,
00020000
00000000
00000000
00000030
,
00002000
00000000
00030000
00000000
02000000
00000000
00003000
03100000
,
02200000
03000000
20300000
32000000
,
00200000
03000000
00002000
00300000
,
00013000
00000000
00000100
00001000
00000100
00000000
00000100
00000010
00000100
00000000
00000100
00001000
00000100
00000000
00000100
00000010
,
00000200
00000000
00000010
00000000
00000010
00000010
00000010
00000310
,
00000001
00000000
00000100
00000000
00000010
00000000
00000100
00000000
00000001
00001000
00000000
00000100
00010000
00000100
00010000
00000000
,
00001000
00000000
00000000
00001000
01000000
00000000
00100000
01000000
00100000
00000000
00000000
01000000
00010000
00000000
10000000
00010000
,
10000000
00000000
00000000
01000000
00100000
00000000
01000000
00010000
01000000
00000000
00000000
00010000
00001000
00000000
00010000
00001000
,
00010000
00000000
00000000
00001000
00000100
00000000
00000010
00001000
00000010
00000000
00000000
00000100
00000001
00000000
00001000
00000100
,
00001000
00000000
00000000
00000001
00000010
00000000
00000100
00001000
00000100
00000000
00000010
00000001
00000010
00000000
00000100
00000000
,
00001000
00000001
00000000
00000001
00000100
00000010
00000000
00001000
00000100
00000000
00000000
00010000
00000100
00010000
00000000
00010000
,
00001000
00000000
00000000
00001000
01000000
00100000
00000000
00100000
10000000
00010000
00000000
00010000
01000000
00100000
00000000
00100000
,
10000000
00000000
00000000
01000000
00100000
00001000
00000000
00001000
00010000
00000000
00000000
00000100
00001000
00000001
00000000
00000001
,
00000100
00001000
00010000
00100000
10000000
00100000
00010000
00001000
,
00000100
00000001
00000100
00000001
00000000
00000000
00000000
00000000
00001000
00000100
00001000
00000100
00000000
00000000
00000000
00000000
,
00010000
00001000
00010000
00001000
00100000
00000000
00010000
00000000
01000000
00100000
01000000
00100000
10000000
00000000
00000000
00000000
,
01000000
00100000
01000000
00100000
00000000
00000000
00000000
00000000
00001000
00010000
00001000
00010000
00000000
00000000
00000000
00000000
,
00000100
00001000
00000010
00000100
00000001
00000000
00000100
00000000
00000010
00001000
00000100
00000010
00000001
00000000
00000000
00000000
,
00000100
00000010
00000100
00000010
00000000
00000000
00000000
00000000
00010000
00001000
00010000
00001000
00100000
00000000
00010000
00000000
,
01000000
00010000
01000000
00010000
00100000
00000000
01000000
00000000
10000000
00100000
10000000
00100000
01000000
00000000
00000000
00000000
,
00001000
00010000
00001000
00010000
00000000
00000000
00000000
00000000
00000100
00001000
00000100
00001000
00000000
00000000
00000000
00000000
,
00000010
00000100
00000010
00000100
00000001
00000000
00000010
00000000
00000100
00001000
00000001
00000100
00000010
00000100
00000010
00000000
,
00001010
00000000
00000000
00001000
00000100
00000000
00000000
00000000
00010100
00000000
00000000
00010000
00001000
00000000
00000000
00000000
,
01001000
00000000
00000000
01000000
00010000
00000000
00000000
00000000
00110000
00000000
00000000
00100000
01000000
00000000
10000000
00000000
,
10010000
00000000
00000000
00010000
01000000
00000000
00000000
00000000
01001000
00000000
00000000
00001000
00010000
00000000
00000000
00000000
,
00010100
00000000
00000000
00000100
00000010
00000000
00000000
00000000
00000011
00000000
00000000
00000001
00000100
00000000
00000010
00000000
,
00010010
00000000
00000000
00010000
00001000
00000000
00000000
00000000
01001000
00000000
00000000
01000000
00100000
00000000
00000000
00000000
,
10100000
00000000
00000000
10000000
00010000
00000000
00000000
00000000
00011000
00000000
00000000
00001000
00000001
00000000
00000100
00000000
,
00000110
00000000
00000000
00000010
00001000
00000000
00000000
00000000
00000101
00000000
00000000
00000001
00001000
00000000
00000000
00000000
,
00000100
00010000
00001000
00010000
00000100
00000000
00001000
00000000
01000000
00100000
00010000
01000000
00100000
00000000
00000000
00000000
,
10000000
00000000
00000000
00000000
01000000
00000000
00000000
00000000
00000000
00000000
00000000
00000000
00100000
00010000
00000000
00000000
00000000
00000000
00000000
00000000
00001000
00000100
00000000
00000000
00000000
00000000
00000000
00000000
00000010
00000001
00000000
00000000
,
00000000
00001000
00000100
00000000
00010000
00001000
01000000
00000000
,
00100000
10000000
01000000
00100000
00001000
01000000
00100000
00010000
,
00002000
00000000
00010000
00000000
00013000
00001000
00010000
00000000
,
00001000
00010000
00000100
00001000
00000010
00000100
00000001
00000010
,
00000100
00000010
00000001
00000100
00001000
00010000
00100000
01000000
,
00010000
10000000
01000000
00010000
00001000
00000100
00001000
00010000
,
00100000
00010000
00001000
00010000
01000000
10000000
00100000
01000000
,
00001000
00010000
00001000
00000100
00000010
00001000
00000100
00000010
,
00000001
00000100
00001000
00000100
00000001
00001000
00000100
00010000
,
00001000
00000010
00010000
00001000
00000100
00010000
01000000
10000000
,
00100000
00000000
01000000
00000000
00100000
00000000
01000000
00000000
00010000
10000000
00100000
10000000
00010000
10000000
00100000
10000000
,
01000000
00100000
00001000
00010000
00001000
00000000
00000000
00000000
00010000
00000000
00000100
00000000
00001000
00000000
00000010
00000000
,
00000100
00000001
00001000
00000100
00000010
00000000
00000000
00000000
00000001
00000000
00000100
00000000
00000010
00000000
00010000
00000000
,
00001000
01000000
00010000
00100000
01000000
00000000
00000000
00000000
10000000
00000000
00010000
00000000
01000000
00000000
00100000
00000000
,
10000000
01000000
00100000
01000000
10000000
00000000
00010000
00000000
01000000
00001000
00010000
00001000
00100000
00000000
00010000
00000000
,
00000010
00000001
00000010
00000000
00000001
00000000
00000000
00000000
00001000
00000100
00001000
00000100
00001000
00000001
00001000
00000001
,
00000100
00000010
00000100
00000000
00000001
00000000
00000000
00000000
00000100
00000010
00000100
00000010
00001000
00000010
00001000
00000010
,
00010000
00000100
00010000
00000000
00001000
00000000
00000000
00000000
00100000
01000000
00100000
01000000
10000000
01000000
10000000
01000000
,
00100000
00001000
00100000
00001000
00010000
00000000
00001000
00000000
01000000
00100000
10000000
00010000
01000000
00000000
00100000
00000000
,
10100000
11000000
01010000
00011000
,
00001010
00000011
00000101
00001010
,
00011000
01010000
01100000
00101000
,
00010100
00000000
00001010
00000000
00000101
00000000
00000011
00000011
,
00000101
00000000
00000000
00000001
00000100
00000000
00000100
00000010
00001000
00000000
00000000
00001000
00000100
00000000
00000100
00010000
,
00001000
00000000
00000000
00001000
01000000
00000000
01000000
00010000
00100000
00000000
00000000
00100000
01000000
00000000
01000000
10000000
,
00010000
00000000
00000000
00010000
01000000
00000000
01000000
00001000
00010000
00000000
00000000
00010000
00000100
00000000
00000100
00000010
,
00000001
00000000
00000000
00000001
00000100
00000000
00000100
00000010
00010000
00000000
00001000
00000000
00011000
00000000
00011000
00000000
,
00020000
00000000
02030000
00000000
,
23000000
00000000
30020000
00000000
,
00032000
00000000
00003002
00000000
,
00000203
00000000
00000000
00000000
00002300
00010000
00010000
00010000
,
00013000
00001000
00000010
00001000
00010000
01000000
10000000
01000000
,
00010000
00001000
00000100
00001000
00010000
00100000
10000000
00100000
,
00010000
00001000
00000010
00001000
00010000
00010000
01000000
01000000
,
10000000
00000000
00010000
00000000
10000000
00000000
00010000
00000000
10000000
01000000
10000000
01000000
00100000
00001000
00100000
00001000
,
00010000
00000000
00000000
00000000
00010010
00000000
00000000
00000000
00000010
00000100
00000010
00000100
00000001
00001000
00000001
00001000
,
00000100
00000000
00000000
00000000
00000110
00000000
00000000
00000000
00000010
00000001
00000010
00000001
00001000
00000100
00001000
00000100
,
00010000
00000000
00000000
00000000
00011000
00000000
00000000
00000000
00001000
01000000
00001000
01000000
00100000
10000000
00100000
10000000
,
00010000
00000000
00000000
00000000
00110000
00000000
00000000
00000000
00100000
01000000
10000000
00010000
00100000
01000000
10000000
00010000
,
01000000
00000000
00000000
00000000
01001000
00000000
00000000
00000000
00001000
00010000
00001000
00010000
00000100
00001000
00000100
00001000
,
00000010
00000000
00000000
00000000
00000110
00000000
00000000
00000000
00000100
00000001
00000100
00000001
00001000
00000100
00001000
00000100
,
00000010
00000100
00000010
00000000
00001000
00000000
00100000
01000000
00100000
00000000
00010000
00000000
00000010
00000100
00000010
00000000
,
00000001
00000100
00000001
00000100
00000010
00010000
00000010
00010000
00001000
01000000
00001000
01000000
00010000
00100000
01000000
10000000
,
00020000
02000000
00000000
00030000
,
23000000
00020000
00000000
30000000
,
00230000
00002000
00000000
00300000
,
00003020
00000200
00000000
00000030
,
00000302
00000020
00000000
00000003
,
00020030
02000000
00000000
00030000
,
23000000
00020000
00000000
30000000
,
00032000
00000002
00000000
00000000
,
00003003
00000000
00000000
00000000
;

//---------------dance-double - ----------------
#NOTES:
     dance-double:
     :
     Medium:
     12:
     0.525,0.613,0.450,0.302,0.000:
00000000
00000000
00000000
00000000
,
00000000
00000000
00000000
00000000
,
00000000
00000000
00000000
00000000
,
00000000
00000000
00000000
00000000
,
00000000
00000000
00000000
00000000
,
00000000
00000000
00000000
00000000
,
00000000
00000000
00000000
00000000
,
00000000
00000000
00000000
00000000
,
20000000
00000000
32000000
00000000
,
03200000
00000000
00320000
00000000
,
00032000
00000000
00003200
00000000
,
00000320
00000000
00000032
00000000
,
00000203
00000000
00000000
00000000
,
00000320
00000000
00000000
00000000
,
00020030
00000000
00000000
00000000
,
00032000
00000000
00000000
00000000
,
02003000
00000000
03020000
00230000
,
02300000
00000000
23000000
00000000
,
30010000
01000000
00010000
01000000
00010000
01000000
00010000
01000000
,
00002000
00000000
00010000
00000000
00013000
00001000
00010000
00001000
,
00000000
00000000
00000000
00000000
,
00000100
00000010
00001010
00000100
,
00000001
00000010
00000110
00010100
,
00011000
00001000
01001000
00010000
,
00100000
01000000
11000000
10010000
,
01010000
01000000
01001000
00001000
,
00010000
00000100
00001100
00001000
,
00001010
00000010
00000101
00000010
,
00001000
00000100
00000010
00000001
00001000
00000010
00000100
00000000
,
00000001
00000100
00001000
00000000
00010000
00100000
10000000
00000000
,
00010000
10000000
01000000
00010000
01000000
10000000
00010000
00000000
,
10000000
01000000
00010000
00000000
00001000
00000010
00000001
00000000
,
00001000
00000001
00000100
00001000
00000100
00000001
00001000
00000000
,
00000010
00010000
00001000
00000000
00010000
01000000
00100000
01000000
,
10000000
00010000
10000000
00000000
10000000
01000000
00010000
00000000
,
00001000
00010000
00001000
00000000
00010000
00000100
00000010
00000000
,
00000001
00000100
00000010
00001000
00000100
00010000
00001000
00001000
,
01000000
01010000
00010000
10010000
,
10000000
11000000
01000000
01100000
,
00100000
00101000
00001000
00011000
,
00010000
00010100
00000100
00000110
,
00000001
00000110
00001000
00001100
,
00010000
00011000
00001000
01001000
,
00100000
10100000
01000000
01010000
,
00010000
00100000
01000000
10000000
00010000
01000000
01000000
00000000
,
00100000
10000000
00000000
11000000
00000000
01100000
00000000
00101000
,
00000000
00001000
00010000
00001000
00000000
00010000
00000100
00010000
,
00000000
00000100
00000010
00000100
00000000
00001000
00000001
00001000
,
00000002
00000100
00000100
00000103
,
00000001
00000010
00000100
00000000
00000010
00000001
00000100
00000000
,
00000010
00010000
00001000
00000000
01000000
00010000
00100000
00000000
,
01000000
10000000
00010000
00000000
10000000
01000000
00100000
00000000
,
00001000
00010000
00000100
00000000
00001000
00000010
00000100
00000001
,
00000100
00000010
00001000
00000000
00000100
00010000
00001000
00000000
,
00100000
00010000
01000000
00000000
10000000
01000000
00100000
00000000
,
10000000
01000000
00010000
00000000
00001000
00010000
00001000
00000000
,
00010000
00000100
00000010
00000001
00000100
00000100
00000100
00000000
,
00000001
00000010
00000100
00000000
00000010
00000001
00000100
00000010
,
00010000
00001000
01000000
00000000
00100000
01000000
00010000
10000000
,
01000000
00100000
00001000
00000000
00010000
00000100
00001000
00000010
,
00000100
00000001
00000100
00000010
00001000
00001000
00001000
00000000
,
00000100
00010000
00001000
00000000
01000000
01000000
00010000
00010000
,
00100000
01000000
10000000
00000000
00010000
00010000
01000000
01000000
,
00001000
00010000
00000100
00000000
00000001
00000001
00000100
00000100
,
00001000
00010000
00100000
00000000
01000000
10000000
00010000
00000000
,
11000000
01100000
00101000
00011000
,
00010100
00001100
00001010
00000110
,
00000101
00000011
00000110
00010100
,
00011000
00000000
01001000
00000000
01100000
00000000
10000000
10000000
,
10010000
01010000
01001000
00011000
,
00110000
10100000
11000000
01010000
,
00011000
00001100
00000101
00000011
,
00000110
00000000
00010100
00000000
00010000
00001000
01000000
00100000
,
20000000
00000000
32000000
00000000
,
03200000
00000000
00320000
00000000
,
00032000
00000000
00003200
00000000
,
00000320
00000000
00000032
00000000
,
00001003
00000100
00010000
00000000
00001000
00010000
00000100
00000000
,
00010000
00001000
00100000
00000000
00010000
00100000
00001000
00000000
,
01000000
00010000
10000000
00000000
01000000
10000000
00010000
00000000
,
01000000
00100000
01000000
00100000
10000000
01000000
00010000
00000000
,
00001000
00000000
00011000
00000000
00010000
00000100
00000010
00000001
,
00000100
00000000
00000110
00000000
00000010
00010000
00001000
01000000
,
00100000
00000000
10100000
00000000
10000000
01000000
00010000
00001000
,
00000100
00000000
00000110
00000000
00000010
00001000
00000100
00000010
,
00000001
00000000
00000101
00000000
00000100
00000010
00010000
00001000
,
01000000
00000000
01010000
00000000
00010000
00100000
01000000
10000000
,
01000000
01000000
00010000
00001000
00001000
00010000
00100000
00100000
,
10000000
01000000
00010000
00001000
00000100
00000001
00000010
00000100
,
00002000
00003002
00000000
00000000
,
00000203
00002300
00000000
00000000
,
00023000
00230000
00000000
00000000
,
20300000
32000000
00000000
00000000
,
03020000
00032000
00000000
00000000
,
00003020
00000032
00000000
00000000
,
00000203
00002300
00000000
00000000
,
00203000
02300000
00000000
00000000
,
03000000
00000000
00000000
00000000
;

//---------------dance-double - ----------------
#NOTES:
     dance-double:
     :
     Easy:
     7:
     0.322,0.409,0.021,0.084,0.000:
00000000
00000000
00000000
00000000
,
00000000
00000000
00000000
00000000
,
00000000
00000000
00000000
00000000
,
00000000
00000000
00000000
00000000
,
00000000
00000000
00000000
00000000
,
00000000
00000000
00000000
00000000
,
00000000
00000000
00000000
00000000
,
00000000
00000000
00000000
00000000
,
00000001
00000000
00000100
00000000
,
00000010
00000000
00010000
00000000
,
00001000
00000000
01000000
00000000
,
00100000
00000000
10000000
00000000
,
00020000
00000000
00030000
00000000
,
20000000
00000000
30000000
00000000
,
02000000
00000000
03000000
00000000
,
00200000
00000000
00300000
00000000
,
00001000
00000000
00010000
00000100
,
00001000
00000000
00000010
00000000
,
00000100
00000100
00000001
00000001
,
00000100
00000001
00000100
00000001
,
00000000
00000000
00000000
00000000
,
00001000
00000100
00010000
00001000
,
01000000
00000000
00010000
00000000
00100000
00000000
01000000
10000000
,
01000000
00100000
00001000
00010000
,
00000100
00001000
00000010
00000110
,
00000100
00000001
00001000
00000100
,
00010000
00000000
00001000
00000000
01000000
00000000
00010000
00100000
,
00010000
01000000
00100000
10000000
,
01000000
00000000
00100000
00000000
00010000
10000000
00010000
00000000
,
10000000
10000000
00000000
00000000
01000000
01000000
00000000
00000000
,
00100000
00100000
00000000
00000000
00001000
00001000
00000000
00000000
,
00010000
00010000
00000000
00000000
00000100
00000100
00000000
00000000
,
00000010
00000010
00000000
00000000
00000001
00000001
00000000
00000000
,
00001000
00001000
00000000
00000000
00000001
00000001
00000000
00000000
,
00000100
00000010
00000100
00000000
00000010
00000010
00000000
00000000
,
00010000
00010000
00000000
00000000
00001000
00001000
00000000
00000000
,
01000000
00100000
01000000
00000000
00010000
00000000
10010000
00000000
,
10000000
10000000
01000000
01000000
,
00010000
00010000
00001000
00001000
,
00000010
00000010
00000001
00000001
,
00000100
00000100
00001000
00001000
,
00010000
00010000
00100000
00100000
,
10000000
10000000
01000000
01000000
,
00010000
00010000
00001000
00001000
,
00000010
00000001
00001000
00000001
,
00000100
00000000
00000000
00000010
00000000
00001000
00000000
00001001
,
00000000
00000001
00000000
00000001
,
00000000
00000100
00000000
00001000
,
00010000
00100000
10000000
00010000
,
10000000
10000000
00010000
00000000
,
01000000
01000000
00001000
00000000
,
00010000
00010000
00000010
00000000
,
00001000
00001000
00000001
00000000
,
00000100
00000100
00000010
00000000
,
00001000
00001000
00000100
00000000
,
00000010
00000001
00001000
00000000
,
00000010
00010000
00001000
00000000
,
01000000
00010000
00100000
01000000
,
10000000
00010000
00000000
00010000
,
01000000
00100000
10000000
01000000
,
00010000
00001000
00000000
00001000
,
00010000
00000100
00001000
00000010
,
00000100
00000001
00000000
00000001
,
00000100
00000010
00001000
00000100
,
00000010
00000001
00000000
00000001
,
00000100
00000100
00000010
00000010
,
00000100
00000100
00000010
00000010
,
00010000
00010000
00001000
00001000
,
00010000
00001000
00010000
00001000
,
01000000
00100000
01000000
00100000
,
10000000
01000000
10000000
01000000
,
00100000
00001000
00010000
00001000
,
00100000
00001000
00010000
00000100
,
00010000
00000000
00001000
00000000
,
00000100
00000000
00000010
00000000
,
00001000
00000000
00000001
00000000
,
00000010
00000000
00000100
00000000
,
00001000
00000100
00000010
00000000
00000100
00000000
00001000
00000000
,
00000010
00000100
00001000
00000000
00000100
00000000
00000010
00000000
,
00001000
00000100
00000010
00000000
00000100
00000000
00001000
00000000
,
00000010
00000100
00001000
00000000
00000100
00000000
00000010
00000000
,
00010000
00000000
00001000
00000000
01000000
00010000
01000000
00000000
,
00010000
00000000
10000000
00000000
01000000
10000000
01000000
00000000
,
10000000
00000000
00100000
00000000
01000000
00100000
01000000
00000000
,
00100000
00000000
01000000
00000000
00001000
00010000
00001000
00000000
,
00010000
00000000
00000100
00000000
00001000
00000100
00001000
00000000
,
00000100
00000000
00000010
00000000
00000001
00000010
00000001
00000000
,
00000010
00000010
00000000
00000100
00000100
00000000
00001000
00001000
,
00000001
00000100
00001000
00010000
,
00100000
20000000
30000000
00000000
,
01000000
00200000
00300000
00000000
,
00010000
00002000
00003000
00000000
,
00000100
00000020
00000030
00000000
,
00000001
00000200
00000300
00000000
,
00000010
00020000
00030000
00000000
,
00001000
02000000
03000000
00000000
,
00100000
20000000
00000000
00000000
,
30000000
00000000
00000000
00000000
;

//---------------dance-single - ----------------
#NOTES:
     dance-single:
     :
     Beginner:
     3:
     0.156,0.203,0.007,0.042,0.000: // measure 1
0000
0000
0000
0000
,  // measure 2
0000
0000
0000
0000
,  // measure 3
0000
0000
0000
0000
,  // measure 4
0000
0000
0000
0000
,  // measure 5
0000
0000
0000
0000
,  // measure 6
0000
0000
0000
0000
,  // measure 7
0000
0000
0000
0000
,  // measure 8
0000
0000
0000
0000
,  // measure 9
1000
0000
1000
0000
,  // measure 10
1000
0000
0000
0000
,  // measure 11
0001
0000
0001
0000
,  // measure 12
0001
0000
0000
0000
,  // measure 13
0100
0000
0000
0000
,  // measure 14
0010
0000
0000
0000
,  // measure 15
0100
0000
0000
0000
,  // measure 16
0010
0000
0000
0000
,  // measure 17
1000
0000
1000
0000
,  // measure 18
1000
0000
0000
0000
,  // measure 19
0001
0000
0001
0000
,  // measure 20
0001
0000
0000
0000
,  // measure 21
0200
0000
0300
0000
,  // measure 22
0010
0010
0010
0000
,  // measure 23
0010
0000
0010
0000
,  // measure 24
0100
0100
0100
0000
,  // measure 25
0100
0000
0100
0000
,  // measure 26
0001
0001
0001
0000
,  // measure 27
0001
0000
0001
0000
,  // measure 28
1000
1000
1000
0000
,  // measure 29
1000
0000
1000
0000
,  // measure 30
0001
0000
0001
0000
,  // measure 31
0001
0000
0000
0000
,  // measure 32
1000
0000
1000
0000
,  // measure 33
1000
0000
0000
0000
,  // measure 34
0010
0000
0010
0000
,  // measure 35
0010
0000
0000
0000
,  // measure 36
0100
0000
0100
0000
,  // measure 37
0100
0000
0000
0000
,  // measure 38
0001
0000
0001
0000
,  // measure 39
1000
0000
0000
0000
,  // measure 40
1000
0000
1000
0000
,  // measure 41
0010
0000
0000
0000
,  // measure 42
0010
0000
0010
0000
,  // measure 43
0100
0000
0000
0000
,  // measure 44
0100
0000
0100
0000
,  // measure 45
0001
0000
0000
0000
,  // measure 46
1001
0000
0000
0000
,  // measure 47
0000
0100
0000
0100
,  // measure 48
0000
0010
0000
0010
,  // measure 49
0020
0000
0030
0000
,  // measure 50
1000
0000
1000
0000
,  // measure 51
1000
0000
0000
0000
,  // measure 52
0001
0000
0001
0000
,  // measure 53
0001
0000
0000
0000
,  // measure 54
0010
0000
0010
0000
,  // measure 55
0010
0000
0000
0000
,  // measure 56
1000
0000
1000
0000
,  // measure 57
1000
0000
0000
0000
,  // measure 58
0001
0000
0000
0001
,  // measure 59
0001
0000
0000
1000
,  // measure 60
1000
0000
0000
0001
,  // measure 61
0001
0000
0000
0100
,  // measure 62
0100
0000
0000
0010
,  // measure 63
0010
0000
0000
0100
,  // measure 64
0100
0000
0000
0001
,  // measure 65
0001
0000
0000
0000
,  // measure 66
1000
0000
1000
0000
,  // measure 67
0100
0000
0000
0000
,  // measure 68
0010
0000
0010
0000
,  // measure 69
0001
0000
0000
0000
,  // measure 70
0001
0000
0001
0000
,  // measure 71
0100
0000
0000
0000
,  // measure 72
0010
0000
0010
0000
,  // measure 73
1000
0000
0000
0000
,  // measure 74
2000
0000
3000
0000
,  // measure 75
0200
0000
0300
0000
,  // measure 76
0002
0000
0003
0000
,  // measure 77
0020
0000
0030
0000
,  // measure 78
1000
0000
1000
0000
,  // measure 79
0001
0000
0001
0000
,  // measure 80
1000
0000
1000
0000
,  // measure 81
0001
0000
0001
0000
,  // measure 82
0100
0000
0000
0010
,  // measure 83
0010
0000
0000
1000
,  // measure 84
1000
0000
0000
0001
,  // measure 85
0001
0000
0000
0000
,  // measure 86
0010
0000
0000
0100
,  // measure 87
0100
0000
0000
0000
,  // measure 88
1000
0000
1000
0000
,  // measure 89
0001
0000
0001
0000
,  // measure 90
0100
0100
0000
0000
,  // measure 91
0100
0100
0000
0000
,  // measure 92
0100
0100
0000
0000
,  // measure 93
0100
0100
0000
0000
,  // measure 94
0010
0010
0000
0000
,  // measure 95
0010
0010
0000
0000
,  // measure 96
0010
0010
0000
0000
,  // measure 97
0010
0010
0000
0000
;
