#TITLE:neu;
#SUBTITLE:;
#ARTIST:少年ラジオ;
#TITLETRANSLIT:;
#SUBTITLETRANSLIT:;
#ARTISTTRANSLIT:Shounen Radio;
#GENRE:;
#CREDIT:Silverhawke;
#MENUCOLOR:;
#METERTYPE:DDR;
#BANNER:neu.png;
#BACKGROUND:neu-bg.png;
#LYRICSPATH:;
#CDTITLE:cdtitle.png;
#MUSIC:neu.mp3;
#OFFSET:-0.028;
#SAMPLESTART:120.619;
#SAMPLELENGTH:15.000;
#SELECTABLE:YES;
#LISTSORT:;
#DISPLAYBPM:199.000;
#BPMS:0.000=199.000,144.000=99.500,192.000=199.000;
#STOPS:;
#BGCHANGES:;
#ATTACKS:;

//---------------dance-single - ----------------
#NOTES:
     dance-single:
     :
     Hard:
     15:
     0.699,0.765,0.354,0.087,0.020:
0000
0000
0000
0000
,
0000
0000
0000
0000
,
0000
0000
0000
0000
,
0000
0000
0000
0000
,
1100
0000
1000
0000
,
1000
0000
1000
0000
,
0001
0000
0001
0000
,
0001
0000
0000
0000
0001
0000
1000
0001
,
0101
0000
0001
0000
,
0001
0000
0001
0000
,
1000
0000
0000
0000
1000
0000
0001
0001
,
0000
1000
1000
0001
0010
0100
1000
0001
,
1001
0100
0100
0100
,
0001
0010
0010
0010
,
0100
1000
1000
1000
,
0010
0000
0100
0000
0100
0000
0100
0001
,
1000
0100
1000
0100
0010
0001
0010
0001
,
1000
0010
1000
0010
0100
0001
0100
0001
,
1000
0100
0001
0100
1000
0100
0010
0001
,
1000
0020
0000
0000
0130
0001
1000
0100
,
0010
0001
0010
0010
0100
1000
0010
0010
,
0100
0001
1000
1000
0100
0001
0100
0100
,
1000
0010
0100
0100
0001
0010
0100
0100
,
1000
0100
0001
0001
0100
1000
0001
0001
,
1000
0010
0100
0010
1000
0100
0010
0100
,
1000
0010
0001
0010
1000
0100
0010
0100
,
1000
0001
0100
0010
1000
0100
0010
0001
,
1000
0100
0010
0100
1000
0010
0100
0001
,
1001
0000
1000
0100
0010
0100
1000
0000
,
0010
0100
0001
0100
0010
0000
0110
0000
,
1001
0000
0001
0100
0010
0100
0001
0000
,
0010
0100
1000
0100
0010
0000
0001
0000
,
1002
0000
0000
0100
0103
0000
0010
0000
,
2100
0000
0001
0000
3010
0000
0100
0001
,
0020
1000
0230
0001
,
1300
0000
0001
0000
2002
0000
0000
3003
,
0001
0000
0100
0000
0000
0010
0100
0000
0001
0000
0001
0000
0010
0000
0001
0000
,
0100
1000
0100
0001
0010
0000
0100
0010
,
0001
0001
1000
0010
0100
0001
0100
0010
,
1000
0000
0100
0010
0100
0100
1000
0001
,
0100
0000
0010
0000
0100
0000
0000
0001
1000
0000
0000
0000
0100
0000
0100
0000
,
0010
0010
0001
1000
1000
0010
0100
0100
,
0001
0000
0010
0001
1000
1000
0001
0010
,
1000
0001
1000
0010
0001
1000
1000
0100
,
0010
0010
0001
0100
0100
0010
1000
1000
,
0001
0000
1000
1000
0100
0100
0010
0001
,
0001
1000
0010
0010
0100
0000
0001
1000
,
0100
0000
0100
0000
0010
0000
0001
1000
0001
0000
1000
0001
0010
0100
1000
0001
,
0010
0100
0100
1000
0010
0010
0100
0001
,
0001
1000
0100
0100
0010
0100
1000
0100
,
0010
0001
0001
0100
0010
0010
1000
0100
,
0100
0010
0100
0100
1000
0010
0100
0010
,
1000
0001
0001
0010
0100
0100
0010
0001
,
0001
0100
0010
0010
1000
0100
0010
0100
,
1000
0001
0001
0100
0010
0010
1000
0100
,
0100
0010
0001
0001
0100
1000
0100
0010
,
1010
1000
1000
0011
0001
0001
1100
1000
,
1000
0101
0001
0001
1000
0100
0001
0100
,
1100
0100
0100
0011
0010
0010
0101
0100
,
0100
1010
0010
0010
1000
0100
0001
0100
,
0011
0001
0001
1100
1000
1000
0101
0001
,
0001
1010
1000
1000
0001
0010
1000
0010
,
0110
0100
0100
1001
1000
1000
0110
0010
,
0010
1001
0001
0001
1000
0100
0001
0100
,
0010
0000
0011
0000
0001
0100
0010
0000
,
1000
0000
1100
0000
0100
0010
0001
1000
,
0010
0000
0110
0000
0100
0001
1000
0000
,
0100
0000
0110
0000
0010
0001
1000
0001
,
0011
0000
0010
0000
0100
1000
0001
0000
,
0100
0000
0110
0000
0010
1000
0100
0010
,
0001
0100
0001
0100
1000
0100
1000
0100
,
0010
1000
0100
0001
0100
0010
0001
0100
,
0010
0010
1000
1000
0001
0010
0100
1000
,
0001
0001
0100
0100
0010
0100
0001
1000
,
0100
0100
0010
0010
0100
1000
0001
0100
,
0010
0010
0100
0100
0001
0010
0100
1000
,
0001
0100
0001
0010
0001
0100
0010
1000
,
0100
0010
0100
1000
0100
0010
0001
0100
,
0010
1000
0100
0001
0100
1000
0010
0100
,
0001
0010
1000
0010
0001
0001
1000
1000
,
1100
0000
0100
0100
0010
0001
0100
0010
,
0110
0000
1000
1000
0100
0010
0001
0100
,
0101
0000
0010
0010
1000
0100
0010
0001
,
0011
0000
0100
0100
1000
0010
0100
0001
,
1001
0000
1000
1000
0100
0010
0001
0100
,
0110
0000
0010
0010
1000
0001
0010
0100
,
1100
0000
0010
0001
0100
0010
1000
0100
,
0001
0100
1000
0100
0010
0001
0100
0010
,
1000
0100
0010
0001
1000
0100
0010
0001
,
1000
1000
0010
0010
0100
0100
0001
0001
,
1000
0100
0010
0001
0010
0100
1000
0001
,
0100
0100
0010
0010
1000
1000
0001
0001
,
0201
0000
0000
0010
0310
0000
1000
0000
,
1100
0000
0101
0000
1001
0000
1000
0200
,
0001
0001
1000
1300
,
1010
0011
2002
3003
,
0001
0100
0010
1000
0001
0100
0010
1000
,
0001
0001
0010
0010
0100
0100
1000
1000
,
0001
0100
0010
1000
0010
0100
0001
1000
,
0100
0100
0010
0010
0001
0001
1000
1000
,
1200
0000
0000
0010
0310
0000
0001
0000
,
0101
0000
1100
0000
1001
0000
0001
0200
,
1000
1000
0001
0301
,
0011
1010
1001
0100
,
0110
0000
0000
0000
;

//---------------dance-single - ----------------
#NOTES:
     dance-single:
     :
     Medium:
     12:
     0.561,0.591,0.214,0.187,0.000:
0000
0000
0000
0000
,
0000
0000
0000
0000
,
0000
0000
0000
0000
,
0000
0000
0000
0000
,
0001
0000
0100
0000
,
0010
0000
0100
0000
,
0001
0000
0010
0000
,
0100
0000
0000
0000
0010
0000
0001
1000
,
0001
0000
0100
0000
,
1000
0000
0100
0000
,
0001
0000
0100
0000
,
1000
0000
0100
0000
0010
0000
1000
0100
,
1000
0100
0010
0001
,
1000
0100
0010
0001
,
1000
0010
0100
0001
,
1000
0010
0100
0001
,
1000
0100
1000
0000
0001
0100
0001
0000
,
1000
0010
1000
0000
0001
0010
0001
0000
,
1000
0100
0010
0001
0010
0100
1000
0001
,
0010
0200
0000
0000
1300
0000
1001
0000
,
0001
0010
0100
0000
0100
0010
0001
0000
,
1000
0010
0100
0000
0001
1000
0100
0000
,
0010
0100
1000
0000
0001
0100
0010
0000
,
0100
0001
1000
0000
0100
0010
0100
1000
,
0001
0100
0110
0010
,
1000
0001
0011
0010
,
0100
1000
0001
0000
0100
0010
1000
0000
,
0100
0010
0100
1000
0001
0100
0010
0000
,
1000
0100
1000
0000
0001
0100
0001
0000
,
1000
0100
0010
0001
0010
0100
1000
0000
,
0001
0010
0001
0000
1000
0010
1000
0000
,
0001
0100
0010
1000
0010
0100
0001
0000
,
1000
0100
0110
0010
,
0001
0000
0100
0000
0110
0000
0010
1000
,
0100
0000
0010
0000
0100
1000
0010
0000
,
1000
0100
0010
0000
0001
0000
1000
0000
,
0010
0100
0000
0001
0010
0000
0100
1000
,
0100
0010
0001
1000
0100
0000
0010
0100
,
0000
1000
0100
0010
0001
0100
0010
1000
,
0001
0000
1000
0100
0000
1000
0010
0100
,
0001
1000
0100
0010
0001
0000
0010
0100
,
0000
1000
0010
0000
0100
0001
0000
1000
,
0100
0000
0010
0100
0000
1000
0010
0100
,
0001
1000
0100
0010
0001
0000
0010
0100
,
0000
1000
0100
0000
1000
0001
0000
0100
,
0010
0000
0100
0001
0000
1000
0100
0000
,
0010
0100
0000
1000
0001
0000
0100
0010
,
0000
1000
0100
0000
0010
0001
0100
0010
,
1000
0000
1000
0100
0000
0100
0010
0000
,
0010
0001
0000
0001
0100
0010
1000
0000
,
0001
0000
0001
0010
0000
0010
0100
0000
,
0100
1000
0000
1000
0010
0100
0001
0000
,
1000
0000
1000
0100
0000
0100
0010
0000
,
0010
0001
0000
0001
0100
0010
1000
0000
,
0001
0000
0001
0010
0000
0010
0100
0000
,
0100
1000
0000
1000
0001
0100
0010
0000
,
1000
0000
1000
0100
0000
0100
0010
0000
,
0010
0001
0000
0001
0010
0100
1000
0000
,
0001
0000
0001
0100
0000
0100
0010
0000
,
0010
1000
0000
1000
0010
0100
0001
0000
,
1000
0000
1000
0100
0000
0100
0001
0000
,
0001
0100
0000
0100
1000
0001
0100
0000
,
0001
0000
0001
0100
0000
0100
1000
0000
,
1000
0100
0000
0100
0001
1000
0100
0000
,
0020
0001
0130
2000
,
3002
0100
0013
0110
,
2000
0100
3001
0200
,
0320
1000
0130
1001
,
2000
0100
3001
0020
,
0230
1000
0310
0110
,
0001
1000
0001
1000
0001
1000
0001
1000
,
0001
0010
0100
1000
0010
0100
0010
1000
,
0100
0000
0010
0001
0100
0010
1000
0100
,
0010
0000
0100
1000
0001
0100
0010
1000
,
0001
0000
0010
0100
1000
0001
0100
0001
,
0010
0000
0100
1000
0100
0001
0100
1000
,
0010
0000
0100
0001
0100
1000
0100
0001
,
0010
0000
0100
1000
0100
0001
0100
1000
,
0010
0000
0100
0001
0010
0000
0100
1000
,
0010
0000
0100
0001
0010
1000
0010
0001
,
0100
0000
0010
1000
0100
0001
0100
1000
,
0010
0000
0100
0001
0010
1000
0010
0001
,
0100
0000
0010
1000
0001
0010
0100
1000
,
0001
0000
0100
0010
1000
0100
0001
0100
,
1000
0000
0010
0100
1000
0000
0100
0001
,
0010
0000
0100
1000
0001
0000
0010
0100
,
0001
0000
0100
1000
0010
0000
0100
0001
,
1000
0000
0100
0001
0100
1000
0010
0100
,
0001
2000
3200
0310
,
0011
0110
1100
1001
,
0001
0200
0320
1030
,
1010
0110
0101
1001
,
2000
0000
3000
0001
0100
0000
0010
0000
,
0200
0000
0302
0000
2003
0000
3100
0001
,
0100
1000
0010
0100
,
0101
0110
2020
3030
,
1000
0002
0203
0310
,
1010
0110
0101
1001
,
1000
0200
0320
0031
,
0011
0110
1100
1001
,
0002
0000
0003
1000
0100
0000
0010
0000
,
0200
0000
2300
0000
3002
0000
0103
1000
,
0100
0001
0010
0100
,
1100
0110
0011
1001
,
0110
0000
0000
0000
;

//---------------dance-single - ----------------
#NOTES:
     dance-single:
     :
     Easy:
     10:
     0.370,0.417,0.047,0.033,0.000:
0000
0000
0000
0000
,
0000
0000
0000
0000
,
0000
0000
0000
0000
,
0000
0000
0000
0000
,
1000
0000
1000
0000
,
0001
0000
0001
0000
,
1000
0000
1000
0000
,
0001
0000
0001
1000
,
0001
0000
0001
0000
,
1000
0000
1000
0000
,
0001
0000
0001
0000
,
1000
0000
1000
0100
,
0010
0000
0010
0000
,
0100
0000
0100
0000
,
0010
0000
0010
0000
,
0100
0000
0100
0000
,
0010
0001
0100
0000
,
0010
1000
0100
0000
,
0010
0001
0100
0010
,
1000
0100
0000
0010
,
0001
1000
0001
1000
,
0010
0100
0010
0100
,
0001
1000
0001
1000
,
0100
0010
0100
0010
,
0001
0100
0010
0100
,
0001
0010
0100
0010
,
0001
1000
0100
0010
,
0001
1000
0010
0100
,
0001
0010
0100
1000
,
0100
0010
0001
0001
,
1000
0100
0010
0001
,
0010
0100
1000
1000
,
0001
0100
0010
1000
,
0010
0100
0001
0001
,
1000
0010
0100
0001
,
0100
0010
1000
1000
,
0001
1000
1000
0000
0001
0001
0000
1000
,
1000
0000
0001
0001
0000
0100
0100
0000
,
0010
0010
0000
0100
0100
0000
0010
0010
,
0000
1000
1000
0000
0100
0100
0000
0010
,
0010
0000
0001
0001
0000
1000
1000
0000
,
0010
0010
0000
0100
0100
0000
0001
0001
,
0000
1000
1000
0000
0001
0001
0000
0010
,
0010
0000
0100
0100
0000
1000
1000
0000
,
0010
0010
0000
0100
0100
0000
0001
0001
,
0000
1000
0100
0000
0100
0010
0000
0010
,
0001
0000
0001
0100
0000
0001
0010
0000
,
0010
0100
0000
0100
1000
0000
1000
0001
,
0100
0000
0000
0100
0000
0000
0100
0000
,
0000
0100
0000
0000
0010
0000
1000
0000
,
0001
0000
0000
0001
0000
0000
0001
0000
,
0000
0001
0000
0000
0010
0000
0100
0000
,
1000
0000
0000
1000
0000
0000
1000
0000
,
0000
1000
0000
0000
0010
0000
0100
0000
,
0001
0000
0000
0001
0000
0000
0001
0000
,
0000
0001
0000
0000
0010
0000
0100
0000
,
1000
0000
0000
0001
0000
0000
0100
0000
,
0000
0010
0000
0000
1000
0000
1001
0000
,
0001
0000
0000
0010
0000
0000
0100
0000
,
0000
1000
0000
0000
0010
0000
0110
0000
,
0100
0000
0000
0001
0000
0000
1000
0000
,
0000
0100
0000
0000
0010
0000
0110
0000
,
0100
0000
0000
1000
0000
0000
0001
0000
,
0000
0100
0000
0000
0001
0000
1001
0000
,
1000
0100
0010
0001
,
2000
0100
3100
0010
,
0001
0010
0100
1000
,
0002
0100
0103
0010
,
1000
0010
0100
0001
,
2000
0100
3100
0010
,
0001
0010
0100
1000
,
0002
0100
0103
0010
,
1000
0100
1000
0100
,
0010
0001
0010
0001
,
1000
0010
1000
0010
,
0100
0001
0100
0001
,
1000
0100
0010
0001
,
0010
0100
1000
0001
,
0100
0010
1000
0001
,
0100
0010
0100
0001
,
1000
1000
0100
0010
,
0001
0001
0100
0010
,
1000
1000
0010
0100
,
0001
0001
0010
0100
,
1000
0100
0010
0010
,
0001
0100
0010
0010
,
1000
0100
0010
0100
,
1000
0001
0100
0100
,
0010
1000
0100
0010
,
0001
0010
0100
1000
,
0010
0100
0001
0010
,
0100
1000
0100
0010
,
0001
0000
0000
0001
1000
0000
0001
0000
,
0100
0010
0110
0100
,
0001
0100
1000
0100
,
0001
0010
0200
0300
,
0010
0001
0100
0010
,
1000
0010
0100
0001
,
0010
0100
1000
0010
,
0100
0001
0100
0010
,
1000
0000
0000
1000
0001
0000
1000
0000
,
0100
0010
0110
0100
,
0001
0100
1000
0100
,
0010
0001
0100
0010
,
1001
0000
0000
0000
;

//---------------dance-single - ----------------
#NOTES:
     dance-single:
     :
     Beginner:
     6:
     0.222,0.348,0.007,0.007,0.000:
0000
0000
0000
0000
,
0000
0000
0000
0000
,
0000
0000
0000
0000
,
0000
0000
0000
0000
,
1000
0000
0000
0000
,
0000
0000
0000
0000
,
0001
0000
0000
0000
,
0000
0000
0000
0000
,
0100
0000
0000
0000
,
0100
0000
0000
0000
,
0010
0000
0000
0000
,
0010
0000
0000
0000
,
1000
0000
0000
0000
,
0100
0000
0000
0000
,
0010
0000
0000
0000
,
0001
0000
0000
0000
,
1000
0000
1000
0000
,
0001
0000
0001
0000
,
0100
0100
0100
0100
,
0200
0000
0300
0000
,
0010
0000
0010
0000
,
1000
0000
1000
0000
,
0100
0000
0100
0000
,
0001
0000
0001
0000
,
0010
0000
0010
0000
,
0001
0000
0001
0000
,
0100
0000
0100
0000
,
1000
0000
1000
0000
,
0010
0010
0010
0000
,
0100
0010
0100
0000
,
0001
0001
0001
0000
,
1000
0001
1000
0000
,
0100
0000
0100
0000
,
0010
0000
0010
0000
,
0100
0000
0100
0000
,
1000
0001
1000
0000
,
1000
0000
0000
0001
0000
0000
1000
0000
,
0000
0100
0000
0000
0010
0000
0000
0100
,
0000
0000
1000
0000
0000
0001
0000
0000
,
0010
0000
0000
0100
0000
0000
0010
0000
,
0000
0001
0000
0000
1000
0000
0000
0010
,
0000
0000
0100
0000
0000
0010
0000
0000
,
1000
0000
0000
0001
0000
0000
0100
0000
,
0000
0010
0000
0000
0100
0000
0000
0001
,
0000
0000
1000
0000
0000
0100
0000
0000
,
0010
0000
0000
0001
0000
0000
1000
0000
,
0000
0010
0000
0000
0100
0000
0000
0001
,
0000
0000
0010
0000
0000
0100
0000
0000
,
1000
0000
0000
1000
0000
0000
1000
0000
,
0000
1000
0000
0000
1000
0000
0000
0000
,
0001
0000
0000
0001
0000
0000
0001
0000
,
0000
0001
0000
0000
0001
0000
0000
0000
,
0100
0000
0000
0100
0000
0000
0100
0000
,
0000
0100
0000
0000
0100
0000
0000
0000
,
0010
0000
0000
0010
0000
0000
0010
0000
,
0000
0010
0000
0000
0010
0000
0000
0000
,
1000
0000
0000
0100
0000
0000
0010
0000
,
0000
0100
0000
0000
1000
0000
0000
0000
,
0001
0000
0000
0010
0000
0000
0100
0000
,
0000
0010
0000
0000
0001
0000
0000
0000
,
1000
0000
0000
0010
0000
0000
0100
0000
,
0000
0010
0000
0000
1000
0000
0000
0000
,
0001
0000
0000
0100
0000
0000
0010
0000
,
0000
0100
0000
0000
0001
0000
0000
0000
,
1000
1000
1000
0000
,
0100
0000
0001
0000
,
0001
0001
0001
0000
,
0100
0000
1000
0000
,
0001
0001
0001
0000
,
0100
0000
1000
0000
,
1000
1000
1000
0000
,
0010
0000
0001
0000
,
0001
0010
0001
0000
,
0001
0010
0001
0000
,
1000
0010
1000
0000
,
1000
0010
1000
0000
,
0001
0000
0001
0000
,
0100
0000
1000
0000
,
1000
0000
1000
0000
,
0010
0000
0001
0000
,
1000
0000
0100
0000
,
0010
0000
0001
0000
,
0010
0000
0100
0000
,
1000
0000
0001
0000
,
0100
0100
0100
0000
,
0010
0000
0100
0000
,
0001
0001
0001
0000
,
1000
0000
0100
0000
,
0000
1000
1000
1000
,
0000
0001
0000
1000
,
0000
0001
0001
0001
,
0000
1000
0000
0001
,
1000
0000
1000
0000
,
0001
0000
0001
0000
,
1000
0001
1000
0001
,
1000
1000
1000
0000
,
0000
0001
0001
0001
,
0000
1000
0000
0001
,
0000
1000
1000
1000
,
0000
0001
0000
1000
,
0001
0000
0001
0000
,
1000
0000
1000
0000
,
0001
1000
0001
1000
,
0001
0001
0001
1000
,
1001
0000
0000
0000
;

//---------------dance-double - ----------------
#NOTES:
     dance-double:
     :
     Hard:
     15:
     0.700,0.765,0.267,0.074,0.020:
00000000
00000000
00000000
00000000
,
00000000
00000000
00000000
00000000
,
00000000
00000000
00000000
00000000
,
00000000
00000000
00000000
00000000
,
00011000
00000000
00001000
00001000
00000000
00001000
00001000
00000000
,
00001000
00001000
00000000
00001000
00001000
00000000
00001000
00001000
,
00000000
00001000
00001000
00000000
00001000
00001000
00000000
00001000
,
00001000
00000000
00001000
00001000
00000000
00001000
00001000
01000000
,
01010000
00000000
10000000
10000000
00000000
10000000
10000000
00000000
,
10000000
10000000
00000000
10000000
10000000
00000000
10000000
10000000
,
00000000
10000000
10000000
00000000
10000000
10000000
00000000
10000000
,
10000000
00000000
10000000
10000000
00010000
01000000
00100000
10000000
,
11000000
01000000
01000000
01000000
,
00010000
00010000
00010000
00010000
,
00001000
00001000
00001000
00001000
,
00000100
00000000
00000100
00000000
00000100
00000000
00000100
00000001
,
00000010
00000100
00000010
00000100
00010000
00001000
00010000
00001000
,
01000000
00100000
01000000
00100000
10000000
00010000
10000000
00010000
,
01000000
00100000
00010000
00000100
00001000
00000010
00010000
00001000
,
01000000
00020000
00000000
00130000
00001000
00000010
00000100
00001000
,
00000001
00000001
00000100
00000100
00001000
00010000
00100000
00010000
,
00001000
00001000
01000000
01000000
00100000
00010000
00001000
00000100
,
00000010
00000010
00010000
00010000
01000000
00100000
00001000
00010000
,
01000000
10000000
01000000
00010000
00000100
00010000
00000010
00000100
,
00000001
00000010
00000100
00001000
00010000
00001000
00000100
00001000
,
01000000
00100000
00010000
00001000
00000100
00001000
00000001
00001000
,
00000010
00000100
00001000
00010000
00100000
01000000
00010000
00001000
,
00000010
00000100
00000001
00000010
00001000
00010000
01000000
10000000
,
10010000
00000000
00010000
00000000
01000000
00010000
00100000
00000000
,
00000010
00001000
00000100
00000010
00000001
00000100
00001000
00000000
,
00011000
00000000
00010000
00000000
00000010
00001000
00000100
00000000
,
01000000
00010000
00100000
01000000
10000000
01000000
00010000
00001000
,
00000200
00000000
00000000
00000010
00000310
00000000
00010000
00000000
,
00011000
00000000
01001000
00000000
01100000
00000000
00100000
10000000
,
02000000
10000000
03020000
00031000
,
01000000
00001000
00010000
00000010
00001000
00000001
00000010
00000200
,
00000000
00000000
00001300
00000000
00000000
00000001
00000100
00000000
00000010
00000000
00000010
00000000
00001000
00000000
00000100
00000000
,
00010000
01000000
00100000
00001000
00010000
00000000
01000000
00100000
,
00010000
00010000
01000000
00001000
00000100
00010000
01000000
00100000
,
10000000
00000000
00010000
01000000
00001000
00001000
00010000
00000100
,
00000010
00000000
00000001
00000000
00001000
00000000
00000000
00000010
00000100
00000000
00000001
00000000
00000001
00000000
00001000
00000000
,
00000100
00000100
00010000
00001000
00001000
01000000
00000000
00100000
,
10000000
00010000
00010000
00100000
00001000
00001000
00010000
00000010
,
00001000
00100000
00010000
00001000
01000000
00000000
00010000
00010000
,
10000000
10000000
00010000
01000000
01000000
00001000
00010000
00010000
,
00000100
00000000
00001000
00001000
00000001
00000100
00000010
00000010
,
00001000
00000100
00000100
00010000
00001000
00000000
01000000
00100000
,
10000000
00000000
10000000
00000000
00010000
00000000
00100000
01000000
00100000
00000000
00010000
01000000
00001000
00010000
00000010
00001000
,
00000001
00000010
00000010
00000001
00000100
00000100
00001000
00010000
,
00010000
00100000
01000000
01000000
00010000
00100000
10000000
00100000
,
00010000
01000000
01000000
00001000
00010000
00010000
00000010
00001000
,
00001000
00000100
00000010
00000010
00000001
00000100
00001000
00000100
,
00000001
00000010
00000010
00000100
00001000
00001000
00010000
00100000
,
00100000
01000000
10000000
10000000
00010000
01000000
10000000
01000000
,
00010000
00100000
00100000
00001000
00010000
00010000
00000100
00000010
,
00000010
00000001
00001000
00001000
00000001
00000010
00001000
00000010
,
00000011
00000001
00000001
00001100
00001000
00001000
00010010
00000010
,
00000010
01001000
01000000
01000000
00100000
10000000
01000000
00100000
,
00110000
00010000
00010000
01001000
01000000
01000000
00010010
00000010
,
00000010
00001100
00001000
00001000
00000001
00000100
00000010
00001000
,
00001100
00000100
00010000
00011000
00001000
01000000
01100000
00100000
,
10000000
10010000
00010000
00100000
01000000
10000000
01000000
00010000
,
00011000
00001000
00000100
00000110
00000010
00010000
00011000
00001000
,
00100000
01100000
01000000
00100000
00010000
10000000
00100000
01000000
,
00001000
00010000
00000100
00000010
,
00000001
00000100
00001000
00010000
,
00100000
01000000
00010000
10000000
,
01000000
00000000
00010000
00001000
00010000
00100000
00010000
00000000
,
00000100
00000010
00000001
00000100
,
00001000
00000000
00010000
01000000
10000000
01000000
00100000
00000000
,
00001000
00010000
00001000
00010000
00001000
00010000
00001000
00010000
,
01000000
10000000
01000000
10000000
00100000
01000000
00010000
00100000
,
00011000
00000000
00000100
00001000
00000010
00000100
00000001
00000010
,
00000100
00000000
00010000
00001000
01000000
00100000
00010000
00100000
,
10000000
00000000
01000000
00010000
00001000
00000100
00001000
00010000
,
00001000
00000010
00000010
00000001
00001000
00001000
00000100
00000001
,
00000100
00010000
00001000
00010000
00100000
00010000
00001000
00010000
,
01000000
10000000
01000000
00100000
00001000
00010000
00001000
00000100
,
00000010
00001000
00000010
00000100
00000001
00000010
00000001
00000010
,
00000100
00010000
00001000
01000000
00100000
10000000
00010000
00100000
,
00101000
00000000
00001000
00010000
00000100
00000010
00001000
00000010
,
00000001
00000000
00000100
00000010
00000001
00000010
00010000
00001000
,
01000000
00000000
00100000
00010000
00100000
10000000
01000000
00010000
,
00001000
00000000
00100000
10000000
00100000
00010000
00001000
00000100
,
00000010
00000000
00000001
00000100
00000001
00000010
00001000
01000000
,
00100000
00000000
10000000
00010000
10000000
00100000
00010000
00001000
,
00000010
00000000
00000100
00010000
00000010
00000000
00000110
00000000
,
00001000
00000100
00010000
00001000
01000000
00100000
01000000
00001000
,
00100000
00010000
10000000
01000000
00100000
00010000
10000000
00100000
,
01000000
01000000
00001000
00001000
00010000
00010000
00000100
00000100
,
00001000
00000010
00000100
00000001
00000010
00000100
00001000
00000010
,
00000100
00000100
00001000
00001000
00010000
00010000
00100000
00100000
,
20000000
00000000
00000000
00010000
30010000
00000000
01000000
00000000
,
01001000
00000000
00011000
00000000
00010100
00000000
00010000
00002000
,
00000100
00000100
01000000
01003000
,
00101000
00010010
00022000
00033000
,
00000010
00001000
00000001
00000100
00000010
00001000
00000001
00000010
,
00000100
00000100
00010000
00010000
00001000
00001000
01000000
01000000
,
00010000
00100000
01000000
10000000
00100000
01000000
00010000
00100000
,
01000000
01000000
00010000
00010000
00001000
00001000
00000010
00000010
,
00000002
00000000
00000000
00001000
00001003
00000000
00000100
00000000
,
00010100
00000000
00011000
00000000
01001000
00000000
00001000
00020000
,
01000000
01000000
00000100
00030100
,
00010010
00101000
00011000
00000100
,
00001001
00000000
00000000
00000000
;

//---------------dance-double - ----------------
#NOTES:
     dance-double:
     :
     Medium:
     11:
     0.531,0.556,0.047,0.267,0.003:
00000000
00000000
00000000
00000000
,
00000000
00000000
00000000
00000000
,
00000000
00000000
00000000
00000000
,
00000000
00000000
00000000
00000000
,
00010000
00001000
01000000
00001000
,
00010000
00001000
01000000
00001000
,
00010000
00000100
00000010
00000100
,
00010000
00000100
00000010
00000001
,
00001001
00001000
00000100
00001000
,
00000010
00001000
00000100
00001000
,
00000010
00010000
00001000
00010000
,
00000010
00000000
00010000
00000000
00001000
01000000
00100000
00000000
,
10000000
01000000
00100000
01000000
,
10000000
01000000
00010000
01000000
,
00100000
00001000
00010000
00001000
,
00010000
00000000
00000010
00000000
00001000
00000000
00000100
00000010
,
00000100
00000000
00001000
00000000
00000001
00000100
00000001
00000000
,
00001000
00000000
00000100
00000000
00010000
00001000
00010000
00000000
,
01000000
00100000
00010000
00000000
01000000
00100000
10000000
00000000
,
20020000
00000000
30030000
00000000
10000000
01000000
00100000
00001000
,
00010000
00000000
00000100
00000000
00001000
00000010
00001000
00000100
,
00000010
00000000
00000001
00000000
00000100
00000010
00010000
00000010
,
00001000
00000000
00000100
00000000
00010000
00001000
01000000
00010000
,
00100000
00000000
01000000
00000000
10000000
00010000
01000000
00000000
,
00100000
01000000
00100000
01000000
00010000
00000000
00100000
00000000
,
00001000
00010000
00001000
00010000
00000100
00000000
00001000
00000000
,
00000010
00000000
00000100
00000001
00000010
00000000
00000100
00001000
,
00000010
00000000
00000100
00000001
00000010
00000000
00000100
00000000
,
00010000
00001000
01000000
00010000
,
10000000
01000000
10000000
00000000
00010000
01000000
00010000
00000000
,
10000000
00100000
00010000
00001000
,
00000100
00000010
00000100
00000000
00000010
00001000
00000010
00000000
,
00000002
00000000
00000003
00001000
00000100
00000000
00010000
00000000
,
00001000
00000000
01001000
00000000
01010000
00000000
00010000
00100000
,
01000000
10000000
01000000
00100000
,
00001000
00010000
00000100
00000010
,
00000001
00001000
00000000
00000100
00010000
00000000
00001000
01000000
,
00100000
10000000
00100000
01000000
00001000
00000000
00010000
00000100
,
00000000
00001000
00000010
00000100
00000001
00000100
00000010
00010000
,
00001000
00000000
01000000
00010000
00000000
10000000
01000000
00100000
,
00010000
00100000
01000000
00000000
10000000
00000000
00010000
01000000
,
00000000
00001000
00010000
00000000
00000010
00000100
00000000
00000001
,
00000010
00000000
00000100
00001000
00000000
00010000
00100000
01000000
,
10000000
00010000
10000000
01000000
00100000
00000000
00001000
00010000
,
00000000
00000010
00001000
00000000
00000100
00000010
00000000
00000001
,
00000100
00000000
00000010
00010000
00000000
00001000
01000000
00000000
,
00100000
10000000
00000000
01000000
00010000
00000000
00001000
00010000
,
00000000
00000000
00001000
00000000
00000100
00000000
00000000
00000000
00000010
00000000
00001000
00000000
00000001
00000000
00000010
00000100
,
00000010
00000000
00000010
00000001
00000000
00000001
00000100
00000000
,
00000010
00001000
00000000
00001000
00000100
00000000
00010000
00000000
,
00001000
00000000
01000000
00010000
00000000
00010000
00100000
00000000
,
01000000
10000000
00000000
10000000
00100000
00000000
01000000
00000000
,
00001000
00000000
00010000
00000100
00000000
00000100
00000010
00000000
,
00000001
00000100
00000000
00000100
00000010
00000000
00010000
00000000
,
00001000
00000000
01000000
00010000
00000000
00010000
00100000
00000000
,
01000000
10000000
00000000
10000000
00100000
00000000
01000000
00000000
,
00001000
00000000
00010000
00000100
00000000
00000100
00001000
00000000
,
00000001
00000100
00000000
00000100
00001000
00000000
00010000
00000000
,
00100000
00000000
10000000
01000000
00000000
01000000
00010000
00000000
,
00001000
01000000
00000000
01000000
00100000
00000000
10000000
00000000
,
01000000
00000000
00100000
00001000
00000000
00001000
00010000
00000000
,
00000100
00001000
00000000
00001000
00000010
00000000
00000100
00000000
,
00000001
00000000
00000010
00000100
00000000
00000100
00010000
00000000
,
00001000
01000000
00000000
01000000
00100000
10000000
01000000
00100000
,
00010000
01000000
00001000
00010000
,
00000100
00001000
00000010
00000100
,
00000001
00000010
00000100
00010000
,
00001000
00000000
01000000
00100000
01000000
00000000
00010000
00000000
,
10000000
01000000
00100000
00001000
,
00010000
00000000
00000100
00001000
00000100
00000000
00000010
00000000
,
00000001
00000100
00000001
00000000
00001000
00000100
00001000
00000000
,
00000100
00010000
00000100
00000000
00010000
00001000
00010000
00000000
,
00001000
00000000
01000000
00000000
00010000
00100000
01000000
10000000
,
00010000
00000000
01000000
00000000
00001000
00010000
00000100
00001000
,
00000010
00000000
00000100
00000000
00000001
00000010
00000001
00000100
,
00000010
00000000
00001000
00000000
00000100
00010000
00001000
00000000
,
01000000
00010000
10000000
00010000
01000000
00000000
00001000
00000000
,
00010000
00000100
00001000
00000100
00010000
00000000
00000010
00000000
,
00000100
00000000
00000001
00000010
00000100
00000000
00001000
00000100
,
00010000
00000000
00001000
01000000
00010000
00100000
01000000
10000000
,
00010000
00000000
01000000
00000000
00001000
01000000
00001000
00010000
,
00000100
00000000
00001000
00000000
00000010
00000100
00000010
00001000
,
00000001
00000000
00000010
00000000
00000100
00001000
00000100
00010000
,
00001000
00000000
01000000
00000000
00010000
00100000
00010000
01000000
,
00100000
00000000
10000000
00000000
01000000
00100000
01000000
10000000
,
00010000
00000000
01000000
00000000
00001000
00010000
00001000
00000100
,
00000010
00000000
00001000
00000100
00010000
00000000
00001000
00000000
,
01000000
00010000
01000000
00010000
10000000
01000000
10000000
00000000
,
00100000
02000000
03002000
00023000
,
00030200
00000320
00000032
00000013
,
00000100
00020000
00032000
00203000
,
02300000
23000000
30200000
00320000
,
00032000
00000000
00000000
00010000
00013000
00000000
00002000
00000000
,
00003200
00000000
00000302
00000000
00000023
00000000
00000130
00010000
,
00001000
00000010
00000001
00000010
,
00001000
00010000
00012000
00003000
,
00000010
00000200
00020300
00032000
,
02003000
03200000
20300000
30100000
,
01000000
00002000
00023000
00030020
,
00000230
00000302
00000023
00002030
,
00023000
00000000
00000000
00001000
00031000
00000000
00020000
00000000
,
02030000
00000000
23000000
00000000
30200000
00000000
01300000
00001000
,
00010000
00100000
10000000
00100000
,
00010000
00001000
00011000
01000000
,
10010000
00000000
00000000
00000000
;

//---------------dance-double - ----------------
#NOTES:
     dance-double:
     :
     Easy:
     9:
     0.343,0.452,0.007,0.000,0.000: // measure 1
00000000
00000000
00000000
00000000
,  // measure 2
00000000
00000000
00000000
00000000
,  // measure 3
00000000
00000000
00000000
00000000
,  // measure 4
00000000
00000000
00000000
00000000
,  // measure 5
00001000
00000000
00010000
00010000
,  // measure 6
00000000
00000000
00000000
00000000
,  // measure 7
00000000
00000000
00001000
00001000
,  // measure 8
00000000
00000000
00000000
00000000
00000000
00000000
00010000
00001000
,  // measure 9
01000000
00000000
00100000
00100000
,  // measure 10
00000000
00000000
00000000
00000000
,  // measure 11
00000000
00000000
00010000
00010000
,  // measure 12
00001000
00010000
00001000
00000100
,  // measure 13
00000010
00000010
00001000
00000010
,  // measure 14
00001000
00001000
00000100
00001000
,  // measure 15
00000100
00000100
00010000
00001000
,  // measure 16
00010000
00010000
00001000
01000000
,  // measure 17
00010000
00100000
00010000
00100000
,  // measure 18
01000000
10000000
01000000
10000000
,  // measure 19
00010000
01000000
00010000
01000000
,  // measure 20
00001000
00000000
00010000
00010000
,  // measure 21
00001000
01000000
00100000
00000000
,  // measure 22
00100000
01000000
00001000
00000000
,  // measure 23
00010000
00000100
00000010
00000000
,  // measure 24
00000010
00000100
00010000
00000000
,  // measure 25
00000010
00000100
00000001
00000000
,  // measure 26
00000010
00000100
00010000
00000000
,  // measure 27
00001000
01000000
00100000
00000000
,  // measure 28
10000000
00010000
10000000
00000000
,  // measure 29
01000000
00100000
00001000
00010000
,  // measure 30
00000100
00000010
00000100
00000000
,  // measure 31
00001000
00000100
00000010
00000100
,  // measure 32
00010000
00001000
01000000
00000000
,  // measure 33
00100000
00000000
10000000
00000000
,  // measure 34
00010000
01000000
00001000
00000000
,  // measure 35
00010000
00010000
00000100
00000100
,  // measure 36
00001000
00000010
00000100
00000000
,  // measure 37
00000001
00001000
00001000
00000000
00001000
00001000
00000000
00001000
,  // measure 38
00001000
00000000
00001000
00001000
00000000
00000100
00000100
00000000
,  // measure 39
00000100
00000100
00000000
00000100
00000100
00000000
00000100
00000100
,  // measure 40
00000000
00010000
00010000
00000000
00010000
00010000
00000000
00010000
,  // measure 41
00010000
00000000
00010000
00010000
00000000
00001000
00001000
00000000
,  // measure 42
00001000
00001000
00000000
00001000
00001000
00000000
00001000
00001000
,  // measure 43
00000000
01000000
00100000
00000000
01000000
00100000
00000000
01000000
,  // measure 44
00100000
00000000
01000000
00100000
00000000
10000000
00010000
00000000
,  // measure 45
10000000
00010000
00000000
10000000
00010000
00000000
10000000
00010000
,  // measure 46
00000000
01000000
00100000
00000000
01000000
00100000
00000000
00010000
,  // measure 47
00001000
00000000
00010000
00001000
00000000
00000100
00000010
00000000
,  // measure 48
00000100
00000010
00000000
00000001
00001000
00000001
00001000
00000100
,  // measure 49
00000010
00000000
00000000
00000001
00000000
00000000
00001000
00000000
,  // measure 50
00000000
00000100
00000000
00000000
00010000
00000000
00001000
00000000
,  // measure 51
01000000
00000000
00000000
00100000
00000000
00000000
01000000
00000000
,  // measure 52
00000000
00010000
00000000
00000000
10000000
00000000
01000000
00000000
,  // measure 53
00010000
00000000
00000000
00001000
00000000
00000000
00010000
00000000
,  // measure 54
00000000
00000100
00000000
00000000
00000010
00000000
00000001
00000000
,  // measure 55
00000100
00000000
00000000
00001000
00000000
00000000
00000100
00000000
,  // measure 56
00000000
00000010
00000000
00000000
00010000
00000000
00001000
00000000
,  // measure 57
00010000
00000000
00000000
01000000
00000000
00000000
00100000
00000000
,  // measure 58
00000000
00010000
00000000
00000000
00100000
00000000
00001000
00000000
,  // measure 59
00010000
00000000
00000000
00000100
00000000
00000000
00001000
00000000
,  // measure 60
00000000
00000010
00000000
00000000
00000100
00000000
00000001
00000000
,  // measure 61
00001000
00000000
00000000
00000100
00000000
00000000
00010000
00000000
,  // measure 62
00000000
00001000
00000000
00000000
01000000
00000000
00010000
00000000
,  // measure 63
00100000
00000000
00000000
01000000
00000000
00000000
00100000
00000000
,  // measure 64
00000000
00010000
00000000
00000000
10000000
00000000
01000000
00000000
,  // measure 65
00010000
00010000
00001000
00001000
,  // measure 66
00010000
00010000
00001000
00001000
,  // measure 67
01000000
00010000
01000000
00010000
,  // measure 68
10000000
01000000
00100000
00000000
,  // measure 69
00001000
00001000
00010000
00010000
,  // measure 70
00000100
00000100
00001000
00001000
,  // measure 71
00000001
00000100
00000001
00000100
,  // measure 72
00000010
00001000
00000100
00000000
,  // measure 73
00010000
00001000
01000000
00010000
,  // measure 74
01000000
00100000
10000000
01000000
,  // measure 75
00100000
00001000
00010000
00000100
,  // measure 76
00001000
00000010
00000100
00000000
,  // measure 77
00000001
00000010
00000001
00000100
,  // measure 78
00000010
00001000
00000100
00010000
,  // measure 79
00001000
01000000
00010000
01000000
,  // measure 80
00100000
10000000
01000000
00000000
,  // measure 81
00100000
00010000
01000000
01000000
,  // measure 82
00001000
00010000
00000100
00000100
,  // measure 83
00001000
00000010
00010000
00010000
,  // measure 84
00001000
00100000
00010000
00010000
,  // measure 85
01000000
00100000
01000000
00000000
,  // measure 86
00001000
00010000
00001000
00000000
,  // measure 87
00000100
00000010
00010000
00001000
,  // measure 88
01000000
00010000
10000000
00000000
,  // measure 89
10000000
01000000
10000000
01000000
,  // measure 90
00010000
01000000
00010000
01000000
,  // measure 91
00010000
00001000
00010000
00001000
,  // measure 92
00000100
00001000
00000100
00001000
,  // measure 93
00000100
00000000
00000001
00000000
,  // measure 94
00000010
00000100
00010000
00000000
,  // measure 95
00001000
00100000
01000000
10000000
,  // measure 96
00010000
01000000
00100000
00000000
,  // measure 97
10000000
01000000
10000000
01000000
,  // measure 98
00010000
01000000
00010000
01000000
,  // measure 99
00010000
00001000
00010000
00001000
,  // measure 100
00000100
00001000
00000100
00001000
,  // measure 101
00000100
00000000
00000001
00000000
,  // measure 102
00000010
00000100
00010000
00000000
,  // measure 103
00001000
00100000
01000000
10000000
,  // measure 104
00010000
01000000
00100000
01000000
,  // measure 105
10010000
00000000
00000000
00000000
;
