#TITLE:neu BSP style;
#SUBTITLE:;
#ARTIST:cosMo@暴走P;
#TITLETRANSLIT:;
#SUBTITLETRANSLIT:;
#ARTISTTRANSLIT:cosMo@BousouP;
#GENRE:;
#CREDIT:Silverhawke;
#MENUCOLOR:;
#METERTYPE:DDR;
#BANNER:neu BSP style.png;
#BACKGROUND:neu BSP style-bg.png;
#LYRICSPATH:;
#CDTITLE:cdtitle.png;
#MUSIC:neu BSP style.mp3;
#OFFSET:-0.028;
#SAMPLESTART:64.622;
#SAMPLELENGTH:15.000;
#SELECTABLE:YES;
#LISTSORT:;
#DISPLAYBPM:130.000:199.000;
#BPMS:0.000=130.000,172.000=99.500,173.000=199.000,239.000=99.500,241.000=68.473,241.667=66.333,242.000=67.745,243.000=46.144,243.667=55.860,244.333=55.962,244.667=33.166;
#STOPS:;
#BGCHANGES:;
#ATTACKS:;

//---------------dance-single - ----------------
#NOTES:
     dance-single:
     :
     Hard:
     12:
     0.535,0.580,0.325,0.217,0.086:
0000
0000
0000
0000
,
0000
0000
0000
0000
,
0000
0000
0000
0000
,
0000
0000
0000
0000
,
0000
0000
0000
0000
,
0000
0000
0000
0000
0000
1000
0100
0010
,
0002
1000
1000
1003
0000
0001
0100
0010
,
2000
0001
0001
3001
0000
1000
0010
0100
,
0002
1000
1000
1003
0000
0001
0010
0100
,
2200
3300
0011
0000
2010
3000
0102
0003
,
1000
1000
0100
0100
,
0001
0001
0010
0010
,
1000
0100
0001
0010
,
1000
0000
0100
0000
0010
0001
1000
0000
,
1001
0000
0002
0000
0013
0000
0100
1000
,
0020
0000
0130
0000
0010
1000
0001
1000
,
0020
0000
0000
0100
0130
0000
0001
0010
,
0200
0001
1300
0000
,
0001
0010
0100
1000
0001
0001
0100
0100
,
0010
1000
0100
0010
0001
0001
1000
1000
,
0001
0100
0010
1000
0100
0100
0010
0010
,
0100
0000
1000
0000
0001
0000
0100
0000
0101
0000
0000
1100
0000
0000
1001
0000
,
0100
0010
0001
1000
0010
0010
0100
0100
,
0001
0010
0100
1000
0010
0010
0100
0100
,
0001
0010
1000
0010
0001
0001
1000
1000
,
0010
0100
1000
0100
0001
0001
1000
1000
,
1100
1000
0101
0001
,
1010
1000
0011
0001
,
0110
0100
1001
0001
,
2000
0000
0000
3000
0100
0000
0010
0000
0002
0000
0000
0003
1000
0000
0010
0000
,
0200
0000
0000
0300
1000
0000
0100
0000
0020
0000
0000
0030
1000
0000
0001
0000
,
0010
0000
0100
0000
1000
0001
0000
0000
1000
0001
0000
0001
1000
0000
0010
0000
,
0100
0000
0001
0000
0010
0100
0000
0000
0010
0100
0000
0100
0010
0000
0001
0000
,
1000
1000
0010
0010
0100
0100
0001
0001
,
0021
1000
0100
0031
,
1000
1000
0100
0100
0010
0001
0100
1000
,
0100
0100
0010
0010
1000
0100
0001
0100
,
0010
0010
0001
0001
0100
1000
0001
1000
,
0100
0000
0010
0000
0100
0000
0010
0000
1010
0000
0000
0110
0000
0000
0101
0000
,
1000
1000
0100
0100
0001
0100
0010
0001
,
0100
0100
0010
0010
0001
0010
0100
1000
,
0100
0100
0001
0001
1000
0100
0010
0001
,
0101
1100
1010
0011
,
1001
0000
0220
0000
0000
0330
1000
0100
,
0010
0001
1000
0100
0010
0001
1000
1000
,
0010
0010
0100
0100
0001
0001
1000
0100
,
0010
0001
0010
0100
1000
0001
0100
0100
,
0010
0010
1000
1000
0001
0001
0201
0000
,
0000
0010
0310
0000
1000
0000
1100
0000
,
0101
0000
1001
0000
1000
0200
0001
0000
,
0001
1000
1300
1010
,
0011
0000
2002
0000
3003
0000
0001
0100
,
0010
1000
0001
0100
0010
1000
0001
0001
,
0010
0010
0100
0100
1000
1000
0001
0100
,
0010
1000
0010
0100
0001
1000
0100
0100
,
0010
0010
0001
0001
1000
1000
1200
0000
,
0000
0010
0310
0000
0001
0000
0101
0000
,
1100
0000
1001
0000
0001
0200
1000
0000
,
1000
0000
0000
0001
0000
0000
0301
0000
0000
1000
0010
1000
,
0001
0010
0001
1000
0000
0001
0000
0100
0000
0110
0000
0000
,
0000
0000
0000
0001
0000
0010
0001
0000
0000
1000
0100
0010
,
0001
0010
0100
1000
0000
0000
0000
0000
0000
0000
0000
0000
;

//---------------dance-single - ----------------
#NOTES:
     dance-single:
     :
     Medium:
     10:
     0.433,0.415,0.316,0.235,0.027:
0000
0000
0000
0000
,
0000
0000
0000
0000
,
0000
0000
0000
0000
,
0000
0000
0000
0000
,
0000
0000
0000
0000
,
0000
0000
0000
0000
0000
0001
0000
0001
,
0100
0000
0010
0010
0000
1000
0000
1000
,
0100
0000
0010
0010
0000
0001
0000
0001
,
0010
0000
0100
0100
0000
1000
0000
1000
,
0010
0101
0010
1100
,
0001
1000
0100
0010
,
0001
0000
1000
0010
0200
0000
0300
0000
,
0001
1000
0100
0010
,
0100
1000
0001
0100
0020
0000
0030
0000
,
1000
0000
1100
0000
0010
0000
0001
0100
,
0010
0000
0100
0000
0001
1000
0100
1000
,
0020
0000
0030
0100
0200
0000
0300
0001
,
0010
0100
2002
3003
,
1000
0100
0010
0001
1000
0000
1000
0000
,
0001
0100
0010
1000
0001
0000
0001
0000
,
1000
0010
0100
0001
1000
0000
1000
0000
,
0001
0000
0010
0000
0100
0000
1000
0000
0010
0000
0000
0010
0000
0000
0010
0000
,
1000
0010
0100
0001
1000
0000
1000
0000
,
0001
0010
0100
1000
0001
0000
0001
0000
,
1000
0100
0010
0001
1000
0000
1000
0000
,
0001
0100
0010
1000
0010
0100
0001
0000
,
1001
0000
1010
0000
,
0110
0000
0101
0000
,
0011
0000
0110
0000
,
0100
0000
1000
0100
0001
0000
0100
0000
,
1000
0000
0001
0100
1000
0000
0100
0000
,
0001
0010
0100
0000
0100
1000
0010
0000
,
0100
0001
0010
0000
0010
0100
1000
0000
,
0001
0100
1000
0100
0001
0010
1000
0010
,
0002
0010
1000
0103
,
1000
0100
0010
0000
1000
0100
0010
0000
,
1000
0100
0001
0100
1000
0010
0100
0000
,
0001
0100
0010
0000
0001
0100
0010
0000
,
0001
0100
1000
0100
0001
0010
0100
0000
,
1000
0010
0100
0000
1000
0010
0100
0000
,
1000
0010
0001
0010
1000
0100
0010
0000
,
0001
0100
0010
0000
0001
0100
0010
0000
,
0001
0100
1000
0100
0001
0000
1000
0000
,
1001
0000
0020
0000
0000
0030
0001
0000
,
2000
3200
0310
0011
,
0110
1100
1001
0001
,
0200
0320
1030
1010
,
0110
0101
1001
2000
,
3000
0001
0100
0000
0010
0000
0200
0000
,
0302
0000
2003
0000
3100
0001
0100
0000
,
1000
0010
0100
0101
,
0110
2020
3030
1000
,
0002
0203
0310
1010
,
0110
0101
1001
1000
,
0200
0320
0031
0011
,
0110
1100
1001
0002
,
0003
1000
0100
0000
0010
0000
0200
0000
,
2300
0000
3002
0000
0103
1000
0100
0000
,
0001
0010
0100
1100
,
0110
0011
1001
0110
,
0000
0000
0000
1000
0000
0100
1000
0000
0000
0001
0100
0010
,
1000
0010
0100
0001
0000
0000
0000
0000
0000
0000
0000
0000
;

//---------------dance-single - ----------------
#NOTES:
     dance-single:
     :
     Easy:
     6:
     0.311,0.304,0.108,0.072,0.000:
0000
0000
0000
0000
,
0000
0000
0000
0000
,
0000
0000
0000
0000
,
0000
0000
0000
0000
,
0000
0000
0000
0000
,
0000
0000
0000
0000
,
0001
0100
1000
0010
,
1000
0100
0001
0010
,
0001
0100
0010
0100
,
1000
0001
1001
0110
,
1000
0100
0010
0001
,
0010
0100
1000
0001
,
1000
0010
0100
0001
,
1000
0100
0010
0001
2000
0000
3000
0000
,
0001
0100
0010
1000
,
0001
0000
0010
0000
0100
1000
0100
0000
,
0010
0001
1000
0010
,
1000
0001
2002
3003
,
0001
0100
1000
0010
,
1000
0100
0001
0010
,
1000
0001
0100
1000
,
0010
0001
0100
0110
,
0001
1000
0100
0001
,
0010
0001
0100
1000
,
0010
0001
0100
0001
,
0010
1000
0001
1001
,
1000
0100
0010
0001
,
0001
0010
0100
1000
,
0001
0100
0010
0110
,
1000
1100
0100
0010
,
0001
0101
0100
0010
,
1000
1000
0001
0001
,
0100
0010
1000
0100
,
0010
0001
0100
0001
,
0020
0100
0100
0130
,
1000
0100
1000
0000
0100
0000
0010
0000
,
0001
1000
0010
0100
,
0001
0010
0001
0000
1000
0000
0010
0000
,
0100
0001
1000
1001
,
0001
0100
0001
0000
1000
0000
0100
0000
,
0010
0100
1000
0010
,
1000
0100
1000
0000
0001
0000
0100
0000
,
0010
1000
0001
0010
,
0100
2000
3000
0010
,
1000
0100
0010
0001
,
0010
0100
1000
0010
,
0100
0001
0010
0100
,
1000
0100
0010
0001
,
0000
0001
1000
0000
0001
0000
0100
0000
,
0010
0110
0100
0001
,
0100
1000
0100
0001
,
0010
0200
0300
0010
,
0001
0100
0010
1000
,
0010
0100
0001
0010
,
0100
1000
0010
0100
,
0001
0100
0010
1000
,
0000
1000
0001
0000
1000
0000
0100
0000
,
0010
0110
0100
0001
,
0100
1000
0100
0010
,
0001
0100
0010
1001
,
0000
2000
0000
0002
,
0000
3003
0000
0000
;

//---------------dance-single - ----------------
#NOTES:
     dance-single:
     :
     Beginner:
     1:
     0.102,0.138,0.009,0.099,0.000:
0000
0000
0000
0000
,
0000
0000
0000
0000
,
0000
0000
0000
0000
,
0000
0000
0000
0000
,
0000
0000
0000
0000
,
0000
0000
0000
0000
,
0200
0300
0000
0000
,
0200
0300
0000
0000
,
0200
0300
0000
0000
,
0100
0000
0000
0000
,
0001
0000
0000
0000
,
0010
0000
0000
0000
,
1000
0000
0000
0000
,
0100
0000
0000
0000
,
0001
0000
0000
0000
,
0100
0000
0000
0000
,
1000
0000
0000
0000
,
0010
0000
0000
0000
,
0001
0001
0001
0000
,
0000
0000
0000
0000
,
1000
1000
1000
0000
,
0000
0000
0000
0000
,
0010
0010
0010
0000
,
0000
0000
0000
0000
,
0100
0100
0100
0000
,
0000
0000
0000
0000
,
1000
0000
1000
0000
,
1000
0000
0000
0000
,
0001
0000
0001
0000
,
0001
0000
0001
0000
,
1000
0000
1000
0000
,
0100
0000
0000
0000
,
0010
0000
0000
0000
,
1001
0000
0000
0000
,
0000
0000
0000
0000
,
0100
0000
0000
0000
,
0000
0000
0002
0003
0000
0000
0000
0000
,
0000
0000
2000
3000
0000
0000
0000
0000
,
0000
0000
0020
0030
0000
0000
0000
0000
,
0100
0000
0000
0000
,
0000
0000
2000
3000
0000
0000
0000
0000
,
0000
0000
0002
0003
0000
0000
0000
0000
,
0000
0000
0020
0030
0000
0000
0000
0000
,
0000
0000
0000
1000
,
0000
1000
0000
1000
,
0000
0000
0000
0001
,
0000
0001
0000
0001
,
0000
0000
0000
0100
,
0000
0000
0000
0100
,
0000
0000
0000
0100
,
0000
0000
0000
0020
,
0000
0030
0000
0100
,
0000
0100
0000
0100
,
0000
0000
0000
0001
,
0000
0001
0000
0001
,
0000
0000
0000
1000
,
0000
0000
0000
0100
,
0000
0000
0000
0010
,
0000
0000
0000
0001
,
0000
0001
0000
0001
,
0000
0002
0000
0000
,
0000
0003
0000
0000
;

//---------------dance-double - ----------------
#NOTES:
     dance-double:
     :
     Hard:
     13:
     0.527,0.580,0.262,0.171,0.095:
00000000
00000000
00000000
00000000
,
00000000
00000000
00000000
00000000
,
00000000
00000000
00000000
00000000
,
00000000
00000000
00000000
00000000
,
00000000
00000000
00000000
00000000
,
00000000
00000000
00000000
00000000
00000000
10000000
01000000
00010000
,
00002000
00000100
00000100
00003100
00000000
00000001
00000100
00001000
,
00020000
01000000
01000000
01030000
00000000
10000000
01000000
00010000
,
00002000
00000010
00000010
00003010
00000000
00000001
00000100
00001000
,
00011000
01100000
00011000
00000110
,
00000001
00000100
00001000
00010000
,
00100000
10000000
01000000
00010000
,
00001000
00000010
00000100
00001000
,
00010000
00000000
00100000
00000000
01000000
00100000
10010000
00000000
,
10000000
00000000
00100000
00000000
00010000
00000000
00000010
00001000
,
00000100
00000000
00010000
00000000
00100000
10000000
00010000
10000000
,
01000000
00000000
00010000
00001000
00000100
00000000
00000010
00000100
,
00000101
00001100
00002002
00003003
,
00000001
00000100
00001000
00000100
00000010
00010000
00001000
00100000
,
00010000
01000000
00100000
10000000
01000000
00010000
00001000
00000010
,
00000100
00010000
00001000
00010000
01000000
00100000
00001000
00010000
,
01000000
00000000
10000000
00000000
01000000
00000000
00100000
00000000
00110000
00000000
00000000
10100000
00000000
00000000
10010000
00000000
,
00010000
01000000
10000000
01000000
00010000
00100000
00001000
00010000
,
00000100
00001000
00010000
00001000
00000100
00000010
00000001
00000100
,
00001000
00010000
00100000
00010000
00001000
00010000
01000000
10000000
,
00010000
01000000
00100000
10000000
10010000
00000000
01100000
00000000
,
00020000
01000000
10000000
00100000
,
00032000
00000100
00000001
00000010
,
00023000
01000000
10000000
00100000
,
00032000
00000000
00003100
00000010
00000002
00000000
00000103
00001000
,
00020000
00000000
01030000
00100000
00002000
00000000
01003000
10000000
,
01000000
00000000
00100000
00000000
01000000
00100000
00000000
00000000
10000000
00000000
00000000
00100000
01000000
00000000
00010000
00000000
,
10000000
00000000
01000000
00000000
00010000
00001000
00000000
00000000
00010000
00000000
00000000
00001000
00000100
00000000
00000010
00000000
,
00001000
00000001
00000010
00001000
00010000
01000000
10000000
00010000
,
00002000
00000100
00000001
00000010
,
00013000
01000000
10000000
01000000
00010000
00010000
00100000
00100000
,
00001000
00000100
00000010
00000100
00001000
00001000
00010000
00010000
,
00000100
00000010
00000001
00000010
00000100
00000100
00010000
00010000
,
00001000
00000000
01000000
00000000
00100000
00000000
00010000
00000000
00011000
00000000
00000000
00001100
00000000
00000000
00000110
00000000
,
00001000
00000100
00000001
00000100
00001000
00001000
00000010
00000010
,
00010000
01000000
00100000
01000000
00010000
00010000
00001000
00001000
,
01000000
00100000
10000000
00100000
01000000
01000000
00001000
00001000
,
00010000
00000100
00000010
00001000
00011000
00000000
01100000
00000000
,
10010000
00000000
00000000
00000000
10000000
01000000
10000000
01000000
10000000
01000000
10000000
01000000
00100000
00000000
00010000
00000000
,
10000000
01000000
00100000
00010000
10000000
00100000
01000000
01000000
,
00001000
00001000
00010000
00010000
00000100
00000100
00001000
00000010
,
00000100
00000001
00000010
00000100
00001000
00000010
00000100
00000100
,
00001000
00001000
00010000
00010000
00100000
00100000
20000000
00000000
,
00000000
00010000
30010000
00000000
01000000
00000000
01001000
00000000
,
00011000
00000000
00010100
00000000
00010000
00002000
00000100
00000000
,
00000100
01000000
01003000
00101000
,
00010010
00000000
00022000
00000000
00033000
00000000
00000010
00001000
,
00000001
00000100
00000010
00001000
00000001
00000010
00000100
00000100
,
00010000
00010000
00001000
00001000
01000000
01000000
00010000
00100000
,
01000000
10000000
00100000
01000000
00010000
00100000
01000000
01000000
,
00010000
00010000
00001000
00001000
00000010
00000010
00000002
00000000
,
00000000
00001000
00001003
00000000
00000100
00000000
00010100
00000000
,
00011000
00000000
01001000
00000000
00001000
00020000
01000000
00000000
,
01000000
00000000
00000000
00000100
00000000
00000000
00030100
00000000
00000000
00010000
00000010
00010000
,
00001000
00100000
00001000
00010000
00000000
00000100
00000000
00000010
00000000
00000110
00000000
00000000
,
00000000
00000000
00000000
00000001
00000000
00000100
00000001
00000000
00000000
00000100
00001000
00010000
,
10000000
00010000
00001000
00000100
00000000
00000000
00000000
00000000
00000000
00000000
00000000
00000000
;

//---------------dance-double - ----------------
#NOTES:
     dance-double:
     :
     Medium:
     8:
     0.365,0.415,0.135,0.388,0.041: // measure 1
00000000
00000000
00000000
00000000
,  // measure 2
00000000
00000000
00000000
00000000
,  // measure 3
00000000
00000000
00000000
00000000
,  // measure 4
00000000
00000000
00000000
00000000
,  // measure 5
00000000
00000000
00000000
00000000
,  // measure 6
00000000
00000000
00000000
00000001
,  // measure 7
00001000
00000010
00010000
00001000
,  // measure 8
00100000
00010000
10000000
00100000
,  // measure 9
10000000
01000000
00100000
00001000
,  // measure 10
00010000
00011000
00001000
00011000
,  // measure 11
00000000
00010000
00010000
00000010
,  // measure 12
00000100
00000000
00000001
00000000
00001000
00000000
00000000
00000001
,  // measure 13
00000010
00000000
00000000
00000100
00000010
00000000
00000001
00000000
,  // measure 14
00001000
00000010
00010000
00011000
,  // measure 15
00000000
00001000
00001000
00100000
,  // measure 16
01000000
10000000
00010000
00100000
,  // measure 17
00001000
00000000
00000000
00010000
00001000
00000000
00000000
00000010
,  // measure 18
00001000
00010000
00000010
00000000
,  // measure 19
00000100
00000000
00000001
00000000
00000010
00000100
00000010
00000000
,  // measure 20
00001000
00010000
00100000
10000000
,  // measure 21
00010000
00000000
00100000
00000000
01000000
10000000
01000000
00000000
,  // measure 22
00100000
00000000
00000000
00000000
00001000
00000000
00000000
00000000
00010000
00000000
00000000
00010000
00000000
00000000
00010000
00000000
,  // measure 23
00000010
00000000
00000100
00000000
00000001
00001000
00000001
00000000
,  // measure 24
00000010
00001000
00010000
01000000
,  // measure 25
10000000
00000000
00010000
00000000
01000000
00100000
01000000
00000000
,  // measure 26
00010000
00100000
00001000
00010000
,  // measure 27
00010100
00000000
00010010
00000000
,  // measure 28
00101000
00000000
01001000
00000000
,  // measure 29
00011000
00000000
00000110
00000000
,  // measure 30
00000001
00000010
00001000
00010000
,  // measure 31
01000000
10000000
00100000
00010000
,  // measure 32
00001000
00000100
00000001
00001000
,  // measure 33
00002002
00000000
00000000
00000000
00003003
00000000
00000001
00001000
,  // measure 34
00000002
00000010
00000010
00000013
,  // measure 35
00001000
00010000
00100000
10000000
,  // measure 36
00020000
00100000
00100000
00130000
,  // measure 37
00001000
00000000
00010000
00000010
00000000
00000000
00001000
00000000
,  // measure 38
00000100
00000000
00000010
00000001
00000000
00000000
00000100
00000000
,  // measure 39
00000010
00000000
00000000
00000000
00001000
00000000
00000100
00000000
00001000
00000000
00000000
00001000
00000000
00000000
00001000
00000000
,  // measure 40
00000002
00000010
00000010
00000013
,  // measure 41
00000100
00000000
00010000
00001000
00000000
00000000
01000000
00000000
,  // measure 42
00100000
00000000
10000000
00010000
00000000
00000000
00100000
00000000
,  // measure 43
01000000
11000000
00100000
00110000
,  // measure 44
10010000
20000000
00000000
30100000
,  // measure 45
02000000
03002000
00023000
00030200
,  // measure 46
00000320
00000032
00000013
00000100
,  // measure 47
00020000
00032000
00203000
02300000
,  // measure 48
23000000
30200000
00320000
00032000
,  // measure 49
00000000
00010000
00013000
00000000
00002000
00000000
00003200
00000000
,  // measure 50
00000302
00000000
00000023
00000000
00000130
00010000
00001000
00000000
,  // measure 51
00000010
00000001
00000010
00001000
,  // measure 52
00010000
00012000
00003000
00000010
,  // measure 53
00000200
00020300
00032000
02003000
,  // measure 54
03200000
20300000
30100000
01000000
,  // measure 55
00002000
00023000
00030020
00000230
,  // measure 56
00000302
00000023
00002030
00023000
,  // measure 57
00000000
00001000
00031000
00000000
00020000
00000000
02030000
00000000
,  // measure 58
23000000
00000000
30200000
00000000
01300000
00001000
00010000
00000000
,  // measure 59
00100000
10000000
00100000
00010000
,  // measure 60
00001000
00000000
00000000
00000010
00000000
00000100
00000000
00000010
00000000
00000110
00000000
00000000
,  // measure 61
00000000
00000000
00000000
00000001
00000000
00000010
00000001
00000000
00000000
00000010
00000100
00010000
,  // measure 62
00001000
00010000
00000100
00000010
00000000
00000000
00000000
00000000
00000000
00000000
00000000
00000000
;

//---------------dance-double - ----------------
#NOTES:
     dance-double:
     :
     Easy:
     6:
     0.240,0.249,0.027,0.027,0.000: // measure 1
00000000
00000000
00000000
00000000
,  // measure 2
00000000
00000000
00000000
00000000
,  // measure 3
00000000
00000000
00000000
00000000
,  // measure 4
00000000
00000000
00000000
00000000
,  // measure 5
00000000
00000000
00000000
00000000
,  // measure 6
00000000
00000000
00000000
00000000
,  // measure 7
00010000
00001000
01000000
00000000
,  // measure 8
00001000
00010000
00000100
00000000
,  // measure 9
00010000
00001000
00100000
00000000
,  // measure 10
00001000
00010000
00000010
00000010
,  // measure 11
00000000
00000100
00000001
00000100
,  // measure 12
00000010
00001000
00000100
00000000
,  // measure 13
00010000
00001000
01000000
00000000
,  // measure 14
00010000
00100000
01000000
00000000
,  // measure 15
10000000
01000000
00100000
00000000
,  // measure 16
00001000
00010000
00001000
00000100
,  // measure 17
00000010
00000000
00001000
00000000
,  // measure 18
00010000
00000000
01000000
00000000
,  // measure 19
00100000
10000000
01000000
00100000
,  // measure 20
00010000
01000000
00001000
00010000
,  // measure 21
00001000
00000010
00000001
00000100
,  // measure 22
00000010
00000010
00000110
00000000
,  // measure 23
00000001
00000100
00000010
00010000
,  // measure 24
00001000
01000000
00100000
10000000
,  // measure 25
01000000
00010000
00001000
00010000
,  // measure 26
00100000
01000000
00001000
00010000
,  // measure 27
00000100
00000000
00000010
00000000
,  // measure 28
00000001
00000000
00000100
00000000
,  // measure 29
00001000
00000000
00010000
00000000
,  // measure 30
00100000
10000000
00010000
00000000
,  // measure 31
00100000
00010000
10000000
00000000
,  // measure 32
01000000
00010000
00001000
00000000
,  // measure 33
00000010
00000001
00001000
00000000
,  // measure 34
00000010
00000100
00000001
00000100
,  // measure 35
00002000
00000000
00013000
00000000
,  // measure 36
00001000
00001000
00010000
00010000
,  // measure 37
01000000
10000000
00010000
00000000
,  // measure 38
10000000
01000000
00100000
00010000
,  // measure 39
00001000
00000100
00000010
00000000
,  // measure 40
00000001
00000001
00000100
00000100
,  // measure 41
00000010
00001000
00000100
00000000
,  // measure 42
00010000
00001000
00100000
00010000
,  // measure 43
01000000
10000000
01000000
00100000
,  // measure 44
01100000
00000000
00000000
10000000
,  // measure 45
01000000
10000000
01000000
00010000
,  // measure 46
01000000
00010000
01000000
00010000
,  // measure 47
00001000
00010000
00001000
00000100
,  // measure 48
00001000
00000100
00001000
00000100
,  // measure 49
00000000
00000001
00000000
00000010
,  // measure 50
00000100
00010000
00000000
00001000
,  // measure 51
00100000
01000000
10000000
00010000
,  // measure 52
01000000
00100000
00000000
10000000
,  // measure 53
01000000
10000000
01000000
00010000
,  // measure 54
01000000
00010000
01000000
00010000
,  // measure 55
00001000
00010000
00001000
00000100
,  // measure 56
00001000
00000100
00001000
00000100
,  // measure 57
00000000
00000001
00000000
00000010
,  // measure 58
00000100
00010000
00000000
00001000
,  // measure 59
00100000
01000000
10000000
00010000
,  // measure 60
01000000
00100000
00000000
01100000
,  // measure 61
00000000
20000000
00000000
00020000
,  // measure 62
00000000
30030000
00000000
00000000
;
