#TITLE:examination leave;
#SUBTITLE:;
#ARTIST:dj razzle dazzle;
#TITLETRANSLIT:;
#SUBTITLETRANSLIT:;
#ARTISTTRANSLIT:;
#GENRE:;
#CREDIT:Silverhawke;
#MENUCOLOR:;
#METERTYPE:DDR;
#BANNER:examination leave.png;
#BACKGROUND:examination leave-bg.png;
#LYRICSPATH:;
#CDTITLE:cdtitle.png;
#MUSIC:examination leave.mp3;
#OFFSET:-0.028;
#SAMPLESTART:16.001;
#SAMPLELENGTH:15.000;
#SELECTABLE:YES;
#LISTSORT:;
#DISPLAYBPM:180.000;
#BPMS:0.000=180.000,312.000=169.412;
#STOPS:;
#BGCHANGES:;
#ATTACKS:;

//---------------dance-single - ----------------
#NOTES:
     dance-single:
     :
     Hard:
     14:
     0.806,0.893,0.518,0.464,0.299:
0000
0000
0000
0000
,
0000
0000
0000
0000
,
0000
0000
0000
0000
,
0000
0000
0000
0000
,
0001
0001
0001
2000
3100
0220
0000
0330
,
1000
1000
1000
0002
0103
0220
0000
0330
,
1000
0001
1000
0001
1000
0001
0100
0110
,
0000
0010
1000
0000
1100
0000
0011
0000
,
2000
0000
3100
0001
2000
0000
3010
0001
,
0200
0000
1300
0001
0020
0000
0130
1000
,
0002
0000
0013
1000
0200
0000
0310
0000
,
1001
0000
0110
0000
1100
0101
0000
0000
,
1000
0000
1000
0000
1000
0000
0001
0010
0100
0000
0220
0000
0000
0000
0330
0000
,
0001
0000
0001
0000
0001
0000
1000
0010
0100
0000
0220
0000
0000
0000
0330
0000
,
0001
1000
0001
1000
0001
1000
0010
0110
,
0000
0100
0010
0000
1010
0000
0101
0000
,
0001
0000
0001
0000
0001
0000
1000
0010
0100
0000
0220
0000
0000
0000
0330
0000
,
1000
0000
1000
0000
1000
0000
0001
0010
0100
0000
0220
0000
0000
0000
0330
0000
,
1000
0001
1000
0001
1000
0001
0010
0110
,
0000
0100
0010
0000
0011
0000
1100
0000
,
1000
0000
0000
1000
0010
0000
0000
0010
0100
0000
0000
0100
0001
0000
0010
0000
,
0001
0000
0000
0001
0100
0000
0000
0100
0010
0000
0000
0010
1000
0000
0100
1000
,
0100
0000
0000
0100
0010
0000
0000
0010
0001
0000
0000
0001
0100
0000
0010
0100
,
0010
0000
1000
0100
1000
0000
0001
0100
0002
0000
0000
0000
0023
0000
0000
0000
,
0031
0000
0000
0001
0010
0000
0000
0010
0100
0000
0000
0100
1000
0000
0010
0000
,
1000
0000
0000
1000
0100
0000
0000
0100
0010
0000
0000
0010
0001
0000
0100
0001
,
0100
0000
0000
0100
0010
0000
0000
0010
1000
0000
0000
1000
0100
0000
0010
0100
,
0010
0000
0001
0100
0001
0000
1000
0100
2000
0000
0000
0000
3020
0000
0000
0000
,
1030
0100
1000
0100
0001
0100
1000
0001
,
0000
0001
0100
0010
0000
0010
1000
0001
,
0000
0001
0010
0100
0000
0100
1000
0010
,
0000
0010
1000
0100
0010
0010
0001
1000
,
0001
0100
0001
0100
1000
0100
0001
1000
,
0000
1000
0100
0010
0000
0010
0001
0100
,
0000
0100
1000
0100
0100
0001
1000
0200
,
0000
0000
0310
0000
0001
0000
0010
0000
0001
0000
0100
0010
0100
0000
0010
0000
,
1001
0000
1000
0100
0001
0100
1000
0001
,
0100
0000
0001
0100
1000
0100
0001
1000
,
0100
0010
0001
0100
0010
0001
0100
0010
,
0001
0100
0001
0100
1000
0100
1000
0100
,
0001
1000
0001
1000
0100
0010
0001
1000
,
0001
1000
0100
0010
0001
0100
1000
0200
,
0000
0000
0000
0320
0000
0000
1030
0000
,
0101
0000
1010
0000
1000
0100
0010
0001
,
1000
0100
0100
0001
0100
0100
1000
0010
,
0010
0001
0100
0010
0100
0001
1000
0100
,
1000
0010
0010
0001
0100
0100
1000
0010
,
1000
0100
0001
0100
1000
0010
0001
0010
,
2000
0000
0000
3001
0100
0010
0100
0001
,
0010
0100
1000
0001
0100
0010
1000
0100
,
0000
0010
0010
0010
0011
0000
1100
0000
,
0000
0010
0010
0010
1010
0000
0101
0000
,
0001
0000
0001
0000
1001
0000
1000
0100
0010
0000
0220
0000
0000
0000
0330
0000
,
1000
0000
1000
0000
1001
0000
0001
0100
0010
0000
0220
0000
0000
0000
0330
0000
,
1000
0100
0001
0100
1000
0010
0100
0110
,
0000
0010
0100
0000
0101
0000
1010
0000
,
1000
0000
1000
0000
1001
0000
0001
0100
0010
0000
0220
0000
0000
0000
0330
0000
,
0001
0000
0001
0000
1001
0000
1000
0100
0010
0000
0220
0000
0000
0000
0330
0000
,
0001
0100
1000
0100
0001
0010
0100
0110
,
0000
0010
0100
0000
1100
0000
0011
0000
,
0001
0000
1001
0000
1001
0000
1000
0010
0100
0000
0220
0000
0000
0000
0330
0000
,
1000
0000
1001
0000
1001
0000
0001
0010
0100
0000
0220
0000
0000
0000
0330
0000
,
1000
0100
0001
0100
0010
1000
0001
0110
,
0000
0010
0100
0000
0101
0000
1010
0000
,
1000
0000
1001
0000
1001
0000
0001
0010
0100
0000
0220
0000
0000
0000
0330
0000
,
0001
0000
1001
0000
1001
0000
1000
0010
0100
0000
0220
0000
0000
0000
0330
0000
,
0001
0100
1000
0100
0010
0001
1000
0110
,
0000
0010
0100
0000
1100
0000
0011
0000
,
0001
0000
0000
0001
0100
0000
0000
0100
0010
0000
0000
0010
1000
0000
0100
0000
,
1000
0000
0000
1000
0010
0000
0000
0010
0100
0000
0000
0100
0001
0000
0010
0001
,
0010
0000
0000
0010
0100
0000
0000
0100
1000
0000
0000
1000
0010
0000
0100
0010
,
0100
0000
0001
0010
0001
0000
1000
0010
2000
0000
0000
0000
3200
0000
0000
0000
,
1300
0000
0000
1000
0100
0000
0000
0100
0010
0000
0000
0010
0001
0000
0100
0000
,
0001
0000
0000
0001
0010
0000
0000
0010
0100
0000
0000
0100
1000
0000
0010
1000
,
0010
0000
0000
0010
0100
0000
0000
0100
0001
0000
0000
0001
0010
0000
0100
0010
,
0100
0000
1000
0010
1000
0000
0001
0010
0002
0000
0000
0000
0203
0000
0000
0000
,
0301
1000
0001
0000
1000
0100
1000
0000
0200
0000
0000
0000
0320
0000
0000
0000
,
0031
0100
0001
0100
1000
0010
0001
0100
,
0020
0000
0000
0000
,
0230
0000
0000
0000
,
0310
0000
0000
0000
;

//---------------dance-single - ----------------
#NOTES:
     dance-single:
     :
     Medium:
     11:
     0.657,0.607,0.375,0.286,0.000:
0000
0000
0000
0000
,
0000
0000
0000
0000
,
0000
0000
0000
0000
,
0000
0000
0000
0000
,
1000
0001
1000
0001
0100
0010
0000
0000
,
0001
1000
0001
1000
0100
0010
0000
0000
,
0001
0100
0001
0000
1000
0100
0010
0001
,
0000
0001
1000
0000
1001
0000
0110
0000
,
2000
3200
0302
0203
,
2300
3020
0032
0203
,
2300
3200
0302
0023
,
1030
0000
1001
0000
0010
0110
0000
0000
,
1000
0100
1000
0100
0010
0001
0000
0000
,
0001
0100
0001
0100
0010
1000
0000
0000
,
1000
0001
1000
0001
1000
0001
0100
0110
,
0000
0001
1000
0000
0110
0000
1001
0000
,
0001
0100
0001
0100
0010
1000
0000
0000
,
1000
0100
1000
0100
0010
0001
0000
0000
,
0001
1000
0001
1000
0001
1000
0010
0110
,
0000
1000
0001
0000
1001
0000
0110
0000
,
0001
0000
0101
0000
1000
0000
0010
1000
,
0100
0000
0011
0000
1000
0000
0010
0100
,
0001
0000
1100
0000
0001
0000
1000
0100
,
0010
0100
1000
0010
0200
0000
0302
0000
,
1003
0000
0110
0000
0001
0000
1000
0100
,
0010
0000
1001
0000
0100
0000
0010
1000
,
0100
0000
0011
0000
0100
0000
0010
1000
,
0001
0100
0010
1000
0200
0000
0320
0000
,
0031
0100
0001
0000
1000
0100
1000
0001
,
0000
1000
0100
1000
0000
0001
0100
0001
,
0000
1000
0010
1000
0000
0001
0010
0001
,
0000
1000
0100
0010
0001
0001
0010
0100
,
1000
0001
1000
0000
0010
0100
0010
0100
,
0000
0001
1000
0001
0000
1000
0100
1000
,
0000
0001
0010
0001
0001
1000
0010
0100
,
0000
0001
1000
0001
1000
0100
0010
0001
,
1000
0000
0010
0100
0001
0100
0010
1000
,
0001
0000
0100
0010
0001
0010
0100
1000
,
0001
0100
0000
0001
0100
0000
0001
0100
,
0010
0000
1000
0000
0100
0010
0100
0010
,
0001
0000
1100
0000
0001
0000
0100
0010
,
1000
0000
0001
0000
0100
0010
0100
0020
,
0000
0000
0000
1030
0000
0000
0001
0000
,
1001
0000
0110
0000
1000
0100
0010
0001
,
1000
0100
1000
0001
0100
0001
0000
1000
,
0100
1000
0001
0010
0100
1000
0010
0100
,
0001
0010
0001
1000
0010
1000
0001
0010
,
0100
0100
1000
1000
0001
0100
0010
1000
,
0002
0000
0003
1000
0100
0010
0100
1000
,
0001
1000
0001
0000
0100
0010
0100
0000
,
0000
0001
0010
0100
1000
0000
1001
0000
,
0000
1000
0010
0100
0001
0000
1001
0000
,
0001
0100
0001
0100
0010
1010
0000
0000
,
1000
0100
1000
0100
0010
0011
0000
0000
,
0001
1000
0010
0100
0001
1000
0100
0110
,
0000
0010
0001
0000
1001
0000
0110
0000
,
1000
0100
1000
0100
0010
0011
0000
0000
,
0001
0100
0001
0100
0010
1010
0000
0000
,
1000
0001
0100
0010
1000
0100
0010
0110
,
0000
0100
1000
0000
1001
0000
0110
0000
,
0001
0100
0010
1000
0100
0110
0000
0000
,
1000
0100
0010
0001
0100
0110
0000
0000
,
0001
0100
0010
0100
0001
0010
0100
1100
,
0000
1000
0001
0000
0101
0000
1100
0000
,
0001
0100
0010
1000
0100
0110
0000
0000
,
1000
0100
0010
0001
0100
0110
0000
0000
,
0010
1000
0010
0100
0001
1000
0100
0110
,
0000
0010
0001
0000
1010
0000
0011
0000
,
2000
0000
3001
0000
0010
0100
1000
0010
,
0200
0000
0301
0000
0010
0100
0010
0001
,
2000
0000
3010
0000
0100
0001
0100
0010
,
1000
1000
0001
0001
0200
0000
0320
0000
,
2030
0000
3001
0000
0100
0010
0100
0001
,
0020
0000
0031
0000
1000
0100
0010
0100
,
2000
0000
3010
0000
0100
0001
1000
0001
,
0100
0100
0010
0010
2000
0000
3002
0000
,
0013
0010
0100
0100
2000
0000
3002
0000
,
0103
0010
1000
0100
0001
0100
1000
0001
,
0200
0000
0000
0000
,
0320
0000
0000
0030
,
1001
0000
0000
0000
;

//---------------dance-single - ----------------
#NOTES:
     dance-single:
     :
     Easy:
     7:
     0.296,0.321,0.009,0.000,0.000:
0000
0000
0000
0000
,
0000
0000
0000
0000
,
0000
0000
0000
0000
,
0000
0000
0000
0000
,
1000
0000
0001
0000
0100
0100
0000
0000
,
0001
0000
1000
0000
0100
0100
0000
0000
,
1000
0001
0100
0000
,
0010
0000
0010
0000
,
0100
0000
0001
0000
,
0100
0000
1000
0000
,
0100
0000
0001
0000
,
1000
0000
0100
0000
0010
0010
0000
0000
,
0001
0000
1000
0000
0100
0100
0000
0000
,
1000
0000
0001
0000
0100
0100
0000
0000
,
0010
0000
1000
0000
,
0100
0100
0100
0000
,
1000
0000
0001
0000
0010
0010
0000
0000
,
0001
0000
1000
0000
0010
0010
0000
0000
,
1000
0000
0100
0000
,
0010
0010
0001
0000
,
1000
0100
0010
0000
,
0001
0100
0010
0000
,
1000
0010
0100
0000
,
0001
0010
0100
0000
,
1000
0001
0100
0000
,
0001
1000
0100
0000
,
1000
0001
0010
0000
,
0001
1000
0010
0000
,
0100
0001
1000
0000
,
0100
1000
0001
0000
,
0010
0001
1000
0000
,
0010
1000
0100
0010
,
0100
1000
0001
0000
,
0100
0001
1000
0000
,
0010
1000
0100
0010
,
0001
0100
0010
0100
,
0001
0000
1000
0000
,
0100
0010
0100
1000
,
0001
0000
0100
0000
,
0010
0100
0001
0000
,
1000
0000
0100
0000
,
0010
0000
0001
0000
,
1000
0000
0000
0000
,
0001
0000
1000
0001
,
0100
0010
0100
0000
,
0010
0100
0010
0001
,
0100
0010
0100
0000
,
0010
0100
0010
1000
,
0100
0000
0010
0000
,
0001
0100
0010
1000
,
0000
0001
0100
0001
,
0000
1000
0100
1000
,
0001
0000
0100
0000
0010
0010
0000
0000
,
1000
0000
0100
0000
0010
0010
0000
0000
,
0001
0000
0100
0000
,
0010
1000
0001
0000
,
1000
0000
0100
0000
0010
0010
0000
0000
,
0001
0000
0100
0000
0010
0010
0000
0000
,
1000
0000
0001
0000
,
0100
0010
0100
0000
,
0001
0000
0010
0000
0100
0100
0000
0000
,
1000
0000
0010
0000
0100
0100
0000
0000
,
0001
0000
1000
0000
,
0100
0010
0001
0000
,
0010
0000
0100
0000
1000
1000
0000
0000
,
0010
0000
0100
0000
0001
0001
0000
0000
,
1000
0000
0001
0000
,
0100
0010
1000
0000
,
0001
0000
0010
0100
,
1000
0000
0010
0100
,
0001
0000
1000
0001
,
0100
0000
0010
1000
,
0100
0000
0010
0001
,
1000
0000
0010
0100
,
0001
0000
1000
0100
,
0010
0001
0100
0000
,
0010
0001
0100
0000
,
0010
0001
0100
0001
,
0010
0000
0000
0000
,
0100
0000
0000
0000
,
1001
0000
0000
0000
;

//---------------dance-single - ----------------
#NOTES:
     dance-single:
     :
     Beginner:
     2:
     0.115,0.143,0.009,0.000,0.000:
0000
0000
0000
0000
,
0000
0000
0000
0000
,
0000
0000
0000
0000
,
0000
0000
0000
0000
,
0001
0000
0000
0000
,
0100
0000
0000
0000
,
0010
0000
0000
0000
,
1000
0000
0000
0000
,
1000
0000
0000
0000
,
0100
0000
0000
0000
,
0001
0000
0000
0000
,
0010
0000
0000
0000
,
1000
0000
0000
0000
,
0100
0000
0000
0000
,
0010
0000
0000
0000
,
0001
0000
0000
0000
,
0001
0000
0000
0000
,
0100
0000
0000
0000
,
0010
0000
0000
0000
,
1000
0000
0000
0000
,
0100
0000
0000
0000
,
0100
0000
0000
0000
,
0100
0000
0000
0000
,
0010
0000
0010
0000
,
0010
0000
0000
0000
,
0010
0000
0000
0000
,
0010
0000
0000
0000
,
0001
0000
0001
0000
,
0001
0000
0000
0000
,
1000
0000
0000
0000
,
0010
0000
0000
0000
,
0100
0000
0000
0000
,
0001
0000
0000
0000
,
1000
0000
1000
0000
,
1000
0000
0000
0000
,
0001
0000
0001
0000
,
0001
0000
0000
0000
,
0100
0000
0000
0000
,
0010
0000
0000
0000
,
1000
0000
0000
0000
,
1000
0000
0000
0000
,
0100
0000
0000
0000
,
0010
0000
0000
0000
,
0001
0000
0000
0000
,
0100
0000
0000
0000
,
1000
0000
1000
0000
,
0001
0000
0000
0000
,
0001
0000
0001
0000
,
1000
0000
0000
0000
,
0010
0000
0010
0000
,
0000
0000
0100
0000
,
0000
0000
0010
0000
,
0010
0000
0000
0000
,
1000
0000
0000
0000
,
0001
0000
0001
0000
,
0001
0000
0000
0000
,
0010
0000
0000
0000
,
0100
0000
0000
0000
,
1000
0000
1000
0000
,
1000
0000
0000
0000
,
0010
0000
0000
0000
,
0100
0000
0000
0000
,
0001
0000
1000
0000
,
0001
0000
0000
0000
,
0010
0000
0000
0000
,
0100
0000
0000
0000
,
1000
0000
0001
0000
,
1000
0000
0000
0000
,
0100
0000
0000
0000
,
0010
0000
0000
0000
,
0001
0000
0000
0000
,
0010
0000
0000
0000
,
0100
0000
0000
0000
,
1000
0000
0000
0000
,
0010
0000
0000
0000
,
0100
0000
0000
0000
,
0001
0000
0000
0000
,
1000
0000
1000
0000
,
1000
0000
0000
0000
,
0001
0000
0000
0000
,
1001
0000
0000
0000
;

//---------------dance-double - ----------------
#NOTES:
     dance-double:
     :
     Hard:
     13:
     0.709,0.678,0.330,0.303,0.022:
00000000
00000000
00000000
00000000
,
00000000
00000000
00000000
00000000
,
00000000
00000000
00000000
00000000
,
00000000
00000000
00000000
00000000
,
00001000
00010000
00001000
00000000
01000000
01100000
00000000
00000000
,
10000000
00010000
10000000
00000000
01000000
01100000
00000000
00000000
,
00010000
00001000
00010000
00001000
00010000
00001000
00000100
00000010
,
00000000
00000010
00001000
00000000
00001001
00000000
00000110
00000000
,
00000002
00002003
00023000
10030000
,
20000000
30020000
00032000
00003001
,
00000002
00002003
00023000
00230000
,
10300000
00000000
10010000
00000000
00010000
01000000
00000000
00000000
,
00100000
00001000
00010000
00000010
00010000
00011000
00000000
00000000
,
01000000
00001000
00010000
00000100
00010000
00011000
00000000
00000000
,
00001000
00100000
00001000
00100000
01000000
10000000
00100000
01100000
,
00000000
01000000
00010000
00000000
00110000
00000000
00101000
00000000
,
00000010
00010000
00001000
00100000
00001000
00011000
00000000
00000000
,
00000100
00010000
00001000
01000000
00001000
00011000
00000000
00000000
,
00010000
00000010
00010000
00000010
00000100
00000001
00000010
00000110
,
00000000
00000100
00001000
00000000
00001010
00000000
00010010
00000000
,
00020000
00000000
00031000
01000000
00100000
10000000
01000000
00100000
,
00020000
00000000
10030000
01000000
00010000
01000000
00100000
00001000
,
00020000
00000000
00031000
00010000
00001000
00000100
00000010
00001000
,
00000001
00000001
00000010
00000100
00002000
00000000
00003002
00000000
,
00000203
00000000
00001300
00010000
00100000
00010000
00001000
01000000
,
00020000
00000000
00130000
01000000
10000000
01000000
00010000
00001000
,
00020000
00000000
00030010
00000100
00001000
00010000
00001000
00000100
,
00000010
00000010
00010000
00001000
02000000
00000000
03200000
00000000
,
10300000
01000000
10000000
01000000
00100000
00010000
10000000
00010000
,
00000000
00100000
00001000
00100000
00000000
00001000
00010000
00001000
,
00000000
00010000
00000010
00010000
00000000
00000010
00000100
00000010
,
00000000
00001000
00000100
00000010
00000001
00000001
00000010
00000100
,
00001000
00000001
00001000
00000001
00000100
00000010
00010000
00001000
,
00000000
01000000
00010000
01000000
00000000
00010000
00100000
00010000
,
00000000
00100000
01000000
10000000
10000000
00100000
01000000
00010000
,
00000000
00000000
00010000
00000000
00100000
00000000
00010000
00000000
00100000
00000000
00001000
00010000
00001000
00000000
00000100
00000000
,
00000010
00000000
00001000
00000100
00010000
00000100
00000010
00000001
,
00000100
00000000
00000010
00010000
00000010
00001000
00000100
00010000
,
00001000
01000000
00100000
01000000
00001000
00100000
00001000
01000000
,
00100000
10000000
01000000
01000000
00100000
00010000
01000000
01000000
,
00100000
10000000
00010000
01000000
00010000
01000000
00001000
00100000
,
00001000
00010000
00001000
00010000
00000010
00001000
00000010
00000200
,
00000000
00000000
00000000
00000301
00000000
00000000
00001000
00000000
,
00000100
00010000
00001000
00010000
01000000
00100000
00010000
00100000
,
01000000
10000000
10000000
00100000
01000000
01000000
00010000
00100000
,
00100000
00001000
00010000
00000100
00001000
00000010
00000100
00000010
,
00001000
00000001
00000001
00000100
00000010
00000010
00001000
00000100
,
00010000
00001000
00010000
00100000
01000000
00010000
00100000
01000000
,
20000000
00000000
00000000
30010000
01000000
00010000
00100000
00001000
,
00010000
00001000
00000100
00000010
00001000
00000100
00000001
00000100
,
00000000
00010000
00010000
00001000
01000000
00000000
01100000
00000000
,
00000000
00010000
00010000
10000000
01000000
00000000
01100000
00000000
,
00100000
00001000
00010000
00000100
00010000
00011000
00000000
00000000
,
00000010
00010000
00001000
01000000
00001000
00011000
00000000
00000000
,
00010000
01000000
10000000
01000000
00010000
00001000
00000100
00000110
,
00000000
00000010
00001000
00000000
00001010
00000000
00000101
00000000
,
00000001
00000010
00000100
00010000
00000010
00001010
00000000
00000000
,
00010000
00001000
00100000
01000000
10000000
10010000
00000000
00000000
,
00010000
01000000
00001000
01000000
00010000
00000100
00000010
00001010
,
00000000
00001000
00000001
00000000
00000011
00000000
00001100
00000000
,
00010000
00000000
00010000
00000000
00001000
00000000
01000000
00100000
01000000
00000000
01100000
00000000
00000000
00000000
00000000
00000000
,
10000000
00000000
10000000
00000000
01000000
00000000
00100000
00001000
00100000
00000000
00101000
00000000
00000000
00000000
00000000
00000000
,
00001000
00010000
00001000
00000100
00000010
00000100
00000001
00001001
,
00000000
00000001
00000010
00000000
00001100
00000000
00000011
00000000
,
00001000
00000000
00001000
00000000
00000010
00000000
00000100
00000001
00000100
00000000
00000101
00000000
00000000
00000000
00000000
00000000
,
00000010
00000000
00000010
00000000
00010000
00000000
00001000
00100000
00001000
00000000
00101000
00000000
00000000
00000000
00000000
00000000
,
01000000
00100000
10000000
00100000
01000000
00001000
00010000
00011000
,
00000000
00001000
00000100
00000000
00001010
00000000
00000101
00000000
,
00000001
00000010
00000001
00000100
00000010
00001000
00000200
00010000
,
00010300
00001000
01000000
00010000
00100000
01000000
20000000
00010000
,
30010000
01000000
00100000
01000000
00001000
00010000
00001000
00000100
,
00000010
00000010
00001000
00001000
00000002
00000000
00000023
00000000
,
00000130
00010000
00001000
00010000
01000000
00100000
00020000
10000000
,
10030000
00100000
01000000
00100000
00010000
00001000
00000200
00000010
,
00000310
00001000
00000001
00001000
00000100
00010000
00001000
01000000
,
10000000
01000000
00010000
00100000
02000000
00000000
03020000
00000000
,
00031000
00000100
00000001
00000100
00020000
00000000
02030000
00000000
,
03100000
10000000
01000000
00010000
00001000
00000010
00000001
00000100
,
00002000
00000000
00000000
00000000
,
00023000
00000000
00000000
00000000
,
10030000
00000000
00000000
00000000
;

//---------------dance-double - ----------------
#NOTES:
     dance-double:
     :
     Medium:
     10:
     0.510,0.536,0.009,0.125,0.000:
00000000
00000000
00000000
00000000
,
00000000
00000000
00000000
00000000
,
00000000
00000000
00000000
00000000
,
00000000
00000000
00000000
00000000
,
10000000
01000000
10000000
00000000
00010000
01000000
00000000
00000000
,
00001000
00010000
00001000
00000000
00010000
00000100
00000000
00000000
,
00000010
00000001
00001000
00000000
00000010
00001000
00000001
00000010
,
00000000
00000100
00010000
00000000
00001000
00000000
01000000
00000000
,
00200000
10300000
20000000
31000000
,
02000000
03010000
00020000
00031000
,
00001000
00000000
00000100
00000000
00000010
00001000
00000001
00000000
,
00000100
00000000
00011000
00000000
00001000
00010000
00000000
00000000
,
00100000
01000000
00100000
00000000
10000000
00010000
00000000
00000000
,
00100000
01000000
00100000
00000000
00001000
00010000
00000000
00000000
,
00000100
00001000
00000001
00000000
00000100
00000001
00001000
00000100
,
00000000
00000010
00000100
00000000
00010000
00000000
00001000
00000000
,
01000000
00100000
01000000
00000000
00100000
10000000
00000000
00000000
,
00010000
01000000
00010000
00000000
01000000
00001000
00000000
00000000
,
00010000
00000100
00001000
00000000
00000010
00000100
00000001
00001000
,
00000000
00000001
00000100
00000000
00001000
00000000
00010000
00000000
,
00200000
00000000
10000000
00000000
01300000
00000000
00010000
00100000
,
00200000
00000000
00010000
00000000
00301000
00000000
00010000
00000100
,
00002000
00000000
00000010
00000000
00003001
00000000
00000100
00000010
,
00000100
00000001
00001000
00000100
00020000
00000000
00032000
00000000
,
02003000
00000000
00100000
00000000
03010000
00000000
10000000
01000000
,
00200000
00000000
01000000
00000000
00301000
00000000
00010000
00000100
,
00002000
00000000
00000010
00000000
00003001
00000000
00000100
00000010
,
00000100
00000010
00010000
00001000
00020000
00000000
00032000
00000000
,
01003000
00100000
01000000
00000000
00100000
10000000
00000000
00010000
,
00000000
01000000
00001000
01000000
00000000
00001000
00010000
00001000
,
00000000
00010000
00000100
00010000
00000000
00000100
00000010
00000100
,
00000000
00000010
00000001
00000010
00000001
00001000
00000001
00000000
,
00000100
00000010
00000100
00000000
00000010
00001000
00000000
00000100
,
00000000
00010000
00001000
00010000
00000000
00001000
01000000
00001000
,
00000000
01000000
00100000
01000000
00100000
10000000
00100000
10000000
,
00000000
00010000
01000000
00010000
01000000
00010000
00100000
00000000
,
00001000
00000000
00010000
00001000
00010000
00000000
00000100
00001000
,
00000010
00000000
00000100
00000001
00000100
00000000
00001000
00000000
,
00010000
00001000
00000000
00010000
00001000
00000000
00010000
00000000
,
01000000
00000000
10000000
00000000
00010000
00000000
01000000
00100000
,
10000000
00000000
00010000
00000000
00100000
01000000
10000000
00000000
,
00010000
00000000
01000000
00000000
00001000
00010000
00001000
00010000
,
00000000
00000000
00000000
00000100
00000000
00000000
00001000
00000000
,
00000010
00000000
00000100
00000000
00000001
00000010
00000100
00000000
,
00001000
00000000
00000100
00010000
00000000
00001000
01000000
00000000
,
00010000
00100000
00000000
01000000
10000000
00010000
01000000
00000000
,
00100000
00000000
01000000
00010000
00000000
00100000
00001000
00000000
,
00010000
00000100
00010000
00000000
00000100
00001000
00000100
00000000
,
00001000
00000000
00000010
00000000
00000100
00000001
00001000
00000000
,
00000100
00000000
00000010
00000000
00000100
00010000
00001000
01000000
,
00000000
00010000
01000000
00010000
01000000
00000000
00100000
00000000
,
00000000
10000000
01000000
10000000
01000000
00000000
00100000
00000000
,
00001000
00010000
00001000
00000000
00010000
00000100
00000000
00000000
,
00001000
00000010
00001000
00000000
00000010
00000100
00000000
00000000
,
00000001
00000000
00000010
00000000
00000100
00000000
00010000
00001000
,
00000000
00001000
01000000
00000000
00100000
00000000
10000000
00000000
,
01000000
00100000
01000000
00000000
10000000
00010000
00000000
00000000
,
01000000
00100000
01000000
00000000
00010000
10000000
00000000
00000000
,
01000000
00000000
00010000
00000000
00001000
00000000
00000100
00000010
,
00000000
00000010
00001000
00000000
00000001
00000000
00000010
00000000
,
00000100
00010000
00000100
00000000
00010000
00001000
00000000
00000000
,
01000000
00010000
01000000
00000000
00010000
00100000
00000000
00000000
,
01000000
10000000
01000000
00000000
10000000
00010000
10000000
00010000
,
00000000
01000000
00001000
00000000
00010000
00000000
00000100
00000000
,
00001000
00000010
00001000
00000000
00000010
00000100
00000000
00000000
,
00000001
00001000
00000001
00000000
00000010
00000100
00000000
00000000
,
00010000
00001000
00010000
00000000
00001000
01000000
00001000
01000000
,
00000000
00100000
10000000
00000000
00010000
00000000
00100000
00000000
,
01000000
00000000
10000000
00000000
01000000
00000000
00010000
00001000
,
00010000
00000000
00001000
00000000
00000100
00000000
00000010
00001000
,
00000010
00000000
00000100
00000000
00001000
00000000
00010000
00001000
,
00010000
00001000
01000000
00100000
,
10000000
00000000
00010000
00000000
01000000
00000000
00001000
00010000
,
00001000
00000000
00010000
00000000
00000010
00000000
00000100
00000001
,
00000100
00000000
00000010
00000000
00010000
00000000
00001000
00100000
,
00001000
01000000
00100000
10000000
,
00010000
00100000
00010000
00000000
01000000
00000000
00001000
00000000
,
00010000
00000100
00001000
00000000
00000010
00000100
00000001
00000000
,
00001000
00000000
00000000
00000000
,
00010000
00000000
00000000
00000000
,
10000000
00000000
00000000
00000000
;

//---------------dance-double - ----------------
#NOTES:
     dance-double:
     :
     Easy:
     6:
     0.295,0.321,0.009,0.027,0.000: // measure 1
00000000
00000000
00000000
00000000
,  // measure 2
00000000
00000000
00000000
00000000
,  // measure 3
00000000
00000000
00000000
00000000
,  // measure 4
00000000
00000000
00000000
00000000
,  // measure 5
10000000
00000000
01000000
00000000
00100000
00100000
00000000
00000000
,  // measure 6
00010000
00000000
01000000
00000000
00001000
00001000
00000000
00000000
,  // measure 7
00010000
00000100
00001000
00000010
,  // measure 8
00000100
00000001
00001000
00000000
,  // measure 9
00000001
00000000
00000100
00000000
,  // measure 10
00001000
00000000
00010000
00000000
,  // measure 11
00100000
00000000
10000000
00000000
,  // measure 12
00010000
00000000
10000000
00000000
00010000
00010000
00000000
00000000
,  // measure 13
10000000
00000000
01000000
00000000
00100000
00100000
00000000
00000000
,  // measure 14
00010000
00000000
01000000
00000000
00001000
00001000
00000000
00000000
,  // measure 15
00010000
00000100
00001000
00000010
,  // measure 16
00000100
00000001
00001000
00000000
,  // measure 17
00000001
00000000
00000100
00000000
00000010
00000010
00000000
00000000
,  // measure 18
00001000
00000000
00000100
00000000
00010000
00010000
00000000
00000000
,  // measure 19
00001000
01000000
00010000
00100000
,  // measure 20
01000000
10000000
00010000
00000000
,  // measure 21
10000000
00000000
00010000
01000000
,  // measure 22
00001000
00000000
00010000
00000100
,  // measure 23
00001000
00000000
00000010
00000100
,  // measure 24
00000001
00000000
00001000
00000100
,  // measure 25
00010000
00000000
00001000
01000000
,  // measure 26
00100000
00000000
10000000
01000000
,  // measure 27
00100000
00000000
00001000
00010000
,  // measure 28
00000100
00000000
00001000
00000000
,  // measure 29
00000010
00000100
00000001
00000000
,  // measure 30
00000010
00000000
00000001
00000000
,  // measure 31
00000100
00000000
00000010
00000000
,  // measure 32
00010000
00001000
00100000
00000000
,  // measure 33
00010000
01000000
00100000
00000000
,  // measure 34
10000000
00000000
01000000
00000000
,  // measure 35
00100000
00000000
00001000
00000000
,  // measure 36
00010000
00000100
00001000
00000010
,  // measure 37
00000200
00000000
00000300
00000000
,  // measure 38
00000002
00000000
00000003
00000000
,  // measure 39
00002000
00000000
00003000
00000000
,  // measure 40
00000100
00010000
00001000
00100000
,  // measure 41
00010000
00000000
00000000
00000000
,  // measure 42
01000000
00000000
00000000
00000000
,  // measure 43
00100000
00000000
10000000
00000000
,  // measure 44
00010000
00100000
01000000
10000000
,  // measure 45
00010000
00000000
01000000
00000000
,  // measure 46
00001000
00010000
00000100
00000000
,  // measure 47
00001000
00000000
00000010
00000000
,  // measure 48
00000100
00000001
00001000
00000000
,  // measure 49
00000100
00000000
00010000
00000000
,  // measure 50
00001000
00000000
00010000
00000000
,  // measure 51
00100000
01000000
00010000
00000000
,  // measure 52
00100000
01000000
10000000
00000000
,  // measure 53
10000000
00000000
01000000
00000000
00100000
00100000
00000000
00000000
,  // measure 54
00010000
00000000
01000000
00000000
00001000
00001000
00000000
00000000
,  // measure 55
00010000
00000100
00001000
00000010
,  // measure 56
00000100
00000001
00001000
00000000
,  // measure 57
00000001
00000000
00000100
00000000
00000010
00000010
00000000
00000000
,  // measure 58
00001000
00000000
00000100
00000000
00010000
00010000
00000000
00000000
,  // measure 59
00001000
01000000
00010000
00100000
,  // measure 60
01000000
10000000
00010000
00000000
,  // measure 61
10000000
00000000
00100000
00000000
01000000
01000000
00000000
00000000
,  // measure 62
00010000
00000000
00100000
00000000
00001000
00001000
00000000
00000000
,  // measure 63
00010000
00000010
00001000
00000100
,  // measure 64
00000010
00000001
00001000
00000000
,  // measure 65
00000001
00000000
00000010
00000000
00000100
00000100
00000000
00000000
,  // measure 66
00001000
00000000
00000010
00000000
00010000
00010000
00000000
00000000
,  // measure 67
00001000
00100000
00010000
01000000
,  // measure 68
00100000
10000000
00010000
00000000
,  // measure 69
10000000
00000000
01000000
00100000
,  // measure 70
00001000
00000000
00010000
00000100
,  // measure 71
00000010
00000000
00000001
00000100
,  // measure 72
00000010
00000000
00001000
00000000
,  // measure 73
00000100
00000000
00010000
00001000
,  // measure 74
01000000
00000000
00010000
00100000
,  // measure 75
01000000
00000000
10000000
00100000
,  // measure 76
01000000
00000000
00100000
10000000
,  // measure 77
00010000
00000000
01000000
00001000
,  // measure 78
00010000
00000100
00010000
00000100
,  // measure 79
00001000
00000000
00000000
00000000
,  // measure 80
00000001
00000000
00000000
00000000
,  // measure 81
00001001
00000000
00000000
00000000
;
