#TITLE:airflow;
#SUBTITLE:;
#ARTIST:Mr.T;
#TITLETRANSLIT:;
#SUBTITLETRANSLIT:;
#ARTISTTRANSLIT:;
#GENRE:;
#CREDIT:Silverhawke;
#MENUCOLOR:;
#METERTYPE:DDR;
#BANNER:airflow.png;
#BACKGROUND:airflow-bg.png;
#LYRICSPATH:;
#CDTITLE:cdtitle.png;
#MUSIC:airflow.mp3;
#OFFSET:-1.647;
#SAMPLESTART:14.600;
#SAMPLELENGTH:15.000;
#SELECTABLE:YES;
#LISTSORT:;
#BPMS:0.000=148.000,244.000=142.000,248.000=137.000,252.000=131.000,254.000=118.000,255.000=105.000,256.000=124.000,257.000=109.000,258.000=95.000,259.000=75.000,260.000=70.000;
#STOPS:;
#BGCHANGES:0.000=airflow.avi=1.000=1=0=0,
99999=-nosongbg-=1.000=0=0=0 // don't automatically add -songbackground-
;
#ATTACKS:;

//---------------dance-single - ----------------
#NOTES:
     dance-single:
     :
     Hard:
     11:
     0.560,0.518,0.652,0.502,0.066:
0000
0000
0000
0000
,
0000
0000
0000
0000
,
0000
0000
0000
0000
,
0000
0000
0000
0000
,
1002
0000
0000
0000
,
0023
0000
0000
0000
0000
0000
0030
0100
,
0210
0000
0000
0000
,
2300
0000
0000
3001
,
0201
0310
0100
1001
,
0012
0013
0100
1000
,
2010
0000
3010
0000
0100
0000
0001
0010
,
0110
1000
1001
0001
,
0201
0000
0310
0000
0100
0001
0010
0100
,
1200
1300
1010
0110
,
0201
0000
0301
0000
0010
0100
1000
0100
,
0010
0001
0100
1000
0100
0001
0010
0100
,
2100
3001
0100
1010
,
0102
0013
0100
1100
,
1002
0000
0013
0000
0100
0000
1000
0100
,
0120
0031
0101
1100
,
1020
0130
0201
0310
,
1100
0000
0102
0000
0013
0000
0100
1000
,
0001
0100
1000
0100
0001
1000
0100
0010
,
2002
0000
3003
0000
0110
0000
1001
0001
,
0020
0130
2000
3002
,
0203
0000
0000
0000
0310
0000
1000
0001
1000
0000
0000
0000
0100
0000
0000
0000
,
1100
0110
0011
1001
,
0110
1000
0100
0010
0001
0010
0100
1000
,
0002
0103
0020
2030
,
3200
0000
0000
0000
0310
0000
0001
1000
0001
0000
0000
0000
0100
0000
0000
0000
,
0020
0000
0000
0000
1030
0000
0001
0010
0001
0000
0000
0000
0001
0000
1000
0100
,
1000
0000
0000
0000
0001
0000
0100
0000
1000
0000
0100
0000
0010
0000
1000
0100
,
1000
0110
0011
0101
,
0110
0000
0000
0000
1010
0000
0000
0000
1200
0000
0000
0000
0310
0000
0001
1000
,
0200
0320
0032
0203
,
0310
0000
0000
0000
1010
0000
0000
0000
0210
0000
0000
0000
0301
0000
1000
0100
,
0010
0011
0101
0110
,
1010
0000
0000
0000
1100
0000
0000
0000
0110
0000
0000
0000
0010
0000
0001
1000
,
0200
0000
0000
0000
0000
0000
0310
0001
2000
0000
0000
0000
3020
0000
0000
0000
,
0230
0000
0000
0000
0000
0000
0301
1000
0002
0000
0000
0000
0000
0000
0013
0100
,
2000
0000
0000
0000
0000
0000
3001
0100
0020
0000
0000
0000
0000
0000
0000
0000
,
0130
0000
0000
1001
,
1200
0310
0100
1001
,
2010
3010
0100
0001
,
0012
0000
0013
0000
0100
0000
1000
0010
,
0110
0001
1001
1000
,
1200
0000
0310
0000
0100
1000
0010
0100
,
0201
0301
0011
0110
,
1200
0000
1300
0000
0010
0100
0001
0100
,
0010
1000
0100
0001
0100
1000
0010
0100
,
0102
1003
0100
0011
,
2100
3010
0100
0101
,
2001
0000
3010
0000
0100
0000
0001
0100
,
0120
1030
1100
0110
,
0021
0130
1200
0310
,
0101
0000
2100
0000
3010
0000
0100
0001
,
1000
0100
0001
0100
1000
0001
0100
0010
,
1000
0010
0001
0010
1000
0001
0010
1000
,
0010
0001
0100
0010
1000
0100
0001
0100
,
2002
0000
0000
0000
3003
0000
0001
0100
,
0110
0000
0010
0000
0001
0000
0010
0000
1000
0000
0000
0000
0001
0000
0010
0100
,
0010
0000
0001
0000
0100
0000
1000
0000
0100
0000
0000
0000
0010
0000
1000
0001
,
1000
0000
0100
0000
0010
0000
0001
0000
0100
0000
0000
0000
1000
0000
0100
0010
,
0100
0001
1000
0100
0010
0000
0000
0001
,
1001
0100
0010
0001
0100
0010
1000
0001
,
0020
0000
0000
0130
0000
0000
0000
0000
;

//---------------dance-single - ----------------
#NOTES:
     dance-single:
     :
     Medium:
     8:
     0.352,0.374,0.097,0.088,0.000:
0000
0000
0000
0000
,
0000
0000
0000
0000
,
0000
0000
0000
0000
,
0000
0000
0000
0000
,
1002
0000
0000
0000
,
0100
0000
0000
0000
0003
0000
0000
0001
,
2001
0000
0000
0000
,
0100
0000
3001
1001
,
1000
0100
0100
0010
,
0001
0100
0100
0010
,
1000
0000
0001
0000
0001
0000
0010
0100
,
1000
0001
1001
0000
,
1000
0000
0100
0000
0010
0100
0010
0001
,
1000
0001
0100
0010
,
1000
0000
0001
0000
1000
0100
1000
0001
,
0100
0000
0010
0000
1000
0100
0010
0000
,
0001
0100
0100
0010
,
1000
0100
0100
0010
,
0001
0000
1000
0000
1000
0000
0010
0100
,
0001
1000
0100
0010
,
0001
0100
0010
0100
,
0001
0000
1000
0000
0100
0000
0010
0001
,
1000
0000
1000
0000
0001
0100
0001
1000
,
0200
0000
0310
0010
,
0001
1000
0100
0010
,
0100
0000
1000
0001
0100
0000
0010
0000
,
0100
0001
0101
1000
,
1200
0000
0010
0000
0310
0000
0001
1000
,
0100
0010
0001
0100
,
0010
0000
0100
0001
1000
0000
0100
0000
,
0020
0000
0000
0130
0002
0000
0000
0103
,
1000
0000
0001
0000
1001
0000
0010
1000
,
0100
0010
0001
0100
,
1000
0000
0010
0000
0001
0000
1000
0100
,
0010
0001
0100
1000
,
0100
0000
0001
0000
1001
0000
0000
1000
,
0001
0100
0010
0100
,
1000
0000
0100
0000
0001
0000
1000
0100
,
0010
0001
0100
0001
,
0020
0000
0000
0130
2000
0000
0000
3100
,
0020
0000
0000
0031
0200
0000
0000
0000
,
0300
0000
0000
1001
,
0001
0010
0010
0100
,
1000
0010
0010
0100
,
0001
0000
1000
0000
1000
0000
0100
0010
,
0001
1000
1001
0000
,
0001
0000
0010
0000
0100
0010
0100
1000
,
0001
1000
0010
0100
,
0001
0000
1000
0000
0001
0010
0001
1000
,
0010
0000
0100
0000
0001
0010
0100
0000
,
1000
0010
0010
0100
,
0001
0010
0010
0100
,
1000
0000
0001
0000
0001
0000
0100
0010
,
1000
0001
0010
0100
,
1000
0010
0100
0010
,
1000
0000
0001
0000
0010
0000
0100
1000
,
0001
0000
0001
0000
1000
0010
1000
0000
,
0001
0000
0100
0000
0001
0010
0001
0000
,
1000
0000
0100
0000
0010
0001
1000
0000
,
1001
0000
0000
0000
0000
0000
0001
1000
,
0100
0000
0001
0000
0100
0000
1000
0001
,
0100
0000
1000
0000
0100
0000
0001
0010
,
0100
0000
1000
0000
0010
0000
1000
0010
,
0100
0000
0001
0000
0010
0000
0000
0100
,
0100
1000
0010
0001
,
0100
0000
0000
0010
0000
0000
0000
0000
;

//---------------dance-single - ----------------
#NOTES:
     dance-single:
     :
     Easy:
     4:
     0.201,0.259,0.026,0.009,0.000:
0000
0000
0000
0000
,
0000
0000
0000
0000
,
0000
0000
0000
0000
,
0000
0000
0000
0000
,
1000
0000
0000
0000
,
0100
0000
0000
0000
0000
0000
0000
0010
,
0010
0000
0000
0000
,
0001
0000
1000
1000
,
0001
0000
0000
0100
,
0010
0000
0000
1000
,
0100
0000
0000
0000
0000
0000
0010
0001
,
0010
0000
0001
0000
,
1000
0000
0000
0000
0000
0000
0100
0010
,
0100
0000
0001
1000
,
0001
0000
0000
0000
0000
0000
1000
0100
,
1000
0000
0000
0000
,
0001
0000
0000
0100
,
0010
0000
0000
1000
,
0001
0000
0000
0000
0000
0000
0010
0100
,
1000
0000
0010
0100
,
0001
0000
1000
0100
,
0010
0000
0001
0000
0000
0000
0100
0010
,
0100
0000
0000
0000
,
1001
0000
0001
1000
,
0001
0000
0010
0100
,
1000
0000
0001
0100
,
0010
0100
0001
0100
,
0010
0000
0000
0000
0000
0000
1000
0100
,
1000
0000
0001
0100
,
0010
0000
0100
0001
,
1000
0000
0001
0000
,
1001
0000
0000
0000
,
0001
0010
0100
1000
,
0001
0100
0010
0000
,
1000
0010
0100
0001
,
1000
0100
0010
0000
,
0001
0100
0010
1000
,
0010
0100
0001
1000
,
0001
0000
1000
0000
,
0100
0000
0010
0000
,
0001
0000
0100
0000
,
0110
0000
0000
1000
,
0001
0000
0000
0010
,
0100
0000
0000
1000
,
0010
0000
0000
0000
0000
0000
0100
0001
,
0100
0000
0010
0000
,
1000
0000
0000
0000
0000
0000
0001
0010
,
0001
0000
0010
0100
,
1000
0000
0000
0000
0000
0000
0001
0100
,
0001
0000
0000
0000
,
1000
0000
0000
0100
,
0010
0000
0000
0001
,
0100
0000
0000
0000
0000
0000
0010
1000
,
0001
0000
1000
0100
,
0010
0000
0001
0100
,
0010
0000
0100
0000
0000
0000
0001
1000
,
0001
0000
0000
0000
,
1000
0000
1000
0000
,
1000
0100
0010
0001
,
1000
0000
0000
0001
,
0001
1000
0001
0000
,
1000
0001
1000
0000
,
0010
0100
0010
0000
,
1000
0000
0100
0000
,
0020
0000
0000
0000
,
0000
0000
0000
0030
0000
0000
0000
0000
;

//---------------dance-single - ----------------
#NOTES:
     dance-single:
     :
     Beginner:
     1:
     0.074,0.115,0.000,0.009,0.000:
0000
0000
0000
0000
,
0000
0000
0000
0000
,
0000
0000
0000
0000
,
0000
0000
0000
0000
,
1000
0000
0000
0000
,
0000
0000
0000
0000
,
0001
0000
0000
0000
,
0000
0000
0000
0000
,
1000
0000
0000
0000
,
1000
0000
0000
0000
,
0001
0000
0000
0000
,
0001
0000
0000
0000
,
0100
0000
0000
0000
,
0100
0000
0000
0000
,
0010
0000
0000
0000
,
0010
0000
0000
0000
,
1000
0000
0000
0000
,
1000
0000
0000
0000
,
0100
0000
0000
0000
,
0100
0000
0000
0000
,
0010
0000
0000
0000
,
0010
0000
0000
0000
,
0001
0000
0000
0000
,
0001
0000
0000
0000
,
1000
0000
0000
0000
,
0000
0000
0000
0000
,
1000
0000
1000
0000
,
1000
0000
0000
0000
,
0001
0000
0000
0000
,
0001
0000
0001
0000
,
0001
0000
0001
0000
,
0001
0000
0000
0000
,
0100
0000
0000
0000
,
0010
0000
0000
0000
,
0100
0000
0000
0000
,
0100
0000
0000
0000
,
0010
0000
0000
0000
,
0100
0000
0000
0000
,
0010
0000
0000
0000
,
0010
0000
0000
0000
,
1000
0000
0000
0000
,
0000
0000
0000
0000
,
1000
0000
0000
0000
,
1000
0000
0000
0000
,
0001
0000
0000
0000
,
0001
0000
0000
0000
,
0100
0000
0000
0000
,
0100
0000
0000
0000
,
0010
0000
0000
0000
,
0010
0000
0000
0000
,
1000
0000
0000
0000
,
1000
0000
0000
0000
,
0100
0000
0000
0000
,
0100
0000
0000
0000
,
0010
0000
0000
0000
,
0010
0000
0000
0000
,
0001
0000
0000
0000
,
0001
0000
0000
0000
,
1000
0000
0000
0000
,
1000
0000
0000
0000
,
0010
0000
0000
0000
,
0000
0000
0000
0000
,
0100
0000
0000
0000
,
0000
0000
0000
0000
,
0200
0000
0000
0000
,
0000
0000
0000
0300
0000
0000
0000
0000
;

//---------------dance-double - ----------------
#NOTES:
     dance-double:
     :
     Hard:
     11:
     0.502,0.518,0.643,0.255,0.066:
00000000
00000000
00000000
00000000
,
00000000
00000000
00000000
00000000
,
00000000
00000000
00000000
00000000
,
00000000
00000000
00000000
00000000
00000000
00000000
00000000
00001000
,
02001000
00000000
00000000
00000000
,
03200000
00000000
00000000
00000000
00000000
00000000
00300000
10000000
,
12000000
00000000
00000000
00000000
,
03020000
00000000
00001000
00031000
,
00001100
00000100
00000001
00000011
,
00000110
00000100
00010000
00011000
,
01001000
00000000
01000000
00000000
00100000
00000000
10000000
01000000
,
01010000
00010000
00011000
00001000
,
00001100
00000000
00000100
00000000
00000010
00001000
00000100
00000010
,
00000011
00000001
00000101
00000110
,
00010010
00000000
00010000
00000000
00001000
01000000
00100000
10000000
,
11000000
01000000
00001000
01000000
10000000
00100000
00010000
00001000
,
01001000
01000000
00100000
10100000
,
11000000
01000000
00010000
00011000
,
00001100
00000000
00000100
00000000
00000010
00000000
00010000
01000000
,
01100000
00100000
00001000
00000100
,
00000110
00000010
00001000
00000100
,
00010100
00000000
00011000
00000000
00001000
00000000
01000000
00100000
,
01000000
00001000
00000100
00000001
00000010
00001000
00010000
01000000
,
11000000
00000000
00000000
00000000
01010000
00000000
10010000
10000000
,
02000000
03010000
00002000
00003200
,
00000320
00000000
00000000
00000000
00001030
00000000
00000001
00000100
00000001
00000000
00000000
00000000
00000010
00000000
00000000
00000000
,
00000110
00010100
00011000
01001000
,
01100000
00100000
00010000
00001000
00000100
00000010
00010000
01000000
,
20000000
30010000
02000000
03002000
,
00003200
00000000
00000000
00000000
00000310
00000000
00001000
00000001
00002000
00000000
00000000
00000000
00003200
00000000
00000000
00000000
,
00020300
00000000
00000000
00000000
00000000
00000000
00031000
01000000
00002000
00000000
00000000
00000000
00000000
00000000
00103000
01000000
,
00200000
00000000
00000000
00000000
00010000
00000000
00000000
00000000
00010000
00000000
00000000
00000000
00310000
00000000
10000000
01000000
,
10000000
11000000
01000000
01010000
,
00010000
00000000
00000000
00000000
00011000
00000000
00000000
00000000
00002000
00000000
00000000
00000000
00000000
00000000
00003100
00000010
,
00000100
00000101
00000001
00001001
,
00011000
00000000
00000000
00000000
10010000
00000000
00000000
00000000
01200000
00000000
00000000
00000000
00000000
00000000
10300000
01000000
,
10000000
11000000
01000000
01010000
,
00011000
00000000
00000000
00000000
00001100
00000000
00000000
00000000
00000110
00000000
00000000
00000000
00000010
00000000
00010000
00001000
,
00020000
00000000
00000000
00000000
00000000
00000000
00031000
01000000
00200000
00000000
00000000
00000000
10000000
00000000
00000000
00000000
,
20300000
00000000
00000000
00000000
00000000
00000000
31000000
00100000
02000000
00000000
00000000
00000000
00000000
00000000
03100000
00001000
,
00020000
00000000
00000000
00000000
00000000
00000000
00031000
00000100
00000020
00000000
00000000
00000000
00000000
00000000
00000030
00000000
,
00002002
00000000
00000000
00003003
,
00000101
00000100
00000001
00000011
,
00000110
00000100
00010000
00011000
,
01001000
00000000
01000000
00000000
00100000
00000000
10000000
01000000
,
01010000
00010000
00011000
00001000
,
00001100
00000000
00000100
00000000
00000010
00001000
00000100
00000010
,
00000011
00000001
00000101
00000110
,
00010010
00000000
00010000
00000000
00001000
01000000
00100000
10000000
,
11000000
01000000
00001000
01000000
10000000
00100000
00010000
00001000
,
01001000
01000000
00100000
10100000
,
11000000
01000000
00010000
00011000
,
00001100
00000000
00000100
00000000
00000010
00000000
00010000
01000000
,
01100000
00100000
00001000
00000100
,
00000110
00000010
00001000
00000100
,
00010100
00000000
00011000
00000000
00001000
00000000
01000000
00100000
,
01000000
00001000
00000100
00000001
00000010
00001000
00010000
01000000
,
10000000
00100000
00010000
00001000
00010000
01000000
10000000
00100000
,
10000000
01000000
00010000
00001000
00000010
00001000
00010000
00001000
,
00000200
00000000
00000000
00000000
00000000
00000000
00000301
00000010
,
00000100
00000000
00000000
00000000
00010100
00000000
00000000
00000000
01001000
00000000
00000000
00000000
00000000
00000000
00010000
10000000
,
00010000
00000000
00000000
00000000
01100000
00000000
00000000
00000000
10010000
00000000
00000000
00000000
00000000
00000000
10000000
01000000
,
00100000
00000000
00000000
00000000
00000000
00000000
00000000
00000000
00001000
00000000
00000000
00000000
00000100
00000000
00000010
00001000
,
00000010
00000000
00000000
00000000
00000100
00000000
00000000
00000001
,
00001001
00000100
00001000
00010000
00100000
10000000
00010000
00100000
,
02000000
00000000
00000000
13000000
00000000
00000000
00000000
00000000
;

//---------------dance-double - ----------------
#NOTES:
     dance-double:
     :
     Medium:
     8:
     0.445,0.432,0.035,0.836,0.000: // measure 1
00000000
00000000
00000000
00000000
,  // measure 2
00000000
00000000
00000000
00000000
,  // measure 3
00000000
00000000
00000000
00000000
,  // measure 4
00000000
00000000
00000000
00000000
,  // measure 5
20000000
00000000
00000000
00000000
,  // measure 6
32000000
00000000
00000000
00000000
00000000
00000000
00000000
03010000
,  // measure 7
00020000
00000000
00000000
00000000
,  // measure 8
00032000
00000000
00000000
00003000
,  // measure 9
00000200
00000301
00000010
00000200
,  // measure 10
00020300
00031000
01000000
00200000
,  // measure 11
20300000
00000000
30010000
00000000
00100000
00000000
00001000
00010000
,  // measure 12
00000200
00000310
00000002
00000103
,  // measure 13
00000020
00000000
00001030
00000000
00000100
00010000
00001000
00010000
,  // measure 14
00000200
00001300
02000000
23000000
,  // measure 15
30020000
00000000
01030000
00000000
00100000
10000000
01000000
10000000
,  // measure 16
00200000
00000000
10000000
00000000
01300000
00000000
00010000
00100000
,  // measure 17
02000000
13000000
01000000
00020000
,  // measure 18
00032000
00003100
00000001
00002000
,  // measure 19
00003200
00000000
00000310
00000000
00000001
00000000
00000100
00000010
,  // measure 20
00020000
00031000
02000000
03200000
,  // measure 21
20300000
30010000
02000000
03002000
,  // measure 22
00023000
00000000
00030200
00000000
00000310
00000000
00000001
00000100
,  // measure 23
00000002
00001000
00001000
00001003
,  // measure 24
00002002
00003003
00001100
00010100
,  // measure 25
00020000
00031000
02000000
03200000
,  // measure 26
20300000
00000000
30010000
01000000
00100000
00000000
01000000
00000000
,  // measure 27
00020000
02030000
03002000
00023000
,  // measure 28
00030200
00000000
00001300
00000000
00000010
00000000
00000100
00000001
,  // measure 29
00002000
00003100
00020000
00032000
,  // measure 30
02003000
00000000
03010000
10000000
01000000
00000000
00100000
00000000
,  // measure 31
00020000
00000000
00030000
01000000
00002000
00000000
00003000
00010000
,  // measure 32
00000200
00000000
00000010
00000000
00000310
00000000
00000001
00001000
,  // measure 33
00000200
00000010
00001000
00000310
,  // measure 34
00000002
00000000
00000203
00000000
00000320
00000000
00000030
00001000
,  // measure 35
00000200
00010000
00001000
00010300
,  // measure 36
00002000
00000000
02003000
00000000
03200000
00000000
00300000
10000000
,  // measure 37
02000000
00100000
10000000
03100000
,  // measure 38
00002000
00000000
00023000
00000000
00030200
00000000
00001300
00000010
,  // measure 39
00000200
00000000
00000300
00000010
00002000
00000000
00003001
00000000
,  // measure 40
00000001
00000000
00000000
00001000
00000200
00000000
00000300
00010000
,  // measure 41
00020000
00000000
00030000
00001000
00200000
00000000
00300000
00000000
,  // measure 42
00020000
00000000
00000000
10030000
,  // measure 43
02000000
13000000
00100000
02000000
,  // measure 44
03002000
00013000
00000100
00000020
,  // measure 45
00000032
00000000
00001003
00000000
00000010
00000000
00010000
00001000
,  // measure 46
02000000
03100000
20000000
31000000
,  // measure 47
00200000
00000000
00310000
00000000
01000000
00001000
00010000
00001000
,  // measure 48
02000000
03010000
00000200
00000302
,  // measure 49
00002003
00000000
00003100
00000000
00000010
00000001
00000100
00000001
,  // measure 50
00000020
00000000
00000001
00000000
00000130
00000000
00001000
00000010
,  // measure 51
00000200
00000301
00000100
00002000
,  // measure 52
00023000
01030000
10000000
00020000
,  // measure 53
02030000
00000000
03100000
00000000
10000000
00000000
01000000
00100000
,  // measure 54
00002000
00013000
00000200
00000320
,  // measure 55
00000032
00001003
00000200
00020300
,  // measure 56
00032000
00000000
02003000
00000000
03100000
00000000
10000000
01000000
,  // measure 57
10000000
01000000
00010000
00001000
,  // measure 58
00000010
00000000
00000001
00000100
00000001
00000000
00000010
00000000
,  // measure 59
00001000
00010000
01000000
10000000
,  // measure 60
20020000
00000000
00000000
00000000
30030000
00000000
10000000
01000000
,  // measure 61
00100000
00000000
00001000
00000000
00010000
00000000
00000100
00000010
,  // measure 62
00000001
00000000
00000100
00000000
00000010
00000000
00010000
00001000
,  // measure 63
01000000
00000000
00100000
00000000
10000000
00000000
01000000
00100000
,  // measure 64
00001000
00000000
00010000
00000000
00000100
00000000
00000000
00000010
,  // measure 65
00000001
00000100
00001000
00010000
,  // measure 66
00100000
00000000
00000000
10000000
00000000
00000000
00000000
00000000
;

//---------------dance-double - ----------------
#NOTES:
     dance-double:
     :
     Easy:
     5:
     0.255,0.288,0.000,0.070,0.000: // measure 1
00000000
00000000
00000000
00000000
,  // measure 2
00000000
00000000
00000000
00000000
,  // measure 3
00000000
00000000
00000000
00000000
,  // measure 4
00000000
00000000
00000000
00000000
,  // measure 5
00000002
00000000
00000003
00000000
,  // measure 6
00000020
00000000
00000030
00000000
,  // measure 7
00000200
00000000
00000300
00000000
,  // measure 8
00020000
00000000
00031000
00001000
,  // measure 9
00001000
01000000
00001000
01000000
,  // measure 10
00010000
00100000
00010000
00000000
,  // measure 11
10000000
01000000
10000000
01000000
,  // measure 12
00100000
00001000
00010000
00000000
,  // measure 13
00000100
00000000
00000100
00001000
,  // measure 14
00000010
00000100
00000001
00000000
,  // measure 15
00000010
00000001
00000100
00000010
,  // measure 16
00010000
00010000
00001000
00000000
,  // measure 17
01000000
00010000
00100000
00010000
,  // measure 18
10000000
00000000
01000000
00100000
,  // measure 19
00010000
00000000
00001000
00000100
,  // measure 20
00000010
00000000
00000001
00000100
,  // measure 21
00000001
00000000
00001000
00000100
,  // measure 22
00010000
00001000
00000000
01000000
,  // measure 23
00010000
00000000
00010000
00000000
00100000
01000000
00100000
00000000
,  // measure 24
00020000
00000000
10030000
10000000
,  // measure 25
00010000
01000000
00001000
00001000
,  // measure 26
00010000
00000000
00000100
00001000
,  // measure 27
00000010
00000010
00000100
00000100
,  // measure 28
00000001
00000000
00001000
00000100
,  // measure 29
00010000
00000000
00001000
01000000
,  // measure 30
00100000
10000000
01000000
00100000
,  // measure 31
00010000
00000000
01000000
00000000
,  // measure 32
00200000
00000000
00300000
00000000
,  // measure 33
10000000
10000000
01000000
00100000
,  // measure 34
00010000
01000000
00010000
00000000
,  // measure 35
01000000
00001000
00010000
00000100
,  // measure 36
00000010
00000001
00000100
00000000
,  // measure 37
00000001
00000100
00001000
00010000
,  // measure 38
00100000
10000000
00010000
10000000
,  // measure 39
01000000
00000000
00100000
00001000
,  // measure 40
00010000
00000000
00000100
00000000
,  // measure 41
00000010
00000000
00000001
00000100
,  // measure 42
00000020
00000000
00000000
00000130
,  // measure 43
00001000
01000000
00001000
01000000
,  // measure 44
00010000
00100000
00010000
00000000
,  // measure 45
10000000
01000000
10000000
01000000
,  // measure 46
00100000
00001000
00010000
00000000
,  // measure 47
00000100
00000000
00000100
00001000
,  // measure 48
00000010
00000100
00000001
00000000
,  // measure 49
00000010
00000001
00000100
00000010
,  // measure 50
00010000
00010000
00001000
00000000
,  // measure 51
01000000
00010000
00100000
00010000
,  // measure 52
10000000
00000000
01000000
00100000
,  // measure 53
00010000
00000000
00001000
00000100
,  // measure 54
00000010
00000000
00000001
00000100
,  // measure 55
00000001
00000000
00001000
00000100
,  // measure 56
00010000
00001000
00000000
01000000
,  // measure 57
00010000
00000000
00010000
00000000
00100000
01000000
00100000
00000000
,  // measure 58
00010000
10000000
00010000
10000000
,  // measure 59
00010000
00000000
00010000
00000000
01000000
00100000
01000000
00000000
,  // measure 60
00020000
00000000
00030000
00000000
,  // measure 61
10000000
01000000
00010000
00000000
,  // measure 62
00001000
00000010
00000001
00000000
,  // measure 63
00000001
00000100
00001000
00000000
,  // measure 64
00010000
00100000
10000000
00000000
,  // measure 65
10000000
01000000
00010000
00001000
,  // measure 66
00000010
00000000
00000000
00000001
00000000
00000000
00000000
00000000
;
