#TITLE:air's gravity;
#SUBTITLE:;
#ARTIST:zts;
#TITLETRANSLIT:;
#SUBTITLETRANSLIT:;
#ARTISTTRANSLIT:;
#GENRE:;
#CREDIT:Silverhawke;
#MENUCOLOR:;
#METERTYPE:DDR;
#BANNER:air's gravity.png;
#BACKGROUND:air's gravity-bg.png;
#LYRICSPATH:;
#CDTITLE:cdtitle.png;
#MUSIC:air's gravity.mp3;
#OFFSET:-0.028;
#SAMPLESTART:49.064;
#SAMPLELENGTH:15.000;
#SELECTABLE:YES;
#LISTSORT:;
#DISPLAYBPM:137;
#BPMS:0.000=137.000,177.000=68.500,177.250=137.000,177.750=68.500,178.000=137.000,178.500=68.500,178.750=137.000,179.250=68.500,179.500=137.000;
#STOPS:;
#BGCHANGES:;
#ATTACKS:;

//---------------dance-single - ----------------
#NOTES:
     dance-single:
     :
     Hard:
     13:
     0.574,0.615,0.012,0.059,0.404:
0000
0000
0000
0000
,
0000
0000
0000
0000
,
0000
0000
0000
0000
,
0000
0000
0000
0000
,
0000
0000
0000
0000
,
0000
0000
0000
0000
,
0010
0000
1000
0000
0000
0010
0100
0000
,
0001
0000
0010
0000
0000
0100
0010
0000
,
0001
0000
1000
0010
0000
0100
0010
0000
,
0100
0001
0000
0010
0001
0100
0010
1000
,
0002
0000
0000
0000
,
0003
0000
0000
0000
0000
0000
0000
0000
2000
0000
0000
0000
3010
0100
0010
0000
,
1000
0000
0000
0100
1000
0000
0001
0000
1000
0000
0000
0001
0100
0000
0001
0100
,
0001
0000
1000
0000
0100
0000
1000
0000
0100
0000
0000
0010
0100
0000
1000
0100
,
1000
0000
0001
0000
0100
0000
0010
0000
0100
0000
0000
0001
0100
0000
0010
0100
,
0010
0000
1000
0000
0001
0000
1000
0000
0001
0000
0010
0100
0000
0010
0100
0000
,
1000
0000
0010
0000
0100
0000
0010
0000
0100
0000
0000
0001
0100
0000
0000
0001
,
1000
0000
0100
0000
0010
0000
0100
0000
0010
0000
0001
0100
0001
0000
0100
0001
,
0100
0000
0010
0000
1000
0000
0001
0000
1000
0000
0100
1000
0100
0000
1000
0100
,
1000
0001
1000
0100
0010
0001
1001
0000
,
0100
0000
0010
0000
1000
0000
0001
0000
1000
0000
0100
0010
0000
0100
0010
0000
,
0001
0000
1000
0000
0010
0000
0100
0000
0010
0000
1000
0001
0000
1000
0001
0000
,
0010
0000
0100
0000
1000
0000
0100
0000
0010
0000
0001
0100
0000
0001
0100
0000
,
0010
0000
1000
0000
0100
0000
0001
0000
0100
0000
1000
0001
1000
0001
1000
0000
,
0100
0000
0010
0000
0001
0000
1000
0000
0001
0000
0100
0010
0000
0100
0010
0000
,
1000
0000
0001
0000
0010
0000
0100
0000
0010
0000
0001
1000
0000
0001
1000
0000
,
0010
0100
0001
0100
1000
0001
0010
2000
,
0100
0000
0000
0000
0100
0000
0000
0000
3100
0000
0000
0000
0010
0000
0001
1000
,
0001
0000
0100
0000
0001
0000
0100
0000
0010
0000
1000
0100
1000
0000
0100
1000
,
0100
0000
1000
0000
0001
0000
1000
0000
0010
0000
0100
0001
0100
0000
0001
0100
,
0001
0000
0010
0000
0100
0000
0010
0000
0001
0000
1000
0001
1000
0000
0001
1000
,
0001
0000
0100
0000
0010
0000
1000
0000
0100
0000
0010
0001
0010
0000
0100
1000
,
0100
0000
0010
0000
0001
0000
0010
0000
0100
0000
1000
0001
1000
0000
0010
0100
,
0010
0000
1000
0000
0100
0000
0010
0000
0001
0000
0100
0010
0100
0000
0010
1000
,
0010
0000
0100
0000
0001
0000
1000
0000
0100
0000
0010
0001
0010
0000
0001
1000
,
0001
0000
1000
0000
0010
0000
0100
0000
0001
0000
1000
0001
2000
0000
0000
0000
,
3001
0000
0100
0000
0010
0000
0100
0000
0001
0000
1000
0100
1000
0100
1000
0100
,
1000
0000
0001
0000
0100
0000
0010
0000
1000
0000
0001
0010
0001
0010
0001
0010
,
0001
0000
1000
0000
0010
0000
0100
0000
0001
0000
0010
0100
0010
0100
0010
0100
,
0010
0000
0001
0000
0100
0000
0010
0000
1000
0000
0001
0100
0001
0100
0001
0100
,
0001
0000
1000
0000
0100
0000
0010
0000
0001
0000
0100
0010
0100
0010
0100
0010
,
1000
0000
0001
0000
0100
0000
0010
0000
1000
0000
0100
0010
0100
0010
0100
0010
,
0001
0000
1000
0000
0010
0000
0100
0000
0010
0000
1000
0001
1000
0001
1000
0001
,
0010
0000
0100
0000
1000
0000
0001
0000
0100
0000
0010
1000
0010
1000
0010
1000
,
0002
0000
0000
0000
,
0003
0000
0000
0000
;

//---------------dance-single - ----------------
#NOTES:
     dance-single:
     :
     Medium:
     10:
     0.435,0.481,0.143,0.048,0.000:
0000
0000
0000
0000
,
0000
0000
0000
0000
,
0000
0000
0000
0000
,
0000
0000
0000
0000
,
0000
0000
0000
0000
,
0000
0000
0000
0000
,
0001
0000
1000
0000
0000
0100
0100
0000
,
1000
0000
0001
0000
0000
0100
0100
0000
,
0001
0000
1000
0000
0000
0010
0010
0000
,
1000
0000
0001
0100
0000
0100
0100
0000
,
0020
0000
0000
0000
,
0030
0000
0000
0000
2000
0000
3001
1000
,
1001
0000
0001
0100
0010
0000
0010
1000
,
0100
0010
0001
0100
0010
0000
0010
1000
,
0100
0010
0100
1000
0010
0000
0100
0001
,
1000
0000
1000
0100
0010
0000
0001
1000
,
0001
0101
1000
1100
,
0001
0011
1000
1010
,
0001
0000
0011
0100
1000
0000
1010
0000
,
0001
0000
0101
0010
1000
0000
1100
0000
,
0001
0100
0010
0100
1000
0100
0001
0000
,
1000
0100
0010
0100
0001
0100
1000
0000
,
0001
0100
0010
1000
0100
0001
0100
0000
,
1000
0100
0010
0001
0100
1000
0100
0000
,
0010
0010
1000
0100
0010
0001
0001
0000
,
1000
1000
0010
0100
0001
0010
0010
0000
,
0100
0100
1000
0010
0100
0001
0010
0010
,
0100
0100
0100
0110
,
1000
1000
0100
0010
0001
0100
0100
0000
,
0010
0100
0010
1000
0001
0100
0100
0000
,
0001
0001
1000
0100
0010
0001
1000
0000
,
0001
0010
0100
1000
0010
0100
0001
0000
,
1000
1000
0100
0010
0001
0100
0100
0000
,
0010
0100
0001
1000
0100
0010
0010
0000
,
0001
0001
0100
0010
1000
0100
0010
0000
,
0001
0010
0100
1000
0010
0100
1001
0000
,
0001
0001
0100
0010
1000
0100
0100
0100
,
0010
0100
1000
0001
0100
0010
0010
0100
,
0001
0001
0010
0100
1000
0010
1000
0100
,
0001
0100
1000
0010
0100
0010
1000
1000
,
0001
0001
0100
0010
1000
0100
0100
0100
,
0001
0100
1000
0010
0100
1000
1000
0100
,
0001
0001
0010
0100
0001
0100
1000
0010
,
0001
1000
0100
0001
0010
0100
0100
1000
,
2002
0000
0000
0000
,
3003
0000
0000
0000
;

//---------------dance-single - ----------------
#NOTES:
     dance-single:
     :
     Easy:
     6:
     0.289,0.348,0.000,0.024,0.000:
0000
0000
0000
0000
,
0000
0000
0000
0000
,
0000
0000
0000
0000
,
0000
0000
0000
0000
,
0000
0000
0000
0000
,
0000
0000
0000
0000
,
1000
0001
0000
0001
,
0100
0010
0000
0010
,
1000
0001
0000
0001
,
0010
0100
1000
0001
,
0200
0000
0000
0000
,
0300
0000
0010
0010
,
0010
1000
0100
0000
,
0010
0001
0100
0000
,
0010
1000
0100
0000
,
0010
0001
0100
0000
,
0100
1000
0010
0000
,
0100
0001
0010
0000
,
0100
1000
0010
0000
,
0100
0001
0010
0000
,
0100
0000
1000
0000
0010
1000
0100
0000
,
0001
0000
0100
0000
0010
1000
0001
0000
,
0100
0000
1000
0000
0010
0001
0100
0000
,
0010
0000
1000
0000
0001
0010
0100
0000
,
1000
0000
0001
0000
0100
0001
0010
0000
,
0100
0000
1000
0000
0010
0100
0001
0000
,
0010
0000
0100
0000
1000
0010
0100
0000
,
0001
0010
0100
1000
,
0001
0000
0100
0000
0010
0000
0100
0001
,
1000
0000
0100
0000
0010
0000
0100
1000
,
0001
0000
0100
0000
0010
0000
1000
0001
,
0010
0000
0100
0000
1000
0000
0010
0100
,
0001
0000
0100
0000
0010
0000
1000
0001
,
0010
0000
0100
0000
0010
0000
0001
1000
,
0100
0000
0010
0000
0001
0000
0100
0010
,
1000
0000
0100
0000
0010
0000
0001
0100
,
0010
0000
0100
0000
0001
0010
0100
0010
,
0001
0000
1000
0000
0010
0100
0001
0100
,
0010
0000
1000
0000
0100
0010
1000
0010
,
0100
0000
1000
0000
0010
0100
1000
0100
,
0001
0000
0100
0000
0010
1000
0001
0010
,
0100
0000
0001
0000
1000
0100
0010
0001
,
1000
0000
0010
0000
0100
0001
0010
1000
,
0100
0000
0001
0000
0100
0010
1000
0100
,
0020
0000
0000
0000
,
0030
0000
0000
0000
;

//---------------dance-single - ----------------
#NOTES:
     dance-single:
     :
     Beginner:
     2:
     0.129,0.157,0.012,0.059,0.000:
0000
0000
0000
0000
,
0000
0000
0000
0000
,
0000
0000
0000
0000
,
0000
0000
0000
0000
,
0000
0000
0000
0000
,
0000
0000
0000
0000
,
0000
1000
0000
1000
,
0000
0001
0000
0001
,
0000
1000
0000
1000
,
0000
0001
0000
0001
,
0002
0000
0000
0000
,
0003
0000
0000
0000
,
1000
0000
1000
0000
,
0001
0000
0001
0000
,
1000
0000
1000
0000
,
0001
0000
0000
0000
,
0001
0000
0001
0000
,
1000
0000
1000
0000
,
0001
0000
0001
0000
,
1000
0000
0000
0000
,
0100
0100
0100
0000
,
0100
0000
0100
0000
,
0010
0010
0010
0000
,
0010
0000
0000
0000
,
1000
1000
1000
0000
,
1000
0000
1000
0000
,
1000
0000
0000
0000
,
0001
0001
0001
0000
,
0001
0000
0001
0000
,
1000
0000
1000
0000
,
0001
0000
0001
0000
,
2000
0000
3000
0000
,
0100
0000
0100
0000
,
0010
0000
0010
0000
,
0100
0000
0100
0000
,
0020
0000
0030
0000
,
0001
0000
0001
0000
,
1000
0000
1000
0000
,
0001
0000
1000
0000
,
0002
0000
0003
0000
,
1000
0000
1000
0000
,
0001
0000
0001
0000
,
1000
0000
0001
0000
,
2000
0000
3000
0000
,
1001
0000
0000
0000
;

//---------------dance-double - ----------------
#NOTES:
     dance-double:
     :
     Hard:
     13:
     0.555,0.615,0.012,0.036,0.339:
00000000
00000000
00000000
00000000
,
00000000
00000000
00000000
00000000
,
00000000
00000000
00000000
00000000
,
00000000
00000000
00000000
00000000
,
00000000
00000000
00000000
00000000
,
00000000
00000000
00000000
00000000
,
00010000
00000000
10000000
00000000
00000000
00010000
01000000
00000000
,
00001000
00000000
00010000
00000000
00000000
00000100
00000010
00000000
,
00001000
00000000
00010000
01000000
00000000
01000000
10000000
00000000
,
00010000
01000000
00000000
01000000
00001000
00010000
00000100
00000010
,
00000002
00000000
00000000
00000000
,
00000003
00000000
00000000
00000000
00000000
00000000
00000000
00000000
00020000
00000000
00000000
00000000
00031000
01000000
00001000
00000000
,
01000000
00000000
00000000
00010000
10000000
00000000
01000000
00000000
10000000
00000000
00000000
01000000
00100000
00000000
01000000
00100000
,
01000000
00000000
00010000
00000000
00001000
00000000
00000100
00000000
00000001
00000000
00000000
00000100
00000010
00000000
00000100
00000010
,
00000100
00000000
00001000
00000000
00010000
00000000
00100000
00000000
10000000
00000000
00000000
01000000
00100000
00000000
01000000
00100000
,
01000000
00000000
00010000
00000000
00001000
00000000
00000010
00000000
00000001
00000000
00000100
00000010
00000100
00000000
00000001
00000000
,
00001000
00000000
00010000
00000000
00100000
00000000
00010000
00000000
00001000
00000000
00000000
00000100
00000010
00000000
00000000
00000010
,
00000001
00000000
00001000
00000000
00000100
00000000
00010000
00000000
01000000
00000000
10000000
00010000
10000000
00000000
00010000
10000000
,
00010000
00000000
01000000
00000000
00001000
00000000
00010000
00000000
00000100
00000000
00001000
00000010
00001000
00000000
00000010
00000100
,
00000010
00001000
00010000
01000000
00100000
10000000
10010000
00000000
,
00010000
00000000
00100000
00000000
01000000
00000000
10000000
00000000
01000000
00000000
00010000
00001000
00000000
00001000
00000100
00000000
,
00000010
00000000
00001000
00000000
00000001
00000000
00000010
00000000
00000100
00000000
00010000
00001000
00000000
00001000
01000000
00000000
,
00010000
00000000
00100000
00000000
01000000
00000000
10000000
00000000
01000000
00000000
00010000
00001000
00000000
00001000
00000010
00000000
,
00000001
00000000
00000100
00000000
00001000
00000000
01000000
00000000
00010000
00000000
00100000
01000000
00100000
01000000
00100000
00000000
,
00001000
00000000
00000100
00000000
00000010
00000000
00001000
00000000
00000100
00000000
00010000
01000000
00000000
01000000
00100000
00000000
,
00010000
00000000
10000000
00000000
01000000
00000000
00010000
00000000
00001000
00000000
00000100
00000010
00000000
00000010
00000100
00000000
,
00001000
00010000
00100000
10000000
01000000
00010000
00001000
00000010
,
00000001
00000000
00000000
00000000
00001000
00000000
00000000
00000000
00010000
00000000
00000000
00000000
10000000
00000000
00010000
10000000
,
00010000
00000000
10000000
00000000
01000000
00000000
00010000
00000000
00001000
00000000
00000010
00000001
00000010
00000000
00000001
00000000
,
00000100
00000000
00001000
00000000
00010000
00000000
00100000
00000000
10000000
00000000
00010000
00100000
00010000
00000000
01000000
00000000
,
00100000
00000000
10000000
00000000
01000000
00000000
00010000
00000000
00001000
00000000
00000100
00000010
00000100
00000000
00001000
00000000
,
00010000
00000000
00100000
00000000
01000000
00000000
00001000
00000000
00010000
00000000
00000100
00000010
00000100
00000000
00000001
00000000
,
00000100
00000000
00001000
00000000
00000010
00000000
00010000
00000000
00001000
00000000
01000000
00100000
01000000
00000000
00010000
00000000
,
10000000
00000000
00010000
00000000
00001000
00000000
00000010
00000000
00000100
00000000
00000001
00001000
00000001
00000000
00000010
00000000
,
00001000
00000000
00010000
00000000
01000000
00000000
10000000
00000000
00010000
00000000
01000000
00100000
01000000
00000000
00001000
00000000
,
00000010
00000000
00000001
00000000
00000100
00000000
00001000
00000000
00010000
00000000
00100000
10000000
00100000
00000000
10000000
01000000
,
10000000
00000000
10000000
00000000
01000000
00000000
01000000
00000000
00100000
00000000
00001000
00010000
00001000
00000000
00010000
00000100
,
00010000
00000000
00010000
00000000
00000010
00000000
00000010
00000000
00000100
00000000
00000001
00001000
00000001
00000000
00001000
00000100
,
00001000
00000000
00001000
00000000
01000000
00000000
01000000
00000000
00100000
00000000
00010000
01000000
00010000
00000000
10000000
01000000
,
10000000
00000000
10000000
00000000
00100000
00000000
00100000
00000000
00010000
00000000
00001000
00010000
00001000
00000000
00010000
00000100
,
00010000
00000000
00000100
00000000
00000010
00000000
00000001
00000000
00000100
00000000
00000010
00001000
00000010
00001000
00000010
00001000
,
00010000
00000000
01000000
00000000
00100000
00000000
10000000
00000000
01000000
00000000
00100000
00001000
00100000
00001000
00100000
00001000
,
00010000
00000000
00000100
00000000
00000010
00000000
00000001
00000000
00000100
00000000
00001000
00010000
00001000
00010000
00001000
00010000
,
01000000
00000000
10000000
00000000
00100000
00000000
00010000
00000000
00001000
00000000
00000100
00000001
00000100
00000001
00000100
00000001
,
00002000
00000000
00000000
00000000
,
00003000
00000000
00000000
00000000
;

//---------------dance-double - ----------------
#NOTES:
     dance-double:
     :
     Medium:
     10:
     0.385,0.455,0.392,0.024,0.000:
00000000
00000000
00000000
00000000
,
00000000
00000000
00000000
00000000
,
00000000
00000000
00000000
00000000
,
00000000
00000000
00000000
00000000
,
00000000
00000000
00000000
00000000
,
00000000
00000000
00000000
00000000
,
00001000
00000000
00010000
00000000
00000000
00001000
01000000
00000000
,
00010000
00000000
10000000
00000000
00000000
01000000
00100000
00000000
,
00001000
00000000
00010000
00001000
00000000
00010000
00000100
00000000
,
00001000
00000100
00000000
00001000
00000010
00000000
00000100
00000001
,
00000020
00000000
00000000
00000000
,
00000030
00000000
00001000
00010000
,
00000100
00000000
00010000
00000000
00001000
00000000
01000000
00010000
,
00100000
00000000
00001000
00000000
00010000
00000000
00000010
00001000
,
00000100
01000000
00010000
01000000
,
00000100
00000000
00010000
00000000
00000010
00010000
00001000
00000000
,
00100000
01000000
00100000
00010000
,
00100000
00001000
00100000
00000010
,
00010000
00000010
00001000
00000100
,
00000010
00001000
00010000
00011000
,
00001000
01000000
00100000
00000000
01000000
00000000
00100000
01000000
,
00001000
00010000
00000100
00000000
00000010
00000000
00000100
00010000
,
00001000
00100000
01000000
00000000
00100000
00000000
01000000
00100000
,
00001000
00010000
00000010
00000000
00000100
00000000
00000010
00010000
,
00001000
00100000
01000000
00000000
00100000
00001000
00010000
00000000
,
00000100
00001000
00000010
00000000
00100000
00010000
01000000
00100000
,
10000000
00010000
00001000
00000001
,
00000001
00001000
00010000
10000000
,
11000000
01010000
00011000
00001100
,
00000001
00000010
00000100
00000010
00000001
00000100
00000010
00000000
,
00001010
00011000
01010000
01100000
,
00100000
10000000
01000000
00010000
01000000
10000000
00100000
00000000
,
01100000
01001000
00011000
00010010
,
00000010
00000100
00000001
00001000
00000100
00010000
00001000
00000000
,
01001000
01100000
10100000
11000000
,
01000000
00100000
00010000
00001000
00000100
00000010
00000001
00000000
,
00001001
00010010
00001100
00000011
,
00000001
00000100
00000010
00010000
00001000
00100000
00010000
00000000
,
11000000
00110000
01001000
10100000
,
01000000
00010000
00100000
00001000
00010000
00000010
00000100
00000000
,
00001010
00000101
00010010
00001001
,
00000010
00010000
00001000
00100000
01000000
00010000
00001000
00000000
,
00101000
00010100
01001000
00010010
,
00010000
01000000
10000000
01000000
00010000
00001000
00000100
00000001
,
00002000
00000000
00000000
00000000
,
00003000
00000000
00000000
00000000
;

//---------------dance-double - ----------------
#NOTES:
     dance-double:
     :
     Easy:
     6:
     0.263,0.348,0.582,0.024,0.000: // measure 1
00000000
00000000
00000000
00000000
,  // measure 2
00000000
00000000
00000000
00000000
,  // measure 3
00000000
00000000
00000000
00000000
,  // measure 4
00000000
00000000
00000000
00000000
,  // measure 5
00000000
00000000
00000000
00000000
,  // measure 6
00000000
00000000
00000000
00000000
,  // measure 7
00010000
00000000
00000000
01000000
,  // measure 8
10000000
00000000
00000000
01000000
,  // measure 9
00010000
00000000
00000000
00001000
,  // measure 10
00000100
00000000
00000000
00000001
,  // measure 11
00002000
00000000
00000000
00000000
,  // measure 12
00003000
00000000
00010000
10000000
,  // measure 13
00010000
00000000
01010000
00000000
,  // measure 14
01100000
00000000
10100000
00000000
,  // measure 15
10010000
00000000
01010000
00000000
,  // measure 16
01001000
00000000
00011000
00000000
,  // measure 17
00010100
00000000
00000110
00000000
,  // measure 18
00000011
00000000
00001001
00000000
,  // measure 19
00001100
00000000
00010100
00000000
,  // measure 20
00011000
00000000
01001000
00000000
,  // measure 21
00100000
10000000
11000000
00000000
,  // measure 22
00100000
00001000
00011000
00000000
,  // measure 23
00010000
00000010
00000110
00000000
,  // measure 24
00000100
00000001
00001001
00000000
,  // measure 25
00001000
00000100
00010100
00000000
,  // measure 26
00010000
00001000
01001000
00000000
,  // measure 27
01000000
00100000
10100000
00000000
,  // measure 28
00010000
00010000
00010000
00010000
,  // measure 29
01010000
00000000
01100000
00000000
,  // measure 30
00100000
10000000
11000000
00000000
,  // measure 31
01010000
00000000
00011000
00000000
,  // measure 32
00001000
00000100
00000110
00000000
,  // measure 33
00001010
00000000
00001001
00000000
,  // measure 34
00000001
00000010
00000110
00000000
,  // measure 35
00010100
00000000
00011000
00000000
,  // measure 36
00001000
01000000
01100000
00100000
,  // measure 37
10100000
10000000
11000000
10000000
,  // measure 38
00110000
00010000
01010000
00000000
,  // measure 39
00001100
00001000
00001010
00001000
,  // measure 40
00000101
00000001
00000011
00000000
,  // measure 41
00000110
00000100
00010100
00010000
,  // measure 42
00001000
01000000
01100000
00100000
,  // measure 43
10100000
10000000
11000000
01000000
,  // measure 44
00101000
00001000
00011000
00010000
,  // measure 45
00000200
00000000
00000000
00000000
,  // measure 46
00000300
00000000
00000000
00000000
;
