#TITLE:Wenkamui;
#SUBTITLE:;
#ARTIST:Zektbach;
#TITLETRANSLIT:;
#SUBTITLETRANSLIT:;
#ARTISTTRANSLIT:;
#GENRE:;
#CREDIT:Silverhawke;
#MENUCOLOR:;
#METERTYPE:DDR;
#BANNER:Wenkamui.png;
#BACKGROUND:Wenkamui-bg.png;
#LYRICSPATH:;
#CDTITLE:cdtitle.png;
#MUSIC:Wenkamui.mp3;
#OFFSET:-0.028;
#SAMPLESTART:56.904;
#SAMPLELENGTH:15.000;
#SELECTABLE:YES;
#LISTSORT:;
#BPMS:0.000=135.000;
#STOPS:;
#BGCHANGES:;
#ATTACKS:;

//---------------dance-single - ----------------
#NOTES:
     dance-single:
     :
     Hard:
     11:
     0.490,0.469,0.120,0.291,0.100:
0000
0000
0000
0000
,
0000
0000
0000
0000
,
0000
0000
0000
0000
,
0000
0000
0000
0000
,
0000
0001
0100
0010
0000
0010
0100
0001
,
0000
0010
0100
1000
0000
1000
0100
0010
,
0000
0001
1000
0100
0000
0100
1000
0001
,
0000
1000
0001
0010
0000
0010
0001
1000
,
0000
0010
1000
0100
0000
0100
1000
0101
,
0000
0010
0001
0100
0000
0100
0001
1100
,
0000
0100
1000
0010
0000
0010
1000
0011
,
0000
0100
0001
0010
0000
0010
0001
1010
,
0000
0100
0010
1000
0100
0010
0001
1100
,
0000
0010
0100
1000
0001
0100
0010
1001
,
0000
0100
0001
0010
0100
1000
0100
0011
,
0000
0100
1000
0001
0100
0010
1000
0110
,
0020
0000
1030
0100
0200
0000
0301
0000
,
0100
0000
1000
0000
0001
0000
0000
0100
0001
0000
1000
0000
0020
0000
0000
0000
,
0230
0000
0301
0010
0020
0000
1030
0000
,
0010
0000
0001
0000
1000
0000
0000
0010
1000
0000
0001
0000
0100
0000
1000
0000
,
0200
0000
0301
0010
0020
0000
0031
0000
,
0010
0000
0001
0000
1000
0000
0000
0010
1000
0000
0001
0000
0200
0000
0000
0000
,
0320
0000
1030
0100
0200
0000
0301
0000
,
0100
0000
1000
0000
0001
0000
0000
0100
0001
0000
1000
0000
0010
0000
0001
0000
,
0020
0000
0000
0100
0230
0000
0300
0000
,
1001
0000
0010
0100
,
0102
0000
0000
1000
2003
0000
3000
0000
,
0001
0000
0000
0001
0000
0000
0001
0000
0010
0000
0000
0010
0000
0000
0010
0000
,
0200
0000
0000
1000
2300
0000
3000
0000
,
0110
0000
0010
1000
,
1002
0000
0000
0100
0103
0000
0000
0100
,
0001
0000
0000
0001
0000
0000
0001
0000
1000
0000
0000
1000
0000
0000
0000
0000
,
0100
0000
0010
0000
0100
0000
0000
1000
0100
0000
0010
0000
0001
0000
0100
0000
,
0000
0000
0001
0000
0100
0000
0000
0010
1000
0000
0100
0000
0010
0000
0001
0000
,
0000
0000
0010
0000
0100
0000
0000
1000
0100
0000
0001
0000
0100
0000
1000
0000
,
0020
0000
0100
0130
0001
1000
1000
0001
,
0100
0000
0010
0000
0100
0000
0000
0001
0100
0000
0010
0000
1000
0000
0100
0000
,
0000
0000
1000
0000
0100
0000
0000
0010
0001
0000
0100
0000
0010
0000
1000
0000
,
0000
0000
0010
0000
0100
0000
0000
0001
0100
0000
1000
0000
0100
0000
0001
0000
,
0020
0100
0100
0130
0000
1000
1000
0001
,
0100
0000
0001
0000
0010
0000
0100
1000
0100
0000
0010
0000
0001
0000
1000
0000
,
0000
0000
0100
0000
0010
0000
0001
1000
0001
0000
1000
0000
0010
0000
0100
0000
,
0000
0000
1000
0000
0100
0000
0001
0100
0001
0000
0010
0000
0100
0000
1000
0000
,
0020
0000
0100
0130
0001
0010
0010
0100
,
0010
0000
0001
0000
0100
0000
0010
1000
0010
0000
0100
0000
0001
0000
1000
0000
,
0000
0000
0010
0000
0100
0000
0001
1000
0001
0000
1000
0000
0100
0000
0010
0000
,
0000
0000
1000
0000
0010
0000
0001
0010
0001
0000
0100
0000
0010
0000
1000
0000
,
0200
0010
0010
0310
0000
0001
0001
0100
,
0002
0000
0010
0003
,
2000
0000
0010
3000
,
1000
0000
0010
0100
0001
0000
0010
0000
,
0100
0000
0010
0001
1000
0000
0010
0000
,
1000
0002
0010
0000
0000
0000
0000
0103
,
0200
0000
0320
0000
2030
0000
3000
0002
,
2000
0000
0000
0000
,
3003
0000
0000
0000
;

//---------------dance-single - ----------------
#NOTES:
     dance-single:
     :
     Medium:
     8:
     0.407,0.469,0.221,0.331,0.000:
0000
0000
0000
0000
,
0000
0000
0000
0000
,
0000
0000
0000
0000
,
0000
0000
0000
0000
,
0000
1000
0000
0100
0000
0010
0000
0100
,
0000
1000
0000
0010
0000
0100
0000
0001
,
0000
0010
0000
0001
0000
0100
0000
0010
,
0000
1000
0000
0100
0000
0010
0000
0100
,
0000
1000
0000
0001
0000
0100
0010
0100
,
0000
0001
0000
1000
0000
0100
0010
0100
,
0000
1000
0000
0010
0000
0100
0001
0100
,
0000
0010
0000
1000
0000
0001
0010
0001
,
0000
0100
0000
1000
0001
0100
0010
1000
,
0000
0100
0000
0010
0100
1000
0100
0001
,
0000
0100
0000
0010
0100
1000
0100
0001
,
0000
0010
0100
1000
0001
0100
0010
0100
,
0002
0010
2003
0010
,
3001
0100
1000
0100
0001
0000
1000
0100
,
0020
0001
0230
1000
,
0310
0001
1100
0101
,
2000
0010
3002
0010
,
1003
0100
0001
0100
1000
0000
0001
0100
,
0020
1000
0230
0001
,
0310
1000
0101
1100
,
0010
0000
0000
0002
2000
0000
0000
0000
,
3003
0000
0001
1000
,
1001
0000
0000
0200
0020
0000
0330
0000
,
0100
0000
0000
0100
0001
0000
0000
0001
,
1000
0000
0000
0200
0020
0000
0000
0000
,
0330
0000
0100
0010
,
1001
0000
0000
2000
0002
0000
3003
1000
,
0001
0000
0000
0001
0100
0000
0010
0000
,
0110
0000
0110
0000
1000
0100
0001
0000
,
0101
0000
0101
0000
1000
0100
0010
0000
,
1100
0000
1100
0000
0010
0100
0001
0000
,
1001
0000
1001
0000
0010
0100
0001
1000
,
1100
0000
1100
0000
0010
0001
0100
0000
,
0101
0000
0101
0000
0010
1000
0001
0000
,
0110
0000
0110
0000
1000
0100
0010
0000
,
0101
0000
0101
0000
0010
1000
0100
1000
,
0001
0100
1000
0000
1000
0100
0001
0000
,
1000
0100
0001
0000
0001
0100
1000
0000
,
0001
0010
1000
0000
1000
0010
0001
0000
,
2000
0000
3020
0000
0130
0100
0100
0000
,
0001
0010
0001
0000
1000
0100
1000
0000
,
0010
1000
0010
0000
0100
0001
0100
0000
,
0001
0010
1000
0000
0100
0001
0010
0000
,
0100
1000
0010
0100
0000
0001
0001
0001
,
0200
0000
0320
0000
,
2030
0000
3002
0000
,
0023
0000
0230
0000
,
2300
3002
0203
0320
,
2030
0000
3200
0000
,
0302
0000
0023
0000
,
2030
0000
0000
0000
,
3000
0000
0000
0000
;

//---------------dance-single - ----------------
#NOTES:
     dance-single:
     :
     Easy:
     5:
     0.245,0.276,0.020,0.010,0.000:
0000
0000
0000
0000
,
0000
0000
0000
0000
,
0000
0000
0000
0000
,
0000
0000
0000
0000
,
0000
1000
0000
0000
0000
0001
0000
0000
,
0000
0100
0000
0000
0000
0010
0000
0000
,
0000
0100
0000
0000
0000
0001
0000
0000
,
0000
0010
0000
0100
0000
1000
0000
0000
,
0000
0001
0000
0100
0000
0010
0000
0000
,
0000
1000
0000
0100
0000
0001
0000
0000
,
0000
0100
0000
0010
0000
0001
0000
0000
,
0000
0100
0000
1000
0000
0100
0000
0000
,
0000
0010
0000
1000
0000
0010
0000
0100
,
0000
0001
0000
0100
0000
0010
0000
1000
,
0000
0100
0000
0001
0000
0100
0000
1000
,
0000
0010
0000
0100
0000
0001
0000
1000
,
1000
0001
1000
0000
,
0001
0000
0001
0000
0100
0000
0010
0100
,
0001
0001
1000
1000
,
0100
0010
0010
0110
,
0100
1000
0001
0000
,
0100
0010
0100
0001
,
1000
0010
0100
0001
,
0010
0010
0100
0110
,
0010
0000
0100
0000
,
1000
0000
0001
0000
,
0100
0100
0100
0000
,
0010
0000
0010
0000
,
0100
0000
0001
0000
,
1000
0000
0100
0010
,
0001
0000
1000
0000
,
0010
0100
1000
0100
,
0001
0001
1000
1000
,
0100
0010
0100
1000
,
0010
0010
0100
0100
,
1000
0000
0100
0000
0001
0100
0100
0000
,
0000
0010
0100
0001
,
1000
0100
0010
0010
,
0100
1000
0001
0100
,
0010
0000
1000
0000
0001
0100
0100
0000
,
0000
0010
0100
0001
,
0010
0100
1000
0001
,
1000
0100
0010
0001
,
0100
0000
0010
0000
1000
0100
0100
0000
,
0000
1000
0001
0100
,
0010
0100
0001
0010
,
0100
1000
0001
0100
,
0010
0000
1000
0000
0001
0100
0100
0000
,
0000
0001
0000
1000
,
0000
0001
0000
0100
,
0000
0010
0000
0100
,
0001
0000
1000
0000
,
0001
0000
0010
0100
,
1000
0000
0001
0000
,
1000
0000
0200
0000
,
0300
0000
0000
0000
;

//---------------dance-single - ----------------
#NOTES:
     dance-single:
     :
     Beginner:
     1:
     0.099,0.138,0.000,0.010,0.000:
0000
0000
0000
0000
,
0000
0000
0000
0000
,
0000
0000
0000
0000
,
0000
0000
0000
0000
,
0000
0000
0000
0000
,
0000
0000
0000
0000
,
0000
0000
0000
0000
,
0000
0000
0000
0000
,
1000
0000
1000
0000
,
0001
0000
0001
0000
,
1000
0000
1000
0000
,
0001
0000
0001
0000
,
0100
0000
0100
0000
,
0010
0000
0010
0000
,
0100
0000
0100
0000
,
0010
0000
0010
0000
,
0100
0000
0000
0000
,
0001
0000
0001
0000
,
0001
0000
0000
0000
,
1000
0000
0000
0000
,
0100
0000
0000
0000
,
0010
0000
0010
0000
,
0010
0000
0000
0000
,
0001
0000
0000
0000
,
1000
0000
0000
0000
,
0001
0000
0000
0000
,
1000
0000
0000
0000
,
0100
0000
0000
0000
,
0010
0000
0000
0000
,
0100
0000
0000
0000
,
1000
0000
0000
0000
,
0001
0000
0000
0000
,
0100
0000
0100
0000
,
0100
0000
0000
0000
,
0010
0000
0010
0000
,
0010
0000
0010
0000
,
0100
0000
0100
0000
,
0100
0000
0000
0000
,
0001
0000
0001
0000
,
0001
0000
0001
0000
,
1000
0000
1000
0000
,
1000
0000
0000
0000
,
0100
0000
0100
0000
,
0100
0000
0100
0000
,
0010
0000
0010
0000
,
0010
0000
0000
0000
,
0001
0000
0001
0000
,
0001
0000
0001
0000
,
1000
0000
0000
0000
,
0010
0000
0000
0000
,
0100
0000
0000
0000
,
0000
0000
0000
0000
,
0001
0000
0000
0000
,
0010
0000
0000
0000
,
0200
0000
0000
0000
,
0300
0000
0000
0000
;

//---------------dance-single - ----------------
#NOTES:
     dance-single:
     :
     Challenge:
     11:
     0.422,0.442,0.131,0.120,0.020:
0000
0000
0000
0000
,
0000
0000
0000
0000
,
0000
0000
0000
0000
,
0000
0000
0000
0000
,
0000
1000
0000
0100
0000
0001
0010
0001
,
0000
1000
0000
0010
0000
0100
0001
0100
,
0000
0001
0000
0010
0000
1000
0100
1000
,
0000
0001
0000
0100
0000
1000
0010
1000
,
0001
0010
0001
0010
0100
1000
0010
MMMM
,
0000
0010
1000
0001
0010
0100
1000
MMMM
,
0000
0010
0001
1000
0010
0100
0001
MMMM
,
0000
0010
1000
0001
1000
0010
0100
MMMM
,
0000
0010
0100
1000
0100
0001
0100
MMMM
,
0000
0001
0100
1000
0100
0010
1000
MMMM
,
0000
0010
0001
1000
0001
0010
0100
MMMM
,
0000
0001
1000
0100
0010
0001
1000
MMMM
,
1002
0000
0000
0100
0103
0000
MMMM
0000
,
1000
0100
0001
0100
1000
0010
0100
0000
,
0102
0000
0000
1000
1003
0000
MMMM
0000
,
0010
1000
0100
0001
0100
1000
0010
0000
,
2001
0000
0000
0100
3100
0000
MMMM
0000
,
1000
0001
0100
1000
0100
0001
1000
0000
,
2100
0000
0000
0001
3001
0000
MMMM
0000
,
0010
1000
0001
0100
0001
0010
0100
1000
,
0020
0000
0000
0100
0130
0000
0000
0000
,
MMMM
0000
1100
0101
,
1002
0000
0000
0100
0103
0000
MMMM
0000
,
1000
0000
0000
0100
0000
0000
0001
0000
1000
0000
0000
0010
0000
0000
0001
0000
,
2000
0000
0000
0001
3001
0000
0000
0000
,
MMMM
0000
0101
1100
,
2001
0000
0000
0100
3100
0000
MMMM
1000
,
0100
0000
0000
0001
0000
0000
0100
0000
0010
0000
0000
0110
0000
0000
0000
0000
,
0001
0100
1000
0100
0001
0010
0100
1000
,
MMMM
0100
0010
1000
0100
0010
0001
0100
,
MMMM
0100
0001
1000
0100
0010
0001
0100
,
0020
0000
0100
0130
0001
1000
1001
0000
,
MMMM
1000
0100
0001
0100
1000
0010
0100
,
MMMM
0010
1000
0010
0001
0100
0010
1000
,
MMMM
0010
0100
1000
0010
0100
0010
1000
,
0020
0100
0100
0130
0000
0001
1000
0001
,
MMMM
0100
0010
0001
0100
0010
0010
0010
,
MMMM
0100
0010
0100
1000
0010
0010
0010
,
MMMM
0001
1000
0001
0010
0100
1000
0001
,
0200
0000
0010
0310
1000
0001
1001
0000
,
MMMM
0001
0100
0010
0100
0001
0001
0001
,
MMMM
0100
0010
0100
1000
0010
0010
0010
,
MMMM
0001
1000
0100
0001
0100
1000
0010
,
0200
0010
0010
0310
0000
1000
0001
0010
,
0100
MMMM
0100
MMMM
,
0010
MMMM
0010
MMMM
,
0100
0000
0001
MMMM
0010
0000
1000
0000
,
0001
0000
1000
MMMM
0010
0000
0001
0000
,
1000
MMMM
0001
MMMM
,
1000
MMMM
0001
MMMM
,
1000
0100
0010
0001
,
MMMM
0000
0000
0000
;

//---------------dance-double - ----------------
#NOTES:
     dance-double:
     :
     Hard:
     11:
     0.466,0.467,0.030,0.191,0.020:
00000000
00000000
00000000
00000000
,
00000000
00000000
00000000
00000000
,
00000000
00000000
00000000
00000000
,
00000000
00000000
00000000
00000000
,
00000000
00010000
00001000
01000000
00000000
01000000
00001000
00010000
,
00000000
00001000
00010000
00000100
00000000
00000100
00010000
00001000
,
00000000
00010000
01000000
10000000
00000000
10000000
01000000
00010000
,
00000000
00001000
00000100
00000001
00000000
00000001
00000100
00001000
,
00000000
00010000
01000000
10000000
00100000
01000000
00001000
00010000
,
00000000
00001000
00000100
00000001
00000010
00000100
00001000
00000010
,
00000000
00010000
00100000
10000000
00100000
01000000
00100000
00010000
,
00000000
00001000
00000010
00000001
00000010
00000100
00000010
00001000
,
00000000
00010000
01000000
10000000
00100000
00010000
00000010
00000100
,
00000000
00001000
00000100
00000001
00000010
00001000
00100000
01000000
,
00000000
00010000
01000000
10000000
00010000
00001000
00000100
00000010
,
00000000
00001000
00000100
00000001
00001000
00010000
10000000
01000000
,
00200000
00000000
00000000
00310000
01000000
00000000
10000000
00000000
,
01000000
00001000
00010000
00000100
00000010
00000001
00000100
00000000
,
00000001
00001000
00000100
00000000
00010000
00001000
01000000
00000000
,
10000000
01000000
00001000
00010000
00000100
00000010
00000010
00000000
,
00000200
00000000
00000000
00001300
00000010
00000000
00000001
00000000
,
00000010
00010000
00001000
00100000
01000000
10000000
00100000
00000000
,
10000000
00010000
00100000
00000000
00001000
00010000
00000010
00000000
,
00000001
00000010
00010000
00001000
00100000
01000000
01000000
00000000
,
20000000
00000000
00000000
31000000
00010000
00000000
00000000
00000000
,
00001001
00000000
00000001
00000010
,
00002000
00000000
00000000
00103000
01000000
00000000
00000000
00000000
,
10000000
00000000
00000000
01000000
00000000
00000000
00010000
00000000
00001000
00000000
00000000
00000100
00000000
00000000
00000001
00000000
,
00000020
00000000
00000000
00000130
00001000
00000000
00000000
00000000
,
10010000
00000000
10000000
00010000
,
00000020
00000000
00000000
00000031
00000100
00000000
00000000
00001000
,
00010000
00000000
00000000
01000000
00000000
00000000
00100000
00000000
00010000
00000000
00000000
11000000
00000000
00000000
00000000
00000000
,
00010000
01000000
10000000
01000000
00010000
00100000
00001000
00001000
,
00000000
00010000
01000000
00001000
00010000
00000100
00001000
00001000
,
00000000
01000000
00001000
00010000
00000100
00000010
00000001
00000100
,
00000020
00000000
00001000
00001030
00000100
00010000
00001000
00001000
,
00000000
00000100
00010000
01000000
00010000
00001000
01000000
01000000
,
00000000
00100000
00010000
01000000
00001000
00010000
00000100
00000100
,
00000000
00000010
00010000
00001000
00010000
01000000
10000000
00100000
,
01000000
00010000
00010000
00010000
00000000
00100000
00001000
00001000
,
00000100
00000010
00000100
00000010
00000001
00000100
00000001
00000001
,
00000010
00001000
00000010
00001000
00000100
00010000
00000100
00000100
,
00001000
01000000
00001000
01000000
00100000
10000000
01000000
00100000
,
00020000
00000000
01000000
01030000
00001000
00010000
00001000
00001000
,
00000100
00000010
00000100
00000010
00001000
00010000
00001000
00001000
,
00100000
01000000
00100000
01000000
00010000
10000000
00010000
00010000
,
00100000
10000000
00100000
10000000
01000000
00100000
01000000
01000000
,
00010000
00100000
00100000
00100000
00000000
00100000
00010000
10000000
,
00200000
00000000
00301000
00000100
,
00000020
00000000
00010030
00100000
,
02000000
00000000
13000000
00100000
01000000
00000000
00010000
00000000
,
00100000
00000000
00001000
00000100
00000010
00000000
00001000
00000000
,
00000100
00020000
00002000
00000000
00000000
00030000
00003000
01000000
,
00200000
20300000
32000000
03020000
,
00032000
00003000
00000200
00000300
;

//---------------dance-double - ----------------
#NOTES:
     dance-double:
     :
     Challenge:
     12:
     0.426,0.497,0.040,0.161,0.020:
00000000
00000000
00000000
00000000
,
00000000
00000000
00000000
00000000
,
00000000
00000000
00000000
00000000
,
00000000
00000000
00000000
00000000
,
00000000
00001000
00010000
01000000
00000000
00010000
00001000
00000100
,
00000000
00001000
00010000
00100000
00000000
00010000
00001000
00000010
,
00000000
00001000
00010000
01000000
00000000
10000000
00100000
00010000
,
00000000
00001000
00000100
00000010
00000000
00010000
00001000
00000010
,
00000000
00000001
00000100
00001000
0000MMMM
01000000
10000000
00100000
,
00000000
10000000
01000000
00010000
MMMM0000
00000100
00000001
00000010
,
00000000
00000001
00000010
00001000
0000MMMM
00100000
10000000
01000000
,
00000000
10000000
00100000
00010000
MMMM0000
00000010
00000001
00000100
,
00000000
00000001
00000100
00001000
00010000
00100000
MMMM0000
00010000
,
0000MMMM
10000000
01000000
00100000
00010000
00001000
0000MMMM
00000010
,
MMMM0000
00000001
00000100
00001000
00010000
00100000
MMMM0000
01000000
,
0000MMMM
10000000
00100000
00010000
00000100
00000010
0000MMMM
00001000
,
00001200
00000000
00000000
00000310
00000001
00000000
0000MMMM
00000000
,
00000001
00000100
00001000
0000MMMM
00001000
00000100
00000010
00000000
,
00010000
00001000
01000000
00000000
00100000
10000000
01000000
00000000
,
00100000
00010000
01000000
00001000
0000MMMM
00100000
10000000
00000000
,
02010000
00000000
00000000
03100000
10000000
00000000
MMMM0000
00000000
,
10000000
01000000
00010000
MMMM0000
00010000
01000000
00100000
00000000
,
00001000
00010000
00000100
00000000
00000010
00000001
00000100
00000000
,
00000010
00001000
00000100
00010000
MMMM0000
00000010
00000001
00000000
,
00000200
00000000
00000000
00000310
00001000
00000000
00000000
00000000
,
MMMM0000
00000000
00020000
20030000
,
32000000
00000000
00000000
03100000
00010000
00000000
00000000
00000000
,
00010000
00000000
00000000
01000000
00000000
00000000
00001000
00000000
00010000
00000000
00000000
00000010
00000000
00000000
00010000
00000000
,
02000000
00000000
00000000
03100000
00010000
00000000
00000000
00000000
,
0000MMMM
00000000
00002000
00003002
,
00000203
00000000
00000000
00000310
00001000
00000000
00000000
00001000
,
00000100
00000000
00000000
00010000
00000000
00000000
00001000
00000000
00100000
00000000
00000000
00001000
00000000
00000000
00000000
00000000
,
00010000
01000000
10000000
MMMM0000
10000000
01000000
00010000
0000MMMM
,
00001000
00000100
00000001
0000MMMM
00000001
00000100
00001000
MMMM0000
,
00010000
00100000
10000000
MMMM0000
10000000
00100000
00010000
0000MMMM
,
00002000
00000000
01000000
01003000
01000100
00000000
00100010
00000000
,
00010000
00100000
10000000
MMMM0000
10000000
00100000
00010000
0000MMMM
,
00001000
00000010
00000001
0000MMMM
00000001
00000010
00001000
MMMM0000
,
00010000
00100000
10000000
MMMM0000
10000000
01000000
00010000
0000MMMM
,
00002000
01000000
01003000
00200000
00000000
10300000
01000000
00010000
,
00000100
0001MMMM
00000100
00010000
00001000
0100MMMM
00001000
01000000
,
00001000
0001MMMM
00001000
00010000
00000100
0001MMMM
00000100
00010000
,
00000010
0001MMMM
00000010
00010000
00001000
0100MMMM
00001000
01000000
,
00200000
00000000
10000000
10300000
01000000
00010000
00010000
00001000
,
0100MMMM
MMMM1000
0100MMMM
00001000
00010000
MMMM0100
00010000
00000100
,
0001MMMM
MMMM1000
0001MMMM
00001000
01000000
MMMM1000
01000000
00001000
,
0010MMMM
MMMM1000
0010MMMM
00001000
00010000
MMMM0100
00010000
00000100
,
00000020
00000001
00000031
00000200
00000000
00001300
00001000
00010000
,
00100000
0000MMMM
00000010
MMMM0000
,
01000000
0000MMMM
00000100
MMMM0000
,
00100000
10000000
01000000
00010000
00001000
00000010
00000001
00000100
,
00000001
00000010
00001000
00010000
00100000
10000000
01000000
00010000
,
00000100
MMMM0000
00100000
0000MMMM
,
00000010
MMMM0000
01000000
0000MMMM
,
00000100
MMMM0000
0000MMMM
MMMM0000
,
0000MMMM
00000000
00000000
00000000
;

//---------------dance-double - ----------------
#NOTES:
     dance-double:
     :
     Medium:
     8:
     0.323,0.331,0.000,0.090,0.000: // measure 1
00000000
00000000
00000000
00000000
,  // measure 2
00000000
00000000
00000000
00000000
,  // measure 3
00000000
00000000
00000000
00000000
,  // measure 4
00000000
00000000
00000000
00000000
,  // measure 5
00000000
10000000
00000000
01000000
00000000
00100000
00010000
01000000
,  // measure 6
00000000
00001000
00000000
00010000
00000000
00000100
00000010
00000001
,  // measure 7
00000000
00000100
00000000
00001000
00000000
00000100
00000010
00001000
,  // measure 8
00000000
00000100
00000000
00010000
00000000
00001000
01000000
00100000
,  // measure 9
00000000
10000000
01000000
10000000
00000000
00010000
01000000
00010000
,  // measure 10
00000000
01000000
00001000
01000000
00000000
00001000
00010000
00001000
,  // measure 11
00000000
00010000
00000100
00010000
00000000
00000100
00000010
00000100
,  // measure 12
00000000
00000010
00000000
00000001
00000100
00000010
00001000
00000100
,  // measure 13
00000000
00000010
00000001
00000010
00000000
00000001
00001000
00000001
,  // measure 14
00000000
00001000
00000100
00001000
00000000
00000100
00010000
00000100
,  // measure 15
00000000
00010000
01000000
00010000
00000000
01000000
00100000
01000000
,  // measure 16
00000000
00100000
00000000
00010000
00000000
10000000
01000000
00100000
,  // measure 17
00020000
00000000
00030000
01000000
00200000
00000000
00300000
00000000
,  // measure 18
10000000
00000000
00000000
00010000
02000000
00000000
03000000
00000000
,  // measure 19
00200000
00300000
10000000
00010000
,  // measure 20
01000000
00000000
00001000
00000000
00010000
00000100
00000010
00000000
,  // measure 21
00000002
00000000
00000003
00001000
00000200
00000000
00000300
00000000
,  // measure 22
00000010
00000000
00000000
00000001
00000200
00000000
00000300
00000000
,  // measure 23
00000010
00010000
00001000
01000000
,  // measure 24
00010000
00000000
00100000
00000000
00010000
01000000
00100000
00000000
,  // measure 25
10000000
00000000
00000000
01000000
00010000
00000000
00000000
00000000
,  // measure 26
00001000
00000000
00000100
00000010
,  // measure 27
00001000
00000000
00000000
00010000
01000000
00000000
00000000
00000000
,  // measure 28
00001000
00000100
00000010
00001000
,  // measure 29
00000001
00000000
00000000
00000100
00001000
00000000
00000000
00000000
,  // measure 30
00010000
00000000
01000000
00100000
,  // measure 31
00010000
00000000
00000000
00001000
00000100
00000000
00000000
00000000
,  // measure 32
00010000
01000000
00100000
00010000
,  // measure 33
10000000
00000000
10000000
00000000
00010000
01000000
00100000
00000000
,  // measure 34
10000000
00010000
00001000
00000001
,  // measure 35
00001000
00000000
00001000
00000000
00000001
00000010
00000100
00000000
,  // measure 36
00001000
00000000
00000010
00000100
00000000
00000100
00000010
00000000
,  // measure 37
00001000
00000000
00000001
00000000
00000100
00001000
00010000
00000000
,  // measure 38
00100000
00000000
00100000
00000000
10000000
00010000
00100000
00000000
,  // measure 39
01000000
10000000
00010000
00001000
,  // measure 40
00000010
00000000
00000100
00000001
00000000
00001000
00000010
00000000
,  // measure 41
00001000
00000100
00001000
00000000
00000100
00000000
00010000
00000000
,  // measure 42
00001000
00000000
01000000
00000000
00100000
10000000
01000000
00000000
,  // measure 43
00010000
00000000
00001000
00000000
00000010
00000001
00000100
00000001
,  // measure 44
00000010
00000000
00000100
00000000
00001000
00001000
00001000
00000000
,  // measure 45
00000010
00000000
00000100
00000000
00001000
00010000
00001000
00000000
,  // measure 46
00100000
00000000
01000000
00000000
10000000
00010000
10000000
00000000
,  // measure 47
00010000
00001000
00000001
00000100
,  // measure 48
00000010
00000000
00001000
00000100
00000000
00010000
00001000
01000000
,  // measure 49
00002000
00000000
00100000
00000000
,  // measure 50
01000000
00000000
00010000
00000000
,  // measure 51
00000010
00000000
00010000
00000000
,  // measure 52
00100000
00000000
00010000
00010000
,  // measure 53
00023000
00000000
00000100
00000000
,  // measure 54
00001000
00000000
01000000
00000000
,  // measure 55
00001000
00000000
00000010
00000000
,  // measure 56
00030000
00000000
00000000
00000000
;

//---------------dance-double - ----------------
#NOTES:
     dance-double:
     :
     Easy:
     5:
     0.228,0.274,0.000,0.000,0.000: // measure 1
00000000
00000000
00000000
00000000
,  // measure 2
00000000
00000000
00000000
00000000
,  // measure 3
00000000
00000000
00000000
00000000
,  // measure 4
00000000
00000000
00000000
00000000
,  // measure 5
00000000
00001000
00000000
00010000
00000000
00001000
00000000
00001000
,  // measure 6
00000000
01000000
00000000
00100000
00000000
01000000
00000000
01000000
,  // measure 7
00000000
00001000
00000000
00010000
00000000
00001000
00000000
00001000
,  // measure 8
00000000
00000100
00000000
00000010
00000000
00000100
00000000
00000100
,  // measure 9
00000000
00000001
00000000
00000010
00000000
00000100
00000100
00000100
,  // measure 10
00000000
00010000
00000000
00001000
00000000
00010000
00010000
00010000
,  // measure 11
00000000
00001000
00000000
01000000
00000000
00100000
00100000
00100000
,  // measure 12
00000000
10000000
00000000
01000000
00000000
00100000
00100000
00100000
,  // measure 13
00000000
00001000
00000000
00010000
00000000
00000100
00000100
00000100
,  // measure 14
00000000
00001000
00000000
00000010
00000000
00000100
00000100
00000100
,  // measure 15
00000000
00000001
00000000
00001000
00000000
00000100
00000100
00000100
,  // measure 16
00000000
00000010
00000000
00000001
00000000
00000100
00000100
00000000
,  // measure 17
00000100
00000100
00000010
00001000
,  // measure 18
00000100
00010000
00001000
00001000
,  // measure 19
01000000
00010000
00100000
00100000
,  // measure 20
01000000
00000000
01000000
00000000
,  // measure 21
10000000
00010000
01000000
01000000
,  // measure 22
00001000
00010000
00000100
00010000
,  // measure 23
00000100
00000010
00000001
00000100
,  // measure 24
00000010
00000000
00000010
00000000
,  // measure 25
00001000
00000000
00000100
00000000
,  // measure 26
00010000
00000000
00001000
00000000
,  // measure 27
01000000
00000000
00100000
00000000
,  // measure 28
10000000
00000000
01000000
00000000
,  // measure 29
00010000
00000000
00001000
00000000
,  // measure 30
00000010
00000000
00000001
00000000
,  // measure 31
00000100
00000000
00000010
00000000
,  // measure 32
00010000
00000000
00001000
00000000
,  // measure 33
01000000
01000000
00100000
00000000
,  // measure 34
01000000
01000000
00010000
00000000
,  // measure 35
00100000
00100000
00001000
00010000
,  // measure 36
00000100
00000100
00001000
00000000
,  // measure 37
00000010
00000010
00000100
00000000
,  // measure 38
00000001
00000001
00000010
00000000
,  // measure 39
00000100
00000100
00010000
00001000
,  // measure 40
00100000
00100000
00010000
00000000
,  // measure 41
01000000
01000000
00100000
00000000
,  // measure 42
10000000
10000000
01000000
00000000
,  // measure 43
00100000
00100000
01000000
10000000
,  // measure 44
00010000
00010000
01000000
00000000
,  // measure 45
00001000
00001000
00010000
00000000
,  // measure 46
00000100
00000100
00001000
00000000
,  // measure 47
00000010
00000010
00000100
00000001
,  // measure 48
00000010
00000010
00000100
00000000
,  // measure 49
00001000
00000000
00000000
00000000
,  // measure 50
00000100
00000000
00000000
00000000
,  // measure 51
00010000
00000000
00000000
00000000
,  // measure 52
01000000
00000000
00000000
00000000
,  // measure 53
10000000
00000000
00000000
00000000
,  // measure 54
00010000
00000000
00000000
00000000
,  // measure 55
00001000
00000000
00000001
00000000
;
