#TITLE:We Gonna Party;
#SUBTITLE:;
#ARTIST:Cranky;
#TITLETRANSLIT:;
#SUBTITLETRANSLIT:;
#ARTISTTRANSLIT:;
#GENRE:;
#CREDIT:Silverhawke;
#MENUCOLOR:;
#METERTYPE:DDR;
#BANNER:We Gonna Party.png;
#BACKGROUND:We Gonna Party-bg.png;
#LYRICSPATH:;
#CDTITLE:cdtitle.png;
#MUSIC:We Gonna Party.mp3;
#OFFSET:-0.028;
#SAMPLESTART:51.344;
#SAMPLELENGTH:15.000;
#SELECTABLE:YES;
#LISTSORT:;
#BPMS:0.000=159.000;
#STOPS:;
#BGCHANGES:;
#ATTACKS:;

//---------------dance-single - ----------------
#NOTES:
     dance-single:
     :
     Hard:
     14:
     0.683,0.723,0.277,0.144,0.752:
0000
0000
0000
0000
,
0000
0000
0000
0000
,
0000
0000
0000
0000
,
0000
0000
0000
0000
,
0000
0000
0000
0000
,
0000
0000
0000
0000
,
0001
0000
0000
0100
0000
0000
1000
0000
0000
0100
0000
0000
0001
0000
0010
0100
,
0010
0000
0000
0010
0000
0000
0001
0000
0100
0000
0010
0000
1000
0000
0100
0000
,
0010
0000
0000
0100
0000
0000
1000
0000
0000
0100
0000
0000
0010
0000
0001
1000
,
0001
0000
0000
0001
0000
0000
0100
0000
0000
0010
1000
0000
0010
0000
0100
0000
,
0001
0000
0000
0010
0000
0000
1000
0000
0000
0010
0000
0000
0001
0000
0100
0010
,
0100
0000
0000
0100
0000
0000
0010
1000
0000
1000
0001
0000
0010
0000
0100
0000
,
1000
0000
0000
0001
0000
0000
0100
0010
0100
0000
0000
0001
0000
0000
0100
0010
,
0100
0000
0000
0101
0000
0000
1000
0100
0020
0000
0000
0000
0031
0000
0000
0000
,
1000
0010
1000
0010
0001
0010
0001
0010
,
0100
0000
0010
0000
0001
0000
0010
0000
1000
0001
0000
1000
0001
0000
0010
0000
,
0200
0000
0000
0000
1300
0001
0000
0100
0000
0001
1000
0001
1000
0000
0100
0010
,
0100
0000
1000
0000
0010
0100
0000
0001
0000
0010
0100
0010
0100
0000
1000
0000
,
0001
0100
0001
0100
1000
0100
1000
0100
,
0001
0100
0010
0100
1000
0100
0001
1000
,
1200
0000
0000
0000
0310
0001
0000
1000
0000
0010
0100
0010
0100
0000
0001
1000
,
0000
0010
0100
0010
0000
1000
0100
0010
0002
0000
0000
0000
1003
0000
0000
0000
,
0002
0100
0000
0103
,
2000
0000
0100
0000
0000
0000
3100
0100
,
0002
0010
0000
0013
,
1010
0000
0000
0101
0000
0000
1100
0000
0001
0000
0010
0000
0100
1000
0100
1000
,
0001
0000
0000
0101
0000
0000
1000
0000
0000
1100
0000
0000
0001
0000
1000
0100
,
1000
0000
0000
0010
0000
0000
0100
0000
0100
0000
0001
0000
1000
0000
0100
0000
,
0010
0000
0000
0011
0000
0000
0100
0000
0000
1100
0000
0000
1000
0000
0001
0100
,
0001
0000
0000
0100
0000
0000
0010
1000
0000
1000
0100
0000
0010
0000
0001
0000
,
1000
0100
1000
0100
0010
0000
0001
0000
0000
0101
0000
0000
1000
0000
0100
0010
,
0100
0000
0000
1000
0000
0000
0010
0000
0000
0100
0001
0000
0100
0000
0010
1000
,
0010
0000
0000
0001
0000
0000
0010
0100
0010
0000
0000
1000
0000
0000
0010
0100
,
0010
0000
0000
1010
0000
0000
1100
0000
0000
0011
0000
0000
0101
0000
0001
1000
,
0001
0000
0010
0000
0100
0000
1000
0001
0000
0100
0000
0001
1000
0000
0100
0000
,
0010
0000
0001
0000
0100
0000
1000
0100
0000
0001
0000
0010
0100
0000
1000
0000
,
0002
0000
0000
0000
0013
0100
0000
1000
0000
0001
0100
0001
0100
0000
0010
0000
,
1000
0100
1000
0100
0000
0010
0001
0010
0000
0001
0100
0010
1000
0000
0001
0000
,
0100
0010
0100
0000
0001
0000
1000
0100
0000
0010
0000
0100
1000
0000
0001
0000
,
0100
0010
1000
0001
0010
0100
1000
0010
,
0200
0000
0000
0000
0310
1000
0000
0001
0000
1000
0100
0010
0100
0000
1000
0000
,
0001
0100
0010
0100
0000
0010
1000
0001
0200
0000
0000
0000
0310
0000
0010
0000
,
1000
0000
0100
0000
0010
0000
0000
0000
0101
0000
0000
1100
0000
0000
0000
0000
,
0010
0000
1000
0000
0001
0010
0000
0100
0000
1000
0010
0100
0001
0000
1000
0000
,
0100
0000
0010
0000
0001
0000
0000
0000
0011
0000
0000
1010
0000
0000
0100
0000
,
0001
1000
0000
0100
0000
0010
0001
1000
0001
0000
0100
0000
0010
1000
0000
0000
,
0001
0000
0100
0000
0010
0000
0000
0000
1010
0000
0000
1100
0000
0000
0000
0000
,
0010
0000
0001
0000
0100
0010
0000
1000
0000
0100
0010
0001
1000
0000
0010
0000
,
0100
0000
0001
0000
1000
0000
0000
0000
0101
0000
0000
0011
0000
0000
0100
0000
,
1000
0001
1000
0001
0000
0100
0010
0100
0010
0000
1000
0000
0100
0000
0010
0000
,
0001
0100
0010
1000
0000
0100
0000
0010
0000
0001
0100
0010
1000
0000
0100
0010
,
0001
0000
0000
0000
0000
2002
0000
0000
0000
0000
0000
0000
0000
0000
0000
0000
,
0000
3003
0000
0000
;

//---------------dance-single - ----------------
#NOTES:
     dance-single:
     :
     Medium:
     10:
     0.449,0.440,0.072,0.084,0.169:
0000
0000
0000
0000
,
0000
0000
0000
0000
,
0000
0000
0000
0000
,
0000
0000
0000
0000
,
0000
0000
0000
0000
,
0000
0000
0000
0000
,
0010
0000
0000
0100
0000
0000
0010
0000
0000
0100
0000
0000
0010
0000
0000
0000
,
1000
0000
0000
0001
0000
0000
1000
0000
0001
0000
0100
0000
0010
0000
0000
0000
,
1000
0000
0000
0100
0000
0000
1000
0000
0000
0100
0000
0000
1000
0000
0000
0000
,
0001
0000
0000
0100
0000
0000
0001
0000
0010
0000
0100
0000
1000
0000
0000
0000
,
0001
0000
0000
0010
0000
0000
0001
0000
0000
0010
0000
0000
0001
0000
0000
0000
,
1000
0000
0000
0010
0000
0000
1000
0000
0100
0000
0010
0000
0001
0000
0000
0000
,
0100
0000
0000
0100
0000
0000
0100
0000
0001
0000
0000
0001
0000
0000
0001
0000
,
1000
0000
0000
1000
0000
0000
1000
0000
0200
0000
0000
0000
0300
0000
0000
0000
,
0010
0001
0010
0000
0001
0100
0001
0000
,
0100
1000
0100
0000
1000
0010
1000
0000
,
0010
0000
0001
0000
0100
0010
1000
0000
,
0001
0010
0100
1000
0001
0000
1001
0000
,
0100
1000
0100
0000
1000
0010
1000
0000
,
0010
0001
0010
0000
0001
0100
0001
0000
,
0100
0000
1000
0000
0010
0100
0001
0000
,
1000
0100
0010
0001
1000
0000
1001
0000
,
0020
0100
0000
0130
,
2000
0001
0000
3001
,
0200
0010
0000
0310
,
1000
0000
0000
0001
0000
0000
1001
0000
0000
0000
0001
0000
0100
0000
0010
0000
,
1000
0000
0000
0100
0000
0000
0010
0000
0000
0001
0000
0000
1000
0000
0000
0000
,
0001
0000
0000
0100
0000
0000
0010
0000
1000
0000
0001
0000
1000
0000
0000
0000
,
0100
0000
0000
0010
0000
0000
0001
0000
0000
0100
0000
0000
0010
0000
0000
0000
,
1000
0000
0000
0100
0000
0000
1000
0000
0010
0000
0100
0000
0001
0000
0000
0000
,
0010
0000
0000
0000
0100
0000
0010
0000
0000
0001
0000
0000
0100
0000
0000
0000
,
0010
0000
0000
1000
0000
0000
0100
0000
0010
0000
0001
0000
1000
0000
0000
0000
,
0010
0000
0000
0010
0000
0000
0100
0000
1000
0000
0000
1000
0000
0000
0100
0000
,
0001
0000
0000
0001
0000
0000
1000
0000
0000
1000
0000
0000
0100
0000
0010
0000
,
0001
0100
0001
0000
1000
0100
1000
0000
,
0001
0010
0100
1000
0010
0000
0110
0000
,
0100
0001
1000
0000
0100
1000
0001
0000
,
0100
0000
0010
0000
1000
0100
0010
0000
,
0001
0100
0001
0000
1000
0100
1000
0000
,
0001
0010
0100
1000
0010
0000
0110
0000
,
0100
0001
1000
0000
0100
1000
0001
0000
,
0010
0001
0100
0010
2000
0000
3000
0000
,
0001
0100
1000
0100
,
0001
0010
0100
1000
0001
0010
0100
0000
,
1000
0100
0001
0100
,
1000
0010
0100
0001
1000
0010
0100
0000
,
0001
0010
1000
0010
,
0001
0100
0010
1000
0001
0100
0010
0000
,
1000
0010
0001
0010
,
1000
0100
0010
0001
1000
0100
0010
0000
,
0001
0000
1000
0000
0000
0100
0000
0010
0000
0000
0001
0000
0100
0000
0010
0000
,
1000
0000
0000
0000
0000
2002
0000
0000
0000
0000
0000
0000
0000
0000
0000
0000
,
0000
3003
0000
0000
;

//---------------dance-single - ----------------
#NOTES:
     dance-single:
     :
     Easy:
     7:
     0.371,0.377,0.036,0.096,0.006:
0000
0000
0000
0000
,
0000
0000
0000
0000
,
0000
0000
0000
0000
,
0000
0000
0000
0000
,
0000
0000
0000
0000
,
0000
0000
0000
0000
,
1000
0000
0001
1000
0001
0000
0100
0000
,
0010
0000
0100
0000
0001
1000
0001
0000
,
0010
0000
0100
1000
0100
0000
0010
0000
,
0001
0000
1000
0000
0001
0100
0001
0000
,
0010
0000
0100
1000
0100
0000
1000
0000
,
0010
0000
0100
0000
0001
1000
0001
0000
,
0100
0000
0000
0010
0100
0000
0000
0010
,
0100
0010
0110
0000
,
1000
0100
0001
0010
,
1000
0010
0001
0100
,
1000
0000
0001
0000
0100
0010
0100
0000
,
0001
0010
0100
1000
,
0001
0100
1000
0010
,
0001
0010
1000
0100
,
0001
0000
0010
0000
0100
1000
0100
0000
,
1000
0010
0100
0001
,
2000
3000
0200
0300
,
0020
0030
0002
0003
,
2000
3000
0020
0030
,
0100
0001
1001
0000
,
1000
0000
0100
0000
0010
0100
1000
0000
,
0001
0000
0100
0000
0001
0000
0010
0100
,
1000
0000
0010
0000
0100
0000
0001
1000
,
0010
0000
0100
0000
0001
0010
0100
0000
,
0020
0000
0031
0000
1000
0100
0010
0000
,
0001
0000
0100
0000
0010
0100
0001
0000
,
1000
0000
0000
0001
1000
0000
0000
0001
,
1000
0001
1001
0000
,
1000
0000
0100
0000
0010
0001
0100
0000
,
1000
0010
0001
0100
,
0010
0000
1000
0000
0001
0010
0100
0000
,
1000
0100
0010
0000
0001
1000
0001
0000
,
1000
0000
0100
0000
0010
0001
0100
0000
,
1000
0010
0001
0010
,
1000
0000
0100
0000
0010
0001
0100
0000
,
0001
0010
0100
1000
0001
0000
1000
0000
,
0001
0001
1000
1000
,
0010
0100
0010
0000
0100
0010
0100
0000
,
1000
1000
0001
0001
,
0010
0100
0010
0000
0100
0010
0100
0000
,
1000
1000
0100
0100
,
0010
0001
0010
0000
0001
0100
0001
0000
,
0010
0010
1000
1000
,
0001
0010
0100
1000
0001
0000
1000
0000
,
0001
0000
0100
0000
0010
1000
0100
0010
,
0001
0000
0000
0000
0000
2000
0000
0000
0000
0000
0000
0000
0000
0000
0000
0000
,
0000
3000
0000
0000
;

//---------------dance-single - ----------------
#NOTES:
     dance-single:
     :
     Beginner:
     2:
     0.163,0.185,0.000,0.000,0.006:
0000
0000
0000
0000
,
0000
0000
0000
0000
,
0000
0000
0000
0000
,
0000
0000
0000
0000
,
0000
0000
0000
0000
,
0000
0000
0000
0000
,
1000
0000
1000
0000
,
0001
0000
0001
0000
,
1000
0000
1000
0000
,
0001
0000
0001
0000
,
0100
0000
0100
0000
,
0010
0000
0010
0000
,
0100
0000
0100
0000
,
0010
0000
0010
0000
,
1000
0000
1000
0000
,
1000
0000
1000
0000
,
0001
0000
0001
0000
,
0001
0001
0001
0000
,
0100
0000
0100
0000
,
0100
0000
0100
0000
,
0010
0000
0010
0000
,
0010
0010
0010
0000
,
1000
0000
0000
0000
,
0100
0000
0000
0000
,
0010
0000
0000
0000
,
0001
0000
0000
0000
,
1000
0000
1000
0000
,
0001
0000
0001
0000
,
1000
0000
1000
0000
,
0001
0000
0001
0000
,
0100
0000
0100
0000
,
0010
0000
0010
0000
,
0100
0000
0100
0000
,
0010
0000
0010
0000
,
1000
0000
1000
0000
,
1000
0000
1000
0000
,
0001
0000
0001
0000
,
0001
0001
0001
0000
,
0100
0000
0100
0000
,
0100
0000
0100
0000
,
0010
0000
0010
0000
,
0010
0010
0010
0000
,
1000
0000
1000
0000
,
1000
1000
1000
0000
,
0100
0000
0100
0000
,
0100
0100
0100
0000
,
0001
0000
0001
0000
,
0001
0001
0001
0000
,
0010
0000
0010
0000
,
0010
0010
0010
0000
,
0100
0000
0000
0000
,
0100
0000
0000
0000
0000
0100
0000
0000
0000
0000
0000
0000
0000
0000
0000
0000
;

//---------------dance-double - ----------------
#NOTES:
     dance-double:
     :
     Hard:
     14:
     0.686,0.692,0.289,0.169,0.710: // measure 1
00000000
00000000
00000000
00000000
,  // measure 2
00000000
00000000
00000000
00000000
,  // measure 3
00000000
00000000
00000000
00000000
,  // measure 4
00000000
00000000
00000000
00000000
,  // measure 5
00000000
00000000
00000000
00000000
,  // measure 6
00000000
00000000
00000000
00000000
,  // measure 7
00010000
00000000
00000000
01010000
00000000
00000000
01000000
00000000
00000000
01100000
00000000
00000000
00100000
00000000
10000000
00010000
,  // measure 8
10000000
00000000
00000000
01000000
00000000
00000000
00100000
00001000
00000000
00001000
00010000
00000000
00000100
00000000
00001000
00000000
,  // measure 9
00000010
00000000
00000000
00000110
00000000
00000000
00000100
00000000
00000000
00000101
00000000
00000000
00000001
00000000
00001000
00000100
,  // measure 10
00001000
00000000
00000000
00000100
00000000
00000000
00010000
00001000
00000000
00001000
01000000
00000000
00010000
00000000
00100000
00000000
,  // measure 11
01000000
00000000
00000000
11000000
00000000
00000000
10000000
00000000
00000000
10010000
00000000
00000000
00010000
00000000
01000000
00001000
,  // measure 12
01000000
00000000
00000000
00010000
00000000
00000000
00001000
00000010
00000000
00000010
00000100
00000000
00000001
00000000
00000010
00000000
,  // measure 13
00000100
00000000
00000000
00000100
00000000
00000000
00010000
00001000
00010000
00000000
00000000
00010000
00000000
00000000
00001000
01000000
,  // measure 14
00001000
00000000
00000000
00001000
00000000
00000000
00100000
01000000
00200000
00000000
00000000
00000000
01300000
00000000
00000000
00000000
,  // measure 15
10000000
01000000
00010000
00001000
00000100
00000001
00000100
00001000
,  // measure 16
00010000
00100000
10000000
00100000
00010000
00001000
00000010
00000001
,  // measure 17
00002000
00000000
00000000
00000000
00003001
00000100
00000000
00000010
00000000
00000100
00000001
00000100
00000001
00000000
00001000
00000000
,  // measure 18
00000100
00010000
00000100
00010000
00000000
00001000
00010000
00001000
00000000
01000000
00010000
00000000
00100000
00000000
01000000
00000000
,  // measure 19
10000000
00100000
00010000
00001000
00000010
00000001
00000010
00001000
,  // measure 20
00010000
01000000
10000000
01000000
00010000
00001000
00000100
00000001
,  // measure 21
00002000
00000000
00000000
00000000
00003100
00010000
00000000
00001000
00000000
01000000
00010000
01000000
00010000
00000000
00100000
00000000
,  // measure 22
01000000
10000000
00000000
00010000
00000000
10000000
01000000
00100000
02000000
00000000
10000000
00000000
13000000
00000000
10000000
00000000
,  // measure 23
20000000
00010000
00000000
30010000
,  // measure 24
00002000
00000000
00000001
00000000
00000000
00000000
00003001
00000001
,  // measure 25
00002000
00010000
00000000
00013000
,  // measure 26
10000000
00000000
00000000
11000000
00000000
00000000
00010000
00000000
00000000
01010000
00000000
00000000
10000000
00000000
01000000
00000000
,  // measure 27
00100000
00000000
00000000
00101000
00000000
00000000
00001000
00000000
00000000
00011000
00000000
00000000
00010000
00000000
00000100
00001000
,  // measure 28
00000100
00000000
00000000
00001100
00000000
00000000
00001000
00000001
00000000
00000001
00000100
00000000
00000010
00000000
00010000
00000000
,  // measure 29
00001000
00000000
00000000
01001000
00000000
00000000
01000000
00000000
00000000
01100000
00000000
00000000
00100000
00000000
10000000
00010000
,  // measure 30
10000000
00000000
00000000
11000000
00000000
00000000
01000000
00100000
00000000
00100000
00001000
00000000
00000100
00000000
00000010
00000000
,  // measure 31
00001000
00000001
00001000
00000001
00001000
00000000
00000001
00000000
00000000
00000101
00000000
00000000
00000100
00000000
00000010
00010000
,  // measure 32
00000010
00000000
00000000
00010010
00000000
00000000
00010000
00001000
00000000
00001000
01000000
00000000
00100000
00000000
10000000
00000000
,  // measure 33
01000000
00000000
00000000
01100000
00000000
00000000
00100000
00001000
00100000
00000000
00000000
00101000
00000000
00000000
00001000
00010000
,  // measure 34
00001000
00000000
00000000
00001100
00000000
00000000
00000100
00000010
00002000
00000000
00000000
00000000
00003001
00000000
00000000
00000000
,  // measure 35
00000001
00000100
00001000
00010000
01000000
10000000
01000000
00010000
,  // measure 36
00001000
00000010
00000001
00000010
00001000
00010000
00100000
10000000
,  // measure 37
00020000
00000000
00000000
00000000
10030000
01000000
00000000
00100000
00000000
01000000
10000000
01000000
10000000
00000000
00010000
00000000
,  // measure 38
01000000
00001000
01000000
00001000
00000000
00010000
00001000
00010000
00000000
00000100
00001000
00000000
00000010
00000000
00000100
00000000
,  // measure 39
00000001
00000010
00001000
00010000
00100000
10000000
00100000
00010000
,  // measure 40
00001000
00000100
00000001
00000100
00001000
00010000
01000000
10000000
,  // measure 41
00020000
00000000
00000000
00000000
01030000
00001000
00000000
00010000
00000000
00000100
00001000
00000100
00001000
00000000
00000010
00000000
,  // measure 42
00000100
00000001
00000000
00001000
00000000
00000001
00000100
00000010
00000200
00000000
00000000
00000000
00000301
00000000
00000000
00000000
,  // measure 43
00001000
00000000
00000100
00000000
00010000
00000000
00000000
00000000
00001000
01000000
00000000
01010000
00000000
00000000
00010000
00000000
,  // measure 44
10000000
00000000
01000000
00000000
00100000
00001000
00000000
00010000
00000000
00000100
00001000
00000010
00000100
00000000
00000001
00000000
,  // measure 45
00001000
00000000
00000100
00000000
00010000
00000000
00000000
00000000
00001000
00100000
00000000
01100000
00000000
00000000
01000000
00000000
,  // measure 46
00010000
00001000
00010000
00001000
00000000
00000100
00000010
00000100
00000010
00000000
00001000
00000000
00000001
00000010
00000000
00000000
,  // measure 47
00000100
00000000
00010000
00000000
00001000
00000000
00000000
00000000
00100000
01000000
00000000
11000000
00000000
00000000
10000000
00000000
,  // measure 48
00010000
00000000
01000000
00000000
00001000
00010000
00000000
00000100
00000000
00001000
00000010
00000100
00000001
00000000
00000010
00000000
,  // measure 49
00000100
00000000
00010000
00000000
00001000
00000000
00000000
00000000
00000100
00000010
00000000
00001010
00000000
00000000
00001000
00000000
,  // measure 50
00000100
00010000
00000100
00010000
00000000
00001000
01000000
00001000
02000000
00000000
00100000
00000000
03100000
00000000
00100000
00000000
,  // measure 51
10000000
01000000
10000000
01000000
00000000
00100000
00000000
00001000
00000000
00010000
00000100
00010000
00000100
00000000
00000010
00000001
,  // measure 52
00001000
00000000
00000000
00000000
00000000
00002002
00000000
00000000
00000000
00000000
00000000
00000000
00000000
00000000
00000000
00000000
,  // measure 53
00000000
00003003
00000000
00000000
;

//---------------dance-double - ----------------
#NOTES:
     dance-double:
     :
     Medium:
     10:
     0.463,0.472,0.181,0.096,0.175: // measure 1
00000000
00000000
00000000
00000000
,  // measure 2
00000000
00000000
00000000
00000000
,  // measure 3
00000000
00000000
00000000
00000000
,  // measure 4
00000000
00000000
00000000
00000000
,  // measure 5
00000000
00000000
00000000
00000000
,  // measure 6
00000000
00000000
00000000
00000000
,  // measure 7
00010000
00000000
00000000
00001000
00000000
00000000
00010000
00000000
00000000
00001000
00000000
00000000
00010000
00000000
00000000
00000000
,  // measure 8
01000000
00000000
00000000
00100000
00000000
00000000
01000000
00000000
10000000
00000000
00010000
00000000
01000000
00000000
00000000
00000000
,  // measure 9
00100000
00000000
00000000
10000000
00000000
00000000
00100000
00000000
00000000
01000000
00000000
00000000
00010000
00000000
00000000
00000000
,  // measure 10
00100000
00000000
00000000
00001000
00000000
00000000
00010000
00000000
00000100
00000000
00001000
00000000
00000010
00000000
00000000
00000000
,  // measure 11
00000100
00000000
00000000
00000001
00000000
00000000
00000010
00000000
00000000
00000001
00000000
00000000
00000010
00000000
00000000
00000000
,  // measure 12
00000100
00000000
00000000
00010000
00000000
00000000
00001000
00000000
00100000
00000000
01000000
00000000
10000000
00000000
00000000
00000000
,  // measure 13
00010000
00000000
00000000
00010000
00000000
00000000
10000000
00000000
00100000
00000000
00000000
00100000
00000000
00000000
10000000
00000000
,  // measure 14
01000000
00000000
00000000
01000000
00000000
00000000
00100000
00000000
00020000
00000000
00000000
00000000
00030000
00000000
00000000
00000000
,  // measure 15
00001000
00000100
00000010
00000000
00000001
00000100
00000010
00000000
,  // measure 16
00010000
00001000
00010000
01000000
00100000
00000000
00110000
00000000
,  // measure 17
10010000
00000000
00010000
00000000
00100000
01000000
10000000
00000000
,  // measure 18
00010000
01000000
00001000
00010000
00000100
00000000
00001100
00000000
,  // measure 19
00001000
00000010
00000100
00000000
00000001
00000010
00000100
00000000
,  // measure 20
00010000
00001000
00010000
00000000
00100000
01000000
00010000
10000000
,  // measure 21
01000000
00000000
00100000
00000000
00010000
01000000
00001000
00000000
,  // measure 22
00010000
00000100
00010000
00000100
00000020
00000000
00000030
00000000
,  // measure 23
00000002
00000100
00000000
00000103
,  // measure 24
00002000
00010000
00000000
00013000
,  // measure 25
02000000
10000000
00000000
13000000
,  // measure 26
00010000
00000000
00000000
01000000
00000000
00000000
00100000
00000000
00000000
10000000
00000000
00000000
00010000
00000000
00000000
00000000
,  // measure 27
10000000
00000000
00000000
01000000
00000000
00000000
00100000
00000000
00000000
00010000
00000000
00000000
00100000
00000000
00000000
00000000
,  // measure 28
00001000
00000000
00000000
00010000
00000000
00000000
00001000
00000000
00000100
00000000
00000010
00000000
00001000
00000000
00000000
00000000
,  // measure 29
00000001
00000000
00000000
00000010
00000000
00000000
00000001
00000000
00000000
00001000
00000000
00000000
00000100
00000000
00000000
00000000
,  // measure 30
00010000
00000000
00000000
00001000
00000000
00000000
01000000
00000000
00010000
00000000
00100000
00000000
01000000
00000000
00000000
00000000
,  // measure 31
10000000
00000000
10000000
00000000
10000000
00000000
00010000
00000000
00000000
01000000
00000000
00000000
00001000
00000000
00000000
00000000
,  // measure 32
00010000
00000000
00000000
00000100
00000000
00000000
00000010
00000000
00000100
00000000
00001000
00000000
00000001
00000000
00000000
00000000
,  // measure 33
00000100
00000000
00000000
00000100
00000000
00000000
00000010
00000000
00001000
00000000
00000000
00001000
00000000
00000000
00000010
00000000
,  // measure 34
00010000
00000000
00000000
00010000
00000000
00000000
00001000
00000000
00000000
00010000
00000000
00000000
01000000
00000000
10000000
00000000
,  // measure 35
00010000
01000000
00100000
00000000
10000000
01000000
00100000
00000000
,  // measure 36
00001000
00010000
00001000
00000100
00000010
00000000
00001010
00000000
,  // measure 37
00001001
00000000
00001000
00000000
00000010
00000100
00000001
00000000
,  // measure 38
00001000
00000100
00010000
00001000
01000000
00000000
01010000
00000000
,  // measure 39
00010000
00100000
01000000
00000000
10000000
00100000
01000000
00000000
,  // measure 40
00001000
00010000
00001000
00000000
00000010
00000100
00001000
00000001
,  // measure 41
00000100
00000000
00000010
00000000
00001000
00000100
00010000
00000000
,  // measure 42
00001000
01000000
00001000
01000000
00200000
00000000
00300000
00000000
,  // measure 43
10000000
01000000
00100000
00000000
00110000
00000000
10010000
00000000
,  // measure 44
10000000
01000000
00100000
00000000
00001000
00000000
00010000
00000000
,  // measure 45
00000100
00000010
00000001
00000000
00000011
00000000
00001001
00000000
,  // measure 46
00001000
00000010
00000100
00000000
00000001
00000000
00000100
00000000
,  // measure 47
00000010
00010000
00001000
00000000
01001000
00000000
01010000
00000000
,  // measure 48
00010000
00100000
01000000
00000000
11000000
00000000
10010000
00000000
,  // measure 49
00010000
01000000
00001000
00000000
00010000
00000100
00001000
00000000
,  // measure 50
00000010
00000100
00000001
00000010
00000100
00000000
00001000
00000000
,  // measure 51
00000001
00000000
00000100
00000000
00000000
00000010
00000000
00000100
00000000
00000000
00000001
00000000
00001000
00000000
00000100
00000000
,  // measure 52
00000010
00000000
00000000
00000000
00000000
00000220
00000000
00000000
00000000
00000000
00000000
00000000
00000000
00000000
00000000
00000000
,  // measure 53
00000000
00000330
00000000
00000000
;

//---------------dance-double - ----------------
#NOTES:
     dance-double:
     :
     Easy:
     7:
     0.354,0.346,0.000,0.084,0.018: // measure 1
00000000
00000000
00000000
00000000
,  // measure 2
00000000
00000000
00000000
00000000
,  // measure 3
00000000
00000000
00000000
00000000
,  // measure 4
00000000
00000000
00000000
00000000
,  // measure 5
00000000
00000000
00000000
00000000
,  // measure 6
00000000
00000000
00000000
00000000
,  // measure 7
10000000
01000000
00100000
00001000
,  // measure 8
00010000
00000000
00000100
00000000
00000010
00000001
00000100
00000000
,  // measure 9
00000010
00010000
00001000
01000000
,  // measure 10
00010000
00000000
00100000
00000000
01000000
00010000
00001000
00000000
,  // measure 11
00000100
00000010
00001000
00000001
,  // measure 12
00000100
00000000
00001000
00000000
00010000
00100000
01000000
00000000
,  // measure 13
00010000
10000000
00010000
00001000
,  // measure 14
00000001
00000100
00000020
00000030
,  // measure 15
00001000
00000100
00001000
00000000
00000100
00000000
00010000
00000000
,  // measure 16
00001000
00000000
01000000
00000000
00010000
00100000
01000000
00000000
,  // measure 17
10000000
01000000
00010000
00001000
,  // measure 18
00000100
00000010
00001000
00000001
,  // measure 19
00000010
00000100
00000010
00000000
00000001
00000000
00000100
00000000
,  // measure 20
00001000
00010000
00100000
01000000
,  // measure 21
00010000
00000000
10000000
00000000
01000000
00100000
01000000
00000000
,  // measure 22
10000000
01000000
00010000
00001000
,  // measure 23
00000200
00000000
00000300
00000000
,  // measure 24
00000020
00000000
00000030
00000000
,  // measure 25
00020000
00000000
00030000
00000000
,  // measure 26
00001000
00000000
01000000
00000000
00100000
10000000
00010000
00000000
,  // measure 27
10000000
01000000
00010000
00001000
,  // measure 28
00010000
00000000
00000100
00000000
00000010
00000001
00000100
00000000
,  // measure 29
00000010
00010000
00001000
00100000
,  // measure 30
00010000
00000000
01000000
00000000
00100000
10000000
01000000
00000000
,  // measure 31
00100000
01000000
00100000
00000000
01000000
00000000
10000000
00000000
,  // measure 32
00010000
00000000
01000000
00000000
00001000
00010000
00000100
00000000
,  // measure 33
00001000
00001000
00000010
00000010
,  // measure 34
00000100
00000000
00000000
00000100
00000000
00000000
00000100
00000000
00000000
00000100
00000000
00000000
00000100
00000000
00000000
00000000
,  // measure 35
00000001
00000000
00001000
00000000
00000100
00010000
00001000
00000000
,  // measure 36
00100000
00000000
01000000
00000000
10000000
01000000
00010000
00000000
,  // measure 37
01000000
00100000
00001000
00010000
,  // measure 38
00000100
00001000
00000010
00000000
00000100
00000000
00000001
00000000
,  // measure 39
00000100
00000010
00001000
00000000
00000100
00000000
00010000
00000000
,  // measure 40
00001000
00000000
00100000
00000000
00010000
10000000
01000000
00000000
,  // measure 41
00100000
00000000
00001000
00000000
00010000
00000010
00000100
00000000
,  // measure 42
00000010
00001000
00000001
00000000
00002000
00000000
00003000
00000000
,  // measure 43
00000001
00000100
00000001
00000100
,  // measure 44
00000010
00001000
00000100
00000000
00010000
00001000
00100000
00000000
,  // measure 45
00010000
01000000
00010000
01000000
,  // measure 46
00100000
10000000
01000000
00000000
00100000
00001000
00010000
00000000
,  // measure 47
00000100
00001000
00000100
00001000
,  // measure 48
00000001
00000010
00000100
00000000
00000010
00000001
00001000
00000000
,  // measure 49
00000010
00000100
00000010
00000100
,  // measure 50
00000001
00001000
00000100
00000000
00020000
00000000
00030000
00000000
,  // measure 51
00001000
00000000
01000000
00000000
00100000
10000000
00010000
00100000
,  // measure 52
01000000
00000000
00000000
00000000
00000000
00200000
00000000
00000000
00000000
00000000
00000000
00000000
00000000
00000000
00000000
00000000
,  // measure 53
00000000
00300000
00000000
00000000
;
