#TITLE:Votum stellarum -Hommarju Remix-;
#SUBTITLE:;
#ARTIST:Remixed by Hommarju;
#TITLETRANSLIT:;
#SUBTITLETRANSLIT:;
#ARTISTTRANSLIT:;
#GENRE:;
#CREDIT:Silverhawke;
#MENUCOLOR:;
#METERTYPE:DDR;
#BANNER:Votum stellarum -Hommarju Remix-.png;
#BACKGROUND:Votum stellarum -Hommarju Remix--bg.png;
#LYRICSPATH:;
#CDTITLE:cdtitle.png;
#MUSIC:Votum stellarum -Hommarju Remix-.mp3;
#OFFSET:-0.028;
#SAMPLESTART:34.286;
#SAMPLELENGTH:15.000;
#SELECTABLE:YES;
#LISTSORT:;
#BPMS:0.000=175.000;
#STOPS:;
#BGCHANGES:;
#ATTACKS:;

//---------------dance-single - ----------------
#NOTES:
     dance-single:
     :
     Hard:
     14:
     0.638,0.841,0.064,0.467,0.230:
0000
0000
0000
0000
,
0000
0000
0000
0000
,
0000
0000
0000
0000
,
0000
0000
0000
0000
,
0000
0000
0000
0000
,
0002
0100
0000
0100
,
2003
0100
3002
0010
,
0203
1000
0000
1000
,
0320
1000
0230
0001
,
0310
1000
1000
1000
,
0100
0010
0010
0010
,
0001
1000
1000
1000
,
0100
0010
0100
0010
,
0001
1000
0001
1000
0010
1000
0010
1000
,
0010
0100
0010
0100
0001
0100
0001
0100
,
0010
1000
0010
1000
0001
0100
0001
0100
0010
1000
0002
0000
0023
0000
0000
0000
,
0130
0000
1000
0100
0000
1000
0100
0000
0010
0001
1000
0100
1000
0001
0010
0100
,
1000
0100
1000
0100
0010
0100
1000
0001
,
0100
1000
0100
0001
1000
0100
0010
0000
,
0001
0100
0001
0100
1000
0100
0001
0010
,
0100
0000
1000
0000
0100
0000
0001
0000
0100
0000
1000
0000
0010
0000
0100
0001
,
0100
0000
0000
0000
0010
0000
1000
0000
0001
0000
0010
0000
0100
0000
1000
0001
,
1000
0000
0000
0000
0001
0000
0010
0000
0100
0000
1000
0000
0001
0000
0100
0100
,
0100
0000
0001
1000
0100
0010
0001
0100
,
1000
0000
0001
0000
0010
0000
1000
0000
0001
0000
1000
0100
0020
0000
0030
0000
,
0001
0100
0110
0000
1000
0100
0010
0100
,
1000
0001
0100
0000
0010
1000
1100
0000
,
0010
0001
1000
0100
1000
0001
0100
0010
,
1000
0001
0100
1000
0001
0010
1000
0000
,
0001
0100
0001
0010
0001
0100
0001
0010
,
0100
1000
0001
0001
1000
0100
0010
0000
,
0001
0100
1000
0000
0001
0010
1000
0000
,
0001
0010
0100
1000
0001
1000
0200
0000
,
0310
0001
0010
0001
0100
0001
0100
0001
,
1000
0010
1000
0010
1000
0100
1000
0100
,
0001
0100
1000
0100
0001
0100
1000
0100
,
0010
0001
0010
1000
0010
0001
0100
0000
,
0001
0001
0010
0010
0001
0001
1000
1000
,
0100
0010
0001
1000
0001
0010
0100
1000
,
0001
0010
0001
0000
1000
0100
0010
0000
0001
1000
0100
0000
0010
0100
1000
0000
,
0002
0000
2000
3003
,
1001
0000
0000
0000
,
0000
0000
0000
0000
,
0102
0000
0000
0000
0000
0000
1003
0000
0100
0000
0000
0100
0000
0000
0010
0000
,
0001
0000
0000
0001
0000
0000
1000
0000
1000
0000
0010
0000
0010
0000
0000
0000
,
0220
0000
0330
0000
,
0000
0000
0000
0000
,
2000
0000
0000
0000
0000
0000
3100
0000
0010
0000
0000
0010
0000
0000
0001
0000
,
0100
0000
0000
0100
0000
0000
0010
0000
1000
0000
0001
0000
0001
0000
0000
0000
,
2002
0000
3003
0000
,
1100
0101
2002
3003
,
0001
0000
0000
0100
0000
0000
0010
0000
1000
0000
0000
0001
0000
0000
0010
0000
,
0100
0000
0000
0001
0000
0000
0100
0000
1000
0000
0001
0000
0001
0000
0000
0000
,
0100
0000
0000
0100
0000
0000
0010
0000
1000
0000
0000
1000
0000
0000
0100
0000
,
0001
0000
0000
0001
0000
0000
0100
0000
1000
0000
0001
0000
0001
0000
0000
0000
,
0100
0000
0000
0100
0000
0000
0010
0000
0001
0000
0000
0001
0000
0000
1000
0000
,
0100
0000
0000
0100
0000
0000
0001
0000
1000
0000
0100
0000
0100
0000
0000
0000
,
0010
0001
1000
0001
0010
1000
0001
0100
,
0010
0000
0001
0100
0020
0000
1030
0001
0100
0010
1000
0001
2000
0000
3010
0100
,
0001
0000
1000
0000
0001
0000
1000
0000
0100
0000
0000
0100
0010
0000
0001
0000
,
1000
0000
0000
1000
0001
0000
0100
0000
0010
0000
1000
0000
2000
0000
3000
0000
,
0001
0000
0000
0001
0100
0000
0010
0000
1000
0000
0000
1000
0100
0000
0001
0000
,
0100
0000
0000
0100
0010
0000
0001
0000
0100
0000
0010
0000
0020
0000
0030
0000
,
1000
0000
0000
1000
0001
0000
0100
0000
0010
0000
0000
0010
1000
0000
0100
0000
,
0001
0000
0000
0001
0100
0000
0010
0000
0001
0000
1000
0000
2000
0000
3000
0000
,
0001
0100
1000
0100
0001
0010
1000
0010
,
0001
0000
0001
0000
1000
0100
0010
0001
1000
0001
0010
0100
2000
0000
3000
0000
,
0001
0100
0000
0000
0001
0000
1000
0000
0100
0000
0010
0000
0001
0000
0100
0000
,
1000
0100
0000
0000
0010
0000
1000
0000
0100
0000
0001
0000
0100
0000
0010
0000
,
0001
0100
0000
0000
1000
0000
0100
0000
0001
0000
1000
0000
0100
0000
0010
0000
,
0001
1000
0000
0000
0100
0000
0001
0000
0100
0000
0010
0000
0001
0000
0100
0000
,
0010
1000
0000
0000
0010
0000
0100
0000
1000
0000
0100
0000
0001
0000
0010
0000
,
0100
1000
0000
0000
0001
0000
0100
0000
0001
0000
0010
0000
1000
0000
0001
0000
,
0100
1000
0000
0000
0001
0000
0100
0000
0001
0000
0010
0000
0100
0000
1000
0000
,
0010
0100
0000
0000
0001
0000
1000
0000
0100
0000
0010
0000
0001
0000
1000
0000
,
0010
0000
0000
0010
0100
0000
0000
0100
0001
0000
1000
0000
0100
0000
0001
0000
,
0100
0000
0000
0100
0010
0000
0000
0010
1000
0000
0001
0000
0100
0000
1000
0000
,
0010
0000
0000
0010
0100
0000
0000
0100
1000
0000
0100
0000
0001
0000
0100
0000
,
0010
0000
0000
0010
1000
0000
0000
1000
0001
0000
0010
0000
0100
0000
0001
0000
,
0100
1000
0001
0000
1000
0100
0010
0000
,
0001
0100
1000
0000
0100
0001
1000
0000
,
0001
0001
0100
0100
1000
1000
0010
0010
,
0002
0023
0230
2300
,
3002
0200
0000
0003
,
2300
0200
0000
3000
,
0302
0020
0000
0003
,
2030
0020
3000
0230
,
0002
0000
0000
0000
,
0300
0203
2300
3020
,
0230
0000
0302
0000
0203
0000
0020
0030
,
0320
2030
3200
0320
,
0002
0000
0030
0000
0200
0000
0000
0300
,
0200
0003
0020
0300
,
2000
0000
0030
0000
0002
0000
0000
0003
,
0002
3000
0020
0003
,
0200
0000
0000
0030
,
2000
0300
0020
3000
,
0200
0030
2000
0300
,
0200
3000
0002
0000
,
0303
0000
0000
0000
;

//---------------dance-single - ----------------
#NOTES:
     dance-single:
     :
     Medium:
     11:
     0.507,0.525,0.057,0.333,0.053:
0000
0000
0000
0000
,
0000
0000
0000
0000
,
0000
0000
0000
0000
,
0000
0000
0000
0000
,
0000
0000
0000
0000
,
2000
0000
0000
0000
,
3200
0000
0320
0000
,
0032
0000
0000
0000
,
0203
0000
0320
0000
,
1030
0001
1000
0001
,
0100
0010
0100
0010
,
1000
0100
0010
0001
,
0010
0100
1000
0001
,
0100
0010
0100
0000
0010
1000
0010
0000
,
1000
0001
1000
0000
0001
0010
0001
0000
,
0010
0001
1000
0100
0010
0001
2000
0000
,
3010
0000
0000
0010
0000
0000
0010
0000
0100
0000
0001
0000
1000
0000
0001
0000
,
0100
0100
0010
0010
,
1000
1000
0100
0100
,
0001
0001
0010
0010
,
1000
0000
1000
0000
0001
0000
0001
0010
,
0100
0000
0010
0000
0010
0100
0010
0001
,
1000
0000
0100
0000
0100
0010
0100
1000
,
0001
0000
0100
0000
0010
0100
1000
0000
,
0010
0001
1000
0010
0100
0001
1001
0000
,
1000
0100
1000
0000
0001
0100
0001
0000
,
1000
0010
1000
0000
0001
0010
0001
0000
,
1000
0100
0010
0000
0001
0100
0010
0000
,
1000
0001
0100
0000
0001
1000
0100
0000
,
0010
0001
0010
0001
0100
0000
0110
0000
,
0010
1000
0010
1000
0100
0000
0110
0000
,
0010
0001
1000
0000
0100
1000
0001
0000
,
0100
0010
1000
0000
0001
0100
0010
0000
,
1000
0000
1000
0000
1000
0001
0100
0000
,
0010
0000
0010
0000
0010
1000
0001
0000
,
0100
0000
0100
0000
0100
1000
0001
0000
,
0010
0000
0010
0000
0001
0010
0100
0000
,
1000
0100
1000
0100
0010
0100
0010
0000
,
0001
0100
0001
0100
0010
0100
0010
0000
,
0001
0001
1000
1000
0001
0010
0100
0000
,
1000
0100
0010
0001
1000
0010
0100
0000
,
1001
0000
0000
0000
,
0000
0000
0000
0000
,
0110
0000
0000
0000
0000
0000
0010
0000
1000
0000
0000
1000
0000
0000
1000
0000
,
0001
0000
0000
0001
0000
0000
0001
0000
0100
0000
0010
0000
0100
0000
0000
0000
,
0002
0000
0003
0000
,
0000
0000
0000
0000
,
1000
0000
0000
0000
0000
0000
0001
0000
0100
0000
0000
0100
0000
0000
0100
0000
,
0010
0000
0000
0010
0000
0000
0010
0000
1000
0000
0001
0000
1000
0000
0000
0000
,
0200
0000
0300
0000
,
0010
0001
2002
3003
,
0001
0000
0000
0000
0000
0000
1000
0000
0100
0000
0000
0100
0000
0000
0100
0000
,
0010
0000
0000
0010
0000
0000
0010
0000
0001
0000
1000
0000
0001
0000
0000
0000
,
0100
0000
0000
0100
0000
0000
0100
0000
0010
0000
0000
0010
0000
0000
0010
0000
,
1000
0000
0000
1000
0000
0000
1000
0000
0001
0000
0100
0000
0010
0000
0000
0000
,
1000
0000
0000
1000
0000
0000
1000
0000
0100
0000
0000
0100
0000
0000
0100
0000
,
0010
0000
0000
0010
0000
0000
0010
0000
0001
0000
1000
0000
0001
0000
0000
0000
,
1000
0000
0000
1000
0000
0000
1000
0000
0001
0000
0000
0001
0000
0000
0001
0000
,
0100
0010
1000
0010
0100
0000
1001
0000
,
0001
0010
0100
0000
0001
0010
0100
0000
,
0001
0010
0100
1000
0100
0010
0001
0000
,
1000
0010
0100
0000
1000
0010
0100
0000
,
1000
0010
0100
0001
0100
0010
1000
0000
,
0001
1000
0100
0000
0001
1000
0100
0000
,
0001
1000
0100
0010
0100
1000
0001
0000
,
1000
0100
0010
0001
1000
0000
0001
0000
,
0100
0100
0010
0000
0010
0100
0001
0000
,
1000
0000
1000
0000
0001
0100
0001
0000
,
1000
0000
0100
0000
0010
0100
1000
0001
,
0100
0000
0010
0000
0100
0001
1000
0000
,
0001
0100
0010
1000
0100
0010
0001
0000
,
1000
0000
0001
0000
1000
0100
0010
0000
,
1000
0100
0010
0001
0100
0010
0001
0000
,
1000
0010
0100
0000
0001
0100
0010
0000
,
1000
0001
1000
0001
0100
0010
1000
0000
,
0001
0010
0100
0010
0001
1000
0100
0000
,
0010
0100
1000
0001
0100
0010
1000
0000
,
0001
0100
0001
0000
1000
0100
1000
0000
,
0001
0010
0100
1000
0100
0010
0001
0000
,
1000
0010
1000
0010
0100
0010
1000
0000
,
0001
0100
0001
0100
0010
0100
0001
0000
,
1000
0000
0100
0001
0010
0000
1000
0000
,
0001
0100
0001
0010
0100
0000
1001
0000
,
2000
3200
0000
0000
,
0320
0032
0000
0000
,
0203
0320
0000
0000
,
2030
3002
0000
0203
,
0320
0000
0000
0000
,
0000
2030
3200
0320
,
0032
0023
0230
2300
,
3002
0203
0320
2030
,
3200
0000
0320
0000
,
0032
0000
0203
0000
,
0320
0000
0230
0000
,
0302
0000
2003
0000
,
3200
0000
0000
0000
,
0320
0000
0032
0000
,
0203
0000
0320
0000
,
2030
0000
3002
0000
,
0003
0000
0000
0000
;

//---------------dance-single - ----------------
#NOTES:
     dance-single:
     :
     Easy:
     8:
     0.352,0.455,0.028,0.021,0.000:
0000
0000
0000
0000
,
0000
0000
0000
0000
,
0000
0000
0000
0000
,
0000
0000
0000
0000
,
0000
0000
0000
0000
,
0001
0000
0000
0000
,
1000
0000
0100
0000
,
0010
0000
0000
0000
,
0001
0000
0100
0000
,
0010
0010
0010
0010
,
0010
0010
0010
0010
,
0010
0010
0010
0010
,
0010
0010
0010
0010
,
0010
1000
0100
0010
,
0001
0100
0010
1000
,
0100
0010
0100
0000
0010
0001
0010
0000
,
0001
0000
1000
0000
0100
0010
0100
0000
,
1000
1000
1000
0100
,
0010
0010
0010
0001
,
0100
0100
0100
0010
,
1000
1000
1000
0001
,
0100
0100
0010
0100
,
0001
0001
1000
0001
,
0010
0010
0100
0010
,
0001
0100
0010
1000
,
0001
0001
0100
0100
,
0010
0000
1000
0000
0100
0010
0100
0000
,
1000
0010
0100
0001
,
1000
0000
0010
0000
0100
0001
0100
0000
,
0001
1000
0001
1000
,
0100
0000
0010
0000
0001
0100
0010
0000
,
0100
0001
1000
0100
,
0020
0030
0200
0300
,
1000
0001
1000
0000
,
0001
0100
0010
1000
,
0100
0010
0001
0000
,
0100
0000
0010
0000
1000
0001
0100
0000
,
0010
0100
0001
0000
,
1000
0100
0010
0000
,
0001
0100
0001
0000
1000
0000
0100
0000
,
1000
0001
1000
0000
0001
0000
0100
0000
,
0010
0000
0000
0000
,
0000
0000
0000
0000
,
1000
0000
0001
0000
,
1000
0000
0000
0001
0100
0000
0010
0000
,
0110
0000
0000
0000
,
0000
0000
0000
0000
,
0001
0000
0000
1000
0100
0000
0000
0100
,
0010
0000
0000
0010
0001
0000
1000
0000
,
1001
0000
0000
0000
,
0100
0010
0110
0000
,
1000
0000
0000
0001
0100
0000
0000
0001
,
1000
0000
0000
0001
0010
0000
0001
0000
,
1000
0000
0000
0010
1000
0000
0000
0010
,
0100
0000
0000
0010
1000
0000
0100
0000
,
0010
0001
1000
0001
,
0010
0100
1000
0001
,
0100
0010
1000
0001
,
0100
0000
0100
0000
0010
0100
0010
0000
,
1000
0000
0001
0000
1000
0100
0010
0000
,
0001
0100
0010
0010
,
1000
0000
0001
0000
0100
0010
1000
0000
,
0001
0010
0001
0001
,
1000
0000
0100
0000
0010
0001
0100
0000
,
0010
0001
1000
0100
,
0010
0000
0100
0000
1000
0001
0100
0000
,
0010
1000
0001
1001
,
1000
0000
1000
0000
1000
0100
0010
0000
,
0001
0000
1000
0000
0001
0100
0001
0000
,
0100
0010
1000
0001
,
0100
0000
0100
0000
0010
1000
0100
0000
,
0010
0100
0010
0000
0010
0000
0001
0000
,
0100
0010
0100
0000
0100
0000
0001
0000
,
1000
0100
0001
0010
,
1000
0001
0100
0010
,
1000
0000
0100
0000
1000
0001
1000
0100
,
0010
0000
0001
0000
1000
0001
1000
0100
,
0010
0000
0001
0000
1000
0001
1000
0100
,
0010
0000
0001
0000
0100
0010
1000
0000
,
0001
0000
0001
0000
0100
0010
1000
0000
,
0001
0000
0001
0000
0100
0010
1000
0000
,
0100
0010
0001
0100
,
0010
1000
0100
0000
0001
0000
0010
0000
,
1000
0100
0000
0000
,
0010
0001
0000
0000
,
1000
0010
0000
0000
,
0100
0001
0000
1000
,
0100
0000
0000
0000
,
0000
0010
0001
0100
,
0010
0100
0001
0010
,
0100
1000
0001
0100
,
0010
0000
0100
0000
,
0001
0000
1000
0000
,
0100
0000
0010
0000
,
0001
0000
0100
0000
,
0001
0000
0000
0000
,
1000
0000
0100
0000
,
0010
0000
0001
0000
,
1000
0000
0020
0000
,
0030
0000
0000
0000
;

//---------------dance-single - ----------------
#NOTES:
     dance-single:
     :
     Beginner:
     4:
     0.141,0.245,0.000,0.007,0.000:
0000
0000
0000
0000
,
0000
0000
0000
0000
,
0000
0000
0000
0000
,
0000
0000
0000
0000
,
0000
0000
0000
0000
,
1000
0000
0000
0000
,
0000
0000
0000
0000
,
0001
0000
0000
0000
,
0100
0000
0100
0000
,
0100
0000
0100
0000
,
0010
0000
0010
0000
,
0100
0000
0100
0000
,
0010
0000
0010
0000
,
0100
0100
0100
0000
,
0010
0010
0010
0000
,
1000
1000
1000
0000
,
0001
0001
0001
0000
,
1000
0000
0000
0000
,
0100
0000
0000
0000
,
0001
0000
0000
0000
,
0010
0000
0010
0000
,
0010
0000
0000
0000
,
0100
0000
0000
0000
,
0010
0000
0010
0000
,
0010
0000
0000
0000
,
1000
0000
1000
0000
,
1000
0000
0000
0000
,
0001
0000
0001
0000
,
0001
0000
0000
0000
,
1000
1000
0000
0000
,
0001
0001
0000
0000
,
0100
0000
0100
0000
,
0100
0000
0000
0000
,
0010
0000
0010
0000
,
0010
0000
0010
0000
,
1000
0000
1000
0000
,
1000
0000
1000
0000
,
0001
0001
0001
0000
,
1000
1000
1000
0000
,
0010
0000
0010
0000
,
0100
0000
0000
0000
,
0001
0000
0000
0000
,
0000
0000
0000
0000
,
1000
0000
0000
0000
,
0000
0000
0000
0000
,
0001
0000
0000
0000
,
0000
0000
0000
0000
,
0100
0000
0000
0000
,
0000
0000
0000
0000
,
0010
0000
0000
0000
,
1000
0000
1000
0000
,
1000
0000
0000
0000
,
0001
0000
0000
0000
,
1000
0000
0000
0000
,
0010
0000
0000
0000
,
0100
0000
0000
0000
,
0001
0000
0000
0000
,
0100
0000
0100
0000
,
0100
0100
0100
0000
,
0100
0000
0000
0000
,
0010
0000
0010
0000
,
0010
0000
0000
0000
,
1000
0000
1000
0000
,
1000
0000
0000
0000
,
0001
0000
0001
0000
,
0001
0000
0000
0000
,
0010
0010
0010
0000
,
0010
0000
0000
0000
,
0100
0000
0100
0000
,
0100
0000
0000
0000
,
1000
0000
1000
0000
,
1000
0000
0000
0000
,
0001
0000
0001
0000
,
0001
0000
0000
0000
,
0100
0000
0100
0000
,
0100
0000
0000
0000
,
0001
0001
0001
0000
,
0001
0000
0000
0000
,
1000
1000
1000
0000
,
1000
0000
0000
0000
,
0010
0010
0010
0000
,
0010
0000
0000
0000
,
0100
0000
0000
0000
,
0001
0000
0000
0000
,
0001
0000
0000
0000
,
0001
0000
0000
0000
,
0001
0000
0000
0000
,
0001
0000
0000
0000
,
0001
0000
0000
0000
,
0001
0000
0000
0000
,
0001
0000
0000
0000
,
1000
0000
0000
0000
,
1000
0000
0000
0000
,
1000
0000
0000
0000
,
1000
0000
0000
0000
,
0001
0000
0000
0000
,
0001
0000
0000
0000
,
1000
0000
0000
0000
,
1000
0000
0002
0000
,
0003
0000
0000
0000
;

//---------------dance-double - ----------------
#NOTES:
     dance-double:
     :
     Hard:
     14:
     0.640,0.771,0.050,0.410,0.234:
00000000
00000000
00000000
00000000
,
00000000
00000000
00000000
00000000
,
00000000
00000000
00000000
00000000
,
00000000
00000000
00000000
00000000
,
00000000
00000000
00000000
00000000
,
10000000
01000000
00100000
00020000
00000000
00000000
01000000
00000000
,
00000000
01030000
00002000
00013000
,
00000200
00000010
00000000
00000310
,
00000002
00000103
00000020
00001030
,
00000100
00000100
00010000
00010000
,
00001000
00001000
00100000
00100000
,
00010000
01000000
10000000
01000000
,
00010000
00001000
00000010
00000001
,
00000010
00001000
00000001
00000010
00000100
00001000
00000100
00000010
,
00000001
00000100
00001000
00010000
00100000
10000000
00100000
01000000
,
00010000
00100000
00010000
00000000
00100000
01000000
00100000
00000000
01000000
10000000
02000000
00000000
03020000
00000000
00030000
00000000
,
00001000
00000000
00000100
00000010
00000000
00000100
00000010
00000000
00001000
00000001
00000100
00000000
00000010
00001000
00000001
00000000
,
00000010
00000100
00001000
00000100
00000010
00000001
00000100
00000000
,
00000010
00010000
00001000
00100000
01000000
00010000
01000000
00000000
,
10000000
00100000
00010000
00001000
00000100
00000010
00001000
00000000
,
00000001
00000000
00000010
00000000
00000001
00000000
00000100
00000000
00010000
00000000
00000100
00000000
00000010
00000000
00001000
00000001
,
00001000
00000000
00000000
00000000
00000100
00000000
00010000
00000000
00001000
00000000
00100000
00000000
00010000
00000000
01000000
00100000
,
01000000
00000000
00000000
00000000
00010000
00000000
10000000
00000000
01000000
00000000
00010000
00000000
00001000
00000000
00000100
00000010
,
00000100
00000000
00000001
00001000
00000100
00010000
00001000
00000100
,
00000001
00000000
00000010
00000000
00000100
00000000
00001000
00000000
00010000
00000000
00100000
01000000
20000000
00000000
30000000
00000000
,
00010000
01000000
00010000
01000000
00001000
00010000
00001000
00010000
,
00000100
00001000
00000100
00001000
00000010
00000100
00000010
00000100
,
00000001
00000010
00000100
00001000
00000100
00000010
00000001
00000100
,
00001000
00010000
00100000
00010000
00001000
00010000
01000000
10000000
,
00010000
00100000
00010000
01000000
00001000
00010000
00001000
00100000
,
00010000
00001000
00000100
00000010
00000001
00000100
00000010
00000100
,
00000001
00001000
00000100
00010000
00001000
00100000
01000000
10000000
,
01000000
00010000
01000000
10000000
00010000
01000000
10000000
01000000
,
00010000
00100000
00001000
00010000
00001000
00000100
00000010
00001000
,
00000100
00010000
00001000
00100000
00010000
01000000
10000000
01000000
,
00010000
00100000
01000000
10000000
01000000
00010000
00001000
00000100
,
00000010
00001000
00000100
00000001
00000100
00001000
00010000
00100000
,
01000000
01000000
10000000
10000000
00010000
00010000
01000000
01000000
,
00001000
00001000
00010000
00010000
00000100
00000100
00000010
00000010
,
00000001
00000100
00000001
00000000
00001000
00000100
00001000
00000000
00000001
00000010
00000001
00000000
00001000
00000010
00001000
00000000
,
00000002
00000003
00000200
00000300
,
00000110
00000000
00000000
00000000
,
00000000
00000000
00000000
00000000
,
20000000
00000000
00000000
00000000
30000000
00000000
00010000
00000000
01000000
00000000
00000000
01000000
00000000
00000000
00001000
00000000
,
00010000
00000000
00000000
00010000
00000000
00000000
00000100
00000000
00000100
00000000
00000010
00000000
00000010
00000000
00000000
00000000
,
00000002
00000000
00000003
00000000
,
00000000
00000000
00000000
00000000
,
00000002
00000000
00000000
00000000
00000003
00000000
00001000
00000000
00000100
00000000
00000000
00000100
00000000
00000000
00010000
00000000
,
00001000
00000000
00000000
00001000
00000000
00000000
01000000
00000000
00100000
00000000
10000000
00000000
10000000
00000000
00000000
00000000
,
00020000
00000000
00030000
00000000
,
11000000
01010000
20020000
30030000
,
20000000
00000000
00000000
00000000
30000000
00000000
10000000
00000000
01000000
00000000
00000000
01000000
00000000
00000000
00100000
00000000
,
00010000
00000000
00000000
00010000
00000000
00000000
00001000
00000000
00001000
00000000
00000100
00000000
00000100
00000000
00000000
00000000
,
00000010
00000000
00000000
00000010
00000000
00000000
00000001
00000000
00000100
00000000
00000000
00000100
00000000
00000000
00000010
00000000
,
00010000
00000000
00000000
00010000
00000000
00000000
00001000
00000000
00100000
00000000
01000000
00000000
01000000
00000000
00000000
00000000
,
10000000
00000000
00000000
10000000
00000000
00000000
00010000
00000000
01000000
00000000
00000000
01000000
00000000
00000000
00001000
00000000
,
00010000
00000000
00000000
00010000
00000000
00000000
00000100
00000000
00000010
00000000
00000001
00000000
00000001
00000000
00000000
00000000
,
00001000
00000000
00000000
00001000
00000000
00000000
00000100
00000000
00010000
00000000
00000000
00010000
00000000
00000000
00001000
00000000
,
01000000
00000000
00100000
10000000
00100000
00000000
01000000
00010000
10000000
00010000
10000000
00010000
01000000
00000000
00100000
10000000
,
00010000
00000000
00000000
00010000
01000000
00000000
01000000
00000000
00001000
00000000
00000000
00001000
00010000
00000000
00010000
00000000
,
00000100
00000000
00000000
00000100
00000010
00000000
00000001
00000000
00001000
00000000
00000001
00000000
00001001
00000000
00000000
00000000
,
00000001
00000000
00000000
00000001
00001000
00000000
00000100
00000000
00010000
00000000
00000000
00010000
00001000
00000000
01000000
00000000
,
00100000
00000000
00000000
00100000
10000000
00000000
00010000
00000000
00100000
00000000
01000000
00000000
01100000
00000000
00000000
00000000
,
00100000
00000000
00000000
00100000
00010000
00000000
01000000
00000000
00001000
00000000
00000000
00001000
00010000
00000000
00000100
00000000
,
00000001
00000000
00000000
00000001
00000100
00000000
00000010
00000000
00000001
00000000
00000100
00000000
00000110
00000000
00000000
00000000
,
00000001
00000000
00000000
00000001
00000100
00000000
00000010
00000000
00001000
00000000
00000000
00001000
00000100
00000000
00010000
00000000
,
00000100
00000000
00000100
00000000
00000010
00000001
00001000
00000001
00000010
00000100
00001000
00000001
00000020
00000000
00000030
00000000
,
00000001
00000000
00000000
00000001
00000100
00000000
00000010
00000000
00001000
00000000
00000100
00000000
00010000
00000000
00001000
00000000
,
01000000
00000000
00000000
01000000
00100000
00000000
10000000
00000000
01000000
00000000
00010000
00000000
01000000
00000000
10000000
00000000
,
00010000
00000000
00000000
00010000
01000000
00000000
00001000
00000000
00010000
00000000
00001000
00000000
00000100
00000000
00000010
00000000
,
00001000
00000000
00000000
00001000
00000100
00000000
00010000
00000000
01000000
00000000
00010000
00000000
00001000
00000000
00010000
00000000
,
00100000
00000000
00000000
00100000
10000000
00000000
00010000
00000000
10000000
00000000
01000000
00000000
00010000
00000000
00001000
00000000
,
00000100
00000000
00000000
00000100
00000010
00000000
00001000
00000000
00000001
00000000
00000010
00000000
00000100
00000000
00000010
00000000
,
00000001
00000000
00000000
00000001
00001000
00000000
00000100
00000000
00010000
00000000
00001000
00000000
00100000
00000000
00010000
00000000
,
10000000
00000000
00000000
10000000
01000000
00000000
00100000
00000000
00010000
01000000
00010000
00000000
10000000
00000000
00100000
00000000
,
01000000
00000000
00010000
10000000
00000000
10000000
00010000
00000000
01000000
00000000
00001000
00000000
00010000
00000000
00000100
00000000
,
00000010
00000000
00000001
00000100
00000000
00000100
00000001
00000000
00000010
00000000
00000100
00000000
00010000
00000000
00001000
00000000
,
00100000
00000000
00010000
01000000
00010000
00000000
00100000
00000000
01000000
00000000
10000000
00000000
00010000
00000000
01000000
00000000
,
00100000
00000000
10000000
00010000
10000000
00000000
01000000
00000000
00010000
00000000
00001000
00000000
00000100
00000000
00000010
00000000
,
00001000
00000100
00000001
00000100
00001000
00000100
00000010
00000100
,
00010000
01000000
10000000
01000000
00100000
01000000
00010000
01000000
,
10000000
00000000
00010000
00000000
10000000
00000000
00010000
00000000
10000000
00010000
10000000
00000000
00010000
10000000
00010000
00000000
,
20000000
32000000
03020000
00032000
,
00003200
00000302
00000000
00000000
,
00002003
00003200
00000000
00000000
,
00020300
00032000
00000000
00000000
,
00203000
00320000
00000000
02030000
,
03200000
00000000
00000000
00000000
,
00000000
20300000
32000000
03200000
,
00320000
00032000
00003200
00000320
,
00000032
00000023
00000230
00002300
,
00003002
00000000
00000203
00000000
,
00002300
00000000
00023000
00000000
,
00230000
00000000
20300000
00000000
,
30020000
00000000
20030000
00000000
,
32000000
00000000
00000000
00000000
,
03020000
00000000
00032000
00000000
,
00003200
00000000
00000320
00000000
,
00020030
00000000
02030000
00000000
,
03000000
00000000
00000000
00000000
;

//---------------dance-double - ----------------
#NOTES:
     dance-double:
     :
     Medium:
     11:
     0.489,0.560,0.028,0.219,0.046:
00000000
00000000
00000000
00000000
,
00000000
00000000
00000000
00000000
,
00000000
00000000
00000000
00000000
,
00000000
00000000
00000000
00000000
,
00000000
00000000
00000000
00000000
,
10000000
00010000
00000000
00010000
,
01000000
00001000
00010000
00000100
,
00001000
00000010
00000000
00000010
,
00000100
00000001
00001000
00000100
,
00000010
00000010
00000001
00000001
,
00000100
00000100
00001000
00001000
,
00010000
00010000
00100000
00100000
,
10000000
10000000
01000000
01000000
,
00100000
00010000
00100000
00000000
00010000
01000000
00010000
00000000
,
01000000
00100000
01000000
00000000
00100000
10000000
00100000
00000000
,
10000000
01000000
00100000
00010000
10000000
01000000
00200000
00300000
,
00010000
00000000
00000000
01000000
00000000
00000000
00100000
00000000
10000000
00000000
00010000
00000000
01000000
00000000
00100000
00000000
,
10000000
01000000
00100000
00001000
,
10000000
01000000
00100000
00001000
,
00010000
00000100
00000010
00000001
,
00010000
00000000
00000100
00000000
00000010
00000001
00000100
00000010
,
00001000
00000000
00000001
00000100
00000001
00000010
00000100
00001000
,
00000100
00000000
00010000
00001000
00010000
01000000
00100000
00010000
,
10000000
00000000
00010000
01000000
00100000
10000000
00010000
00000000
,
10000000
01000000
10000000
01000000
00100000
00010000
20000000
30000000
,
00010000
01000000
00010000
00000000
01000000
00001000
01000000
00000000
,
00001000
00010000
00001000
00000000
00010000
00000100
00010000
00000000
,
00000100
00001000
00000100
00000000
00001000
00000010
00001000
00000000
,
00000010
00000100
00000010
00000000
00000100
00000001
00000100
00000000
,
00000001
00000000
00001000
00000100
00001000
00000000
00000001
00000000
,
00000100
00000010
00010000
00010000
,
00001000
00000000
01000000
00100000
01000000
00000000
00010000
00000000
,
10000000
01000000
00200000
00300000
,
00010000
00010000
10000000
10000000
,
00010000
00010000
00001000
00001000
,
00000001
00000001
00001000
00001000
,
00010000
00010000
10000000
10000000
,
00010000
01000000
00010000
01000000
00100000
01000000
00100000
00000000
,
10000000
01000000
10000000
01000000
00100000
01000000
00100000
00000000
,
00001000
00010000
00000100
00000010
00000001
00000010
00000100
00010000
,
00002000
00003000
02000000
03000000
,
01100000
00000000
00000000
00000000
,
00000000
00000000
00000000
00000000
,
10000000
00000000
00000000
00000000
00000000
00000000
00010000
00000000
01000000
00000000
00000000
01000000
00000000
00000000
00010000
00000000
,
00100000
00000000
00000000
00100000
00000000
00000000
00001000
00000000
00010000
00000000
00000000
00000000
00000100
00000000
00000000
00000000
,
00000220
00000000
00000330
00000000
,
00000000
00000000
00000000
00000000
,
00000001
00000000
00000000
00000000
00000000
00000000
00001000
00000000
00000100
00000000
00000000
00000100
00000000
00000000
00001000
00000000
,
00000010
00000000
00000000
00000010
00000000
00000000
00010000
00000000
00001000
00000000
00000000
00000000
01000000
00000000
00000000
00000000
,
02200000
00000000
03300000
00000000
,
10000000
00010000
20020000
30030000
,
10000000
00000000
00000000
00000000
00000000
00000000
00010000
00000000
01000000
00000000
00000000
01000000
00000000
00000000
00001000
00000000
,
00010000
00000000
00000000
00010000
00000000
00000000
00000100
00000000
00001000
00000000
00000010
00000000
00000100
00000000
00000000
00000000
,
00000001
00000000
00000000
00000001
00000000
00000000
00001000
00000000
00000100
00000000
00000000
00000100
00000000
00000000
00010000
00000000
,
00001000
00000000
00000000
00001000
00000000
00000000
01000000
00000000
00100000
00000000
10000000
00000000
00010000
00000000
00000000
00000000
,
10000000
00000000
00000000
01000000
00000000
00000000
01000000
00000000
00100000
00000000
00000000
00001000
00000000
00000000
00001000
00000000
,
00010000
00000000
00000000
00000100
00000000
00000000
00000100
00000000
00001000
00000000
00000010
00000000
00000100
00000000
00000000
00000000
,
00000001
00000010
00000001
00000100
00000010
00001000
00000100
00010000
,
00001000
00100000
00010000
01000000
00100000
01000000
00010000
00000000
,
10000000
01000000
00100000
00000000
00100000
01000000
10000000
00000000
,
00010000
01000000
00001000
00010000
00000100
00001000
00001000
00000000
,
00000001
00000100
00000010
00000000
00000010
00000100
00000001
00000000
,
00001000
00000100
00000010
00000001
00000100
00000010
00000010
00000000
,
00001000
00000100
00010000
00000000
00010000
00001000
01000000
00000000
,
00010000
00100000
01000000
10000000
00010000
01000000
01000000
00000000
,
00100000
10000000
00100000
10000000
00100000
10000000
00100000
10000000
,
00010000
00010000
00100000
00001000
00010000
00010000
00000100
00000000
,
00000010
00000001
00000100
00000000
00000010
00001000
00000100
00000000
,
00010000
00001000
01000000
00000000
00010000
00100000
01000000
00000000
,
10000000
00010000
01000000
00100000
01000000
00010000
10000000
00000000
,
01000000
00100000
00001000
00000000
00010000
00000100
00000010
00000000
,
00000001
00000100
00000001
00000100
00000010
00000100
00000001
00000000
,
00001000
00000100
00001000
00000100
00000010
00000100
00001000
00000000
,
00000100
00010000
00001000
00000000
00100000
00010000
01000000
00000000
,
00100000
00000000
10000000
00000000
00010000
00100000
01000000
00000000
,
10000000
01000000
10000000
01000000
00100000
01000000
10000000
00000000
,
00010000
01000000
00010000
01000000
00001000
00010000
00000100
00000000
,
00001000
00000010
00001000
00000010
00000100
00000001
00001000
00000000
,
00000001
00000010
00000100
00000000
00000010
00000001
00000100
00000000
,
00000010
00001000
00000100
00010000
00001000
00010000
01000000
00000000
,
00100000
00010000
01000000
10000000
01000000
00010000
00100000
00000000
,
01000000
10000000
00010000
00000000
01000000
00001000
00010000
00000000
,
00000100
00001000
00000010
00000100
,
00000001
00002000
00000000
00003000
,
00000100
00020000
00000000
00030000
,
00001000
02000000
00000000
03000000
,
00010000
00200000
00300000
01000000
,
20000000
00000000
00000000
00000000
,
30000000
00010000
01000000
00010000
,
00100000
00001000
00010000
00000100
,
00001000
00000010
00000100
00000001
,
00000020
00000030
00000200
00000300
,
00002000
00003000
00000200
00000300
,
00020000
00030000
00002000
00003000
,
02000000
03000000
00200000
00300000
,
20000000
00000000
00000000
30000000
,
02000000
03000000
00200000
00300000
,
00002000
00003000
00020000
00030000
,
00000200
00000300
00000020
00000000
,
00000030
00000000
00000000
00000000
;

//---------------dance-double - ----------------
#NOTES:
     dance-double:
     :
     Easy:
     7:
     0.317,0.418,0.000,0.021,0.000: // measure 1
00000000
00000000
00000000
00000000
,  // measure 2
00000000
00000000
00000000
00000000
,  // measure 3
00000000
00000000
00000000
00000000
,  // measure 4
00000000
00000000
00000000
00000000
,  // measure 5
00000000
00000000
00000000
00000000
,  // measure 6
00001000
00010000
00000000
00010000
,  // measure 7
00000000
00000100
00000000
00000100
,  // measure 8
00000000
00000010
00000000
00000010
,  // measure 9
00000001
00000100
00000001
00000010
,  // measure 10
00000100
00000100
00000100
00000100
,  // measure 11
00010000
00010000
00010000
00010000
,  // measure 12
00001000
00001000
00001000
00001000
,  // measure 13
01000000
01000000
01000000
01000000
,  // measure 14
00010000
00100000
01000000
10000000
,  // measure 15
01000000
00100000
00010000
10000000
,  // measure 16
01000000
00100000
00010000
10000000
,  // measure 17
00100000
00000000
00100000
00000000
01000000
00100000
01000000
00000000
,  // measure 18
00010000
10000000
01000000
00010000
,  // measure 19
01000000
10000000
00010000
00000000
,  // measure 20
01000000
00001000
00010000
00000100
,  // measure 21
00000010
00000001
00000100
00000000
,  // measure 22
00000001
00000100
00001000
00000100
,  // measure 23
00000001
00000100
00001000
00000000
,  // measure 24
00010000
01000000
10000000
01000000
,  // measure 25
00010000
01000000
10000000
00010000
,  // measure 26
10000000
10000000
00100000
00100000
,  // measure 27
01000000
00010000
00100000
00000000
,  // measure 28
00001000
00001000
00010000
00010000
,  // measure 29
00000100
00001000
00000010
00000000
,  // measure 30
00000100
00000001
00001000
00000000
,  // measure 31
00000001
00001000
00000100
00000000
,  // measure 32
00000010
00000001
00000100
00000010
,  // measure 33
00001000
00000100
00000010
00000000
,  // measure 34
00000001
00000000
00000100
00000000
,  // measure 35
00001000
00000000
00010000
00000000
,  // measure 36
00100000
00000000
10000000
00000000
,  // measure 37
00010000
10000000
01000000
00100000
,  // measure 38
00010000
00000000
10000000
00000000
,  // measure 39
01000000
00000000
00010000
00000000
,  // measure 40
00001000
00000000
00000100
00000000
,  // measure 41
00000010
00001000
00000100
00000010
,  // measure 42
00000001
00000000
00000000
00000000
,  // measure 43
00000000
00000000
00000000
00000000
,  // measure 44
00001000
00000000
00000100
00000000
,  // measure 45
00010000
00001000
00100000
01000000
,  // measure 46
20000000
00000000
30000000
00000000
,  // measure 47
00000000
00000000
00000000
00000000
,  // measure 48
00010000
00000000
01000000
00000000
,  // measure 49
00001000
00010000
00000100
00000010
,  // measure 50
00000002
00000000
00000003
00000000
,  // measure 51
00001000
00001000
00001000
00000000
,  // measure 52
00000100
00000000
00001000
00000000
,  // measure 53
00000100
00000010
00000001
00000100
,  // measure 54
00000010
00000000
00010000
00000000
,  // measure 55
00001000
00100000
00010000
01000000
,  // measure 56
00100000
00000000
10000000
00000000
,  // measure 57
00010000
00100000
01000000
10000000
,  // measure 58
01000000
00100000
00010000
10000000
,  // measure 59
00010000
00000000
01000000
00000000
00010000
01000000
00010000
00000000
,  // measure 60
10000000
10000000
00010000
00010000
,  // measure 61
01000000
00001000
01000000
00000000
00001000
00010000
00010000
00000000
,  // measure 62
00000100
00001000
00000010
00000100
,  // measure 63
00000001
00001000
00000001
00000000
00000010
00000100
00000100
00000000
,  // measure 64
00000010
00000001
00000100
00001000
,  // measure 65
00010000
00100000
10000000
01000000
,  // measure 66
00100000
00010000
00100000
00000000
00010000
10000000
00010000
00000000
,  // measure 67
10000000
00000000
01000000
00000000
00100000
00010000
10000000
00000000
,  // measure 68
00010000
00000000
01000000
00000000
00001000
00010000
00000100
00000000
,  // measure 69
00001000
00000000
00000010
00000000
00000100
00000001
00001000
00000000
,  // measure 70
00000100
00000010
00000001
00000100
,  // measure 71
00001000
00000000
00010000
00000000
00100000
10000000
00010000
00000000
,  // measure 72
10000000
01000000
00100000
01000000
10000000
00000000
00010000
00000000
,  // measure 73
01000000
00001000
00010000
00001000
01000000
00000000
00001000
00000000
,  // measure 74
00010000
00000100
00000010
00000001
,  // measure 75
00000100
00000010
00000010
00000010
,  // measure 76
00001000
00000100
00010000
00000000
00001000
00000000
01000000
00000000
,  // measure 77
00010000
00100000
01000000
00000000
10000000
00000000
00010000
00000000
,  // measure 78
01000000
00100000
10000000
00010000
,  // measure 79
10000000
01000000
00010000
00000000
,  // measure 80
00001000
00010000
00001000
00000000
00010000
00000000
00000100
00000000
,  // measure 81
00001000
00000000
00000010
00000000
00000100
00000001
00000100
00000000
,  // measure 82
00000001
00000001
00001000
00001000
,  // measure 83
00000200
00000000
00000000
00000300
,  // measure 84
00000010
00000001
00000000
00000000
,  // measure 85
00000100
00000010
00000000
00000000
,  // measure 86
00001000
00000100
00000000
00000000
,  // measure 87
00010000
00001000
00000000
00001000
,  // measure 88
00100000
00000000
00000000
00000000
,  // measure 89
00000000
01000000
10000000
00010000
,  // measure 90
01000000
00100000
01000000
00010000
,  // measure 91
10000000
01000000
00100000
00001000
,  // measure 92
00010000
00000000
00000100
00000000
,  // measure 93
00000010
00000000
00000001
00000000
,  // measure 94
00000100
00000000
00000010
00000000
,  // measure 95
00000100
00000000
00000001
00000000
,  // measure 96
00001000
00000000
00000000
00000000
,  // measure 97
00000100
00000000
00010000
00000000
,  // measure 98
00001000
00000000
00100000
00000000
,  // measure 99
00001000
00000000
00010000
00000000
;
