#TITLE:VOLTEXES;
#SUBTITLE:;
#ARTIST:Sota Fujimori;
#TITLETRANSLIT:;
#SUBTITLETRANSLIT:;
#ARTISTTRANSLIT:;
#GENRE:;
#CREDIT:Silverhawke;
#MENUCOLOR:;
#METERTYPE:DDR;
#BANNER:VOLTEXES.png;
#BACKGROUND:VOLTEXES-bg.png;
#LYRICSPATH:;
#CDTITLE:cdtitle.png;
#MUSIC:VOLTEXES.mp3;
#OFFSET:-0.028;
#SAMPLESTART:24.005;
#SAMPLELENGTH:15.000;
#SELECTABLE:YES;
#LISTSORT:;
#BPMS:0.000=150.000;
#STOPS:;
#BGCHANGES:;
#ATTACKS:;

//---------------dance-single - ----------------
#NOTES:
     dance-single:
     :
     Hard:
     12:
     0.538,0.525,0.312,0.416,0.347:
0000
0000
0000
0000
,
0000
0000
0000
0000
,
0000
0000
0000
0000
,
0001
0010
0001
0010
0100
1000
0100
1000
,
0001
0100
0001
0000
1000
0100
1000
0000
0010
0000
0000
0100
0000
0000
1001
0000
,
0001
0100
0000
0001
0000
0010
0000
0100
0000
0000
1000
0000
1000
0000
0001
0000
,
1000
0010
0000
0100
0000
0010
0000
1000
0000
0000
0001
0000
0001
0000
1000
0000
,
0010
0100
0000
0001
0000
0100
0000
0010
0000
0000
1000
0000
1000
0000
0010
0000
,
0100
0001
0000
1000
0000
0001
0000
0010
0000
0000
0001
0000
0001
0000
0010
0000
,
0001
0100
0000
0001
0000
0010
0000
0100
1000
0000
0001
0000
0001
0000
1000
0000
,
0001
0010
0000
0100
0000
0010
0000
0001
1000
0000
0001
0000
0001
0000
1000
0000
,
0010
0100
0000
0001
0000
0100
0000
0010
1000
0000
0001
0000
0001
0000
0010
0000
,
0100
0000
0000
0000
1000
0000
0100
0000
1100
0000
0000
0101
0000
0000
1001
0000
,
0120
0000
0000
0000
,
1030
0000
0100
0000
1000
0000
0100
0000
1000
0100
1000
0100
0010
0000
0000
0000
,
0001
0100
0010
2000
0100
0000
3001
0020
,
0100
0000
0001
0000
0130
0000
1000
0020
,
0100
0000
1030
0200
0000
0301
0200
0000
,
1000
0000
0010
0000
1300
0010
0100
0001
,
0010
0100
1000
0002
0100
0000
0013
0200
,
1000
0000
0010
0000
1300
0000
0001
1000
,
0002
0000
1003
0020
0000
0031
0020
0000
,
0100
0000
1000
0000
0130
1010
0000
0011
,
1000
0100
0010
0002
0100
0000
1003
0020
,
0100
0000
1000
0000
0130
0000
0001
0020
,
0100
0000
0031
0200
0000
1300
0200
0000
,
0001
0000
0010
0000
0301
0010
0100
1000
,
0010
0100
0001
2000
0100
0000
3010
0200
,
0001
0000
0010
0000
0301
0000
1000
0001
,
1100
0000
0000
0101
0000
0000
1001
0000
,
0000
0000
0000
0000
0000
1010
0000
0011
,
0200
0000
0000
0000
,
1300
0000
0000
0001
0000
0100
0000
0010
2000
0000
0000
0000
0000
0000
0000
0000
,
3001
0000
0000
0000
1000
0100
1000
0200
0000
0000
0000
0000
0310
0000
0000
0000
,
1000
0000
0000
0000
0001
0100
0001
0200
0000
0000
0000
0000
0310
0000
0000
0000
,
0001
0100
1000
0001
1000
0100
0001
0000
,
1000
0100
0001
1000
0001
0100
1000
0000
,
0001
0000
0000
0000
0100
0010
0100
0020
0000
0000
0000
0000
0130
0000
0000
0000
,
1000
0000
0000
0000
0100
0010
0100
0020
0000
0000
0000
0000
0130
0000
0000
0000
,
0001
0010
0001
0010
1000
0010
1000
0010
,
0001
0000
0100
0000
0010
0000
1000
0000
1010
0000
0000
0011
0000
0000
0000
0000
,
1001
0000
0000
0000
0001
0100
0001
0200
0000
0000
0000
0000
0310
0000
0000
0000
,
0001
0000
0000
0000
1000
0100
1000
0200
0000
0000
0000
0000
0310
0000
0000
0000
,
1000
0000
0001
0100
0000
0010
0000
0000
0000
1000
0100
1000
0000
0000
0001
0000
,
0100
0000
0000
0100
0000
0010
1000
0020
0000
0000
0000
0000
0130
0000
0100
0000
,
0001
0000
0000
0000
0010
0001
0010
0002
0000
0000
0000
0000
0103
0000
0000
0000
,
1000
0000
0000
0000
0010
1000
0010
2000
0000
0000
0001
0000
3001
0000
0000
0000
,
0101
0000
0000
1100
0000
0000
0000
0010
0000
0010
0000
0000
0100
0000
0001
0000
,
0101
0000
0000
1100
0000
0000
2002
0000
0000
0000
3003
0000
0200
0000
0000
0000
,
0000
0000
0000
0000
,
0302
0000
0000
0000
1003
0000
0000
0000
1001
0000
0000
0000
0000
0000
0100
0010
,
0000
0100
0000
0000
0000
0000
0001
0000
0101
0000
0000
0000
0000
0000
0000
0000
,
2000
0000
0000
0000
3001
0000
0000
0000
1001
0000
0000
0000
0000
0000
0100
0010
,
0000
0100
0000
0000
0000
0000
1000
0001
1000
0000
0000
0000
0000
0000
0000
0000
,
0101
0000
0000
0000
1100
0000
0000
0000
1001
0000
0000
0000
0000
0000
1000
0100
,
0000
1000
0000
0000
0000
0000
0001
0000
0102
0000
0000
0000
2003
0000
0000
0000
,
3010
0000
0000
0000
0010
0000
0000
0000
1001
0000
0000
0000
0000
0000
0100
0001
,
0000
1000
0000
0000
0000
0000
0100
0000
0120
0000
0000
0000
0032
0000
0000
0000
,
1003
0000
0000
0000
1100
0000
0000
0000
1001
0000
0000
0000
0000
0000
0001
0100
,
0000
0010
0000
0000
0000
0000
1000
0000
1020
0000
0000
0000
0230
0000
0000
0000
,
0301
0000
0000
0000
1100
0000
0000
0000
1001
0000
0000
0100
0000
0000
0000
0010
,
0000
0010
0000
0001
0000
0000
0100
0000
0102
0000
0000
0000
2003
0000
0000
0000
,
3002
0023
0230
1300
,
0020
0130
0020
0130
0020
0130
1001
0000
;

//---------------dance-single - ----------------
#NOTES:
     dance-single:
     :
     Medium:
     10:
     0.434,0.442,0.182,0.469,0.043:
0000
0000
0000
0000
,
0000
0000
0000
0000
,
0000
0000
0000
0000
,
1000
0000
0100
0000
0001
0010
1000
0000
,
0010
0000
0100
0000
0010
0000
0100
0000
0001
0000
0000
1000
0000
0000
0010
0000
,
0100
0001
0010
0001
0200
0000
0310
0000
,
1000
0100
0010
0100
2000
0000
3001
0000
,
0010
0100
0001
0100
0020
0000
0130
0000
,
1000
0010
0001
0010
2000
0000
3100
0000
,
0001
0100
0010
0001
2000
0000
3010
0000
,
1000
0010
0100
1000
0002
0000
0013
0000
,
0100
0001
0010
0100
0002
0000
1003
0000
,
0010
0000
0000
0000
0001
0000
2000
0000
3010
0000
0000
0100
0000
0000
0010
0000
,
2002
0000
0000
3003
,
1000
0000
1000
0000
1000
0100
0010
0000
,
0001
0000
1000
0200
0000
0300
0010
0002
,
0000
0003
0100
0000
0000
0000
0100
0010
,
2000
0000
3001
0200
0000
0300
0020
0000
,
0030
0000
1000
0000
0000
0001
0000
1000
,
0100
0000
0010
0002
0000
0003
1000
0200
,
0000
0300
1000
0000
0000
0000
1000
0010
,
0200
0000
0301
0020
0000
0030
0200
0000
,
0300
0000
1000
0000
0000
1001
0000
0110
,
1000
0000
0001
0200
0000
0300
0010
2000
,
0000
3000
0100
0000
0000
0000
0100
0010
,
0002
0000
1003
0200
0000
0300
0020
0000
,
0030
0000
0001
0000
0000
1000
0000
0001
,
0100
0000
0010
2000
0000
3000
0001
0200
,
0000
0300
0001
0000
0000
0000
0001
0010
,
0011
0000
0000
1010
0000
0000
1001
0000
,
0000
0000
0000
0000
0000
1010
0000
0101
,
2000
0000
0000
3000
,
0001
1000
0100
0000
0220
0000
0330
0000
,
0001
0010
0100
2000
0000
0000
3000
0000
,
1000
0010
0100
0002
0000
0000
0003
0000
,
1000
0100
0001
0000
0001
0100
1000
0000
,
0001
0100
1000
0000
1000
0100
0001
0000
,
1000
0100
0010
0002
0000
0100
0103
0000
,
0001
0100
0010
2000
0000
0100
3100
0000
,
1000
0100
1000
0000
0001
0100
0001
0000
,
1000
0000
0010
0000
0100
0000
0001
0000
0010
0000
0000
0010
0000
0000
0000
0000
,
0100
1000
0010
0200
0000
0000
0301
0000
,
0100
0001
0010
0200
0000
0000
1300
0000
,
0001
0000
0101
0000
1000
0100
0001
0000
,
0100
1000
0010
0100
0020
0000
0130
0000
,
0010
1000
0100
0002
0000
0000
0103
0000
,
0010
0001
0100
2000
0000
0100
3100
0000
,
0001
0000
0000
0001
0000
0000
0000
1000
0000
1000
0000
0000
0001
0000
0000
0000
,
0100
0000
0000
0010
0000
0000
0120
0000
0000
0000
0000
0000
1030
0000
0000
0000
,
0000
0000
0000
0000
,
0001
1000
0110
0100
,
0001
0100
1000
0000
0010
0000
0001
0000
,
1000
1000
0100
0000
0020
0000
0031
0000
,
0100
0010
1000
0000
0101
0000
1100
0000
,
0002
0000
0023
0000
0130
0000
1000
0010
,
0000
0100
0000
0001
0000
1000
0000
0001
,
0020
0000
0230
0000
0300
1000
0000
0001
,
0000
0100
0000
0010
1001
0000
0110
0000
,
1000
0000
0100
0000
1001
0000
0000
0100
,
0100
0010
1002
0203
,
0310
0000
0000
0000
0100
0000
0000
0000
0001
0000
0000
0001
0000
0000
0000
1000
,
0000
1000
0000
0000
0000
0000
0001
0000
1001
0000
0000
0000
0110
0000
0000
0000
,
2000
3200
0320
0032
,
2003
3000
2000
3000
2000
3000
0110
0000
;

//---------------dance-single - ----------------
#NOTES:
     dance-single:
     :
     Easy:
     8:
     0.343,0.360,0.200,0.121,0.000:
0000
0000
0000
0000
,
0000
0000
0000
0000
,
0000
0000
0000
0000
,
0000
0000
0000
0000
,
1000
0001
0110
1001
,
1000
0000
0100
0000
0010
0100
1000
0000
,
0001
0000
0100
0000
0010
0100
0001
0000
,
1000
0000
0010
0000
0100
0010
1000
0000
,
0001
0000
0010
0000
0100
0010
0001
0000
,
1000
0100
1000
0000
0001
0100
0001
0000
,
1000
0010
1000
0000
0001
0010
0001
0000
,
1000
0100
0010
0001
,
1000
0000
0100
0010
0001
0000
1000
0000
,
2002
0000
0000
3003
,
0200
0000
0000
0300
,
1000
0100
0001
0010
,
0100
1000
0001
0100
,
0010
1000
0001
0100
,
0010
0100
1000
0001
,
0100
1000
0010
0100
,
1000
0001
0010
0100
,
1000
0001
0100
1000
,
0010
0000
0100
0000
0001
1000
0010
1000
,
0001
0100
1000
0001
,
0010
1000
0100
0001
,
0010
0100
1000
0001
,
0100
1000
0010
0100
,
1000
0001
0100
1000
,
0010
0100
0001
0010
,
0110
0000
0000
1100
0000
0000
0101
0000
,
0000
0000
0000
0000
0000
1001
0000
0010
,
0200
0000
0000
0300
,
0001
0010
0100
2000
0002
0000
3003
0000
,
1000
1100
0001
0010
,
0001
0101
1000
0010
,
1000
0000
0100
0000
0010
0001
0100
0000
,
0010
0000
1000
0000
0100
1000
0010
0000
,
0100
0011
0100
0010
,
0100
1010
0100
0001
,
1000
0100
0010
0000
0001
0000
0100
0000
,
0010
0100
0001
0000
1001
0000
0000
0000
,
0001
0101
1000
0010
,
1000
1100
0001
0010
,
0001
0000
0100
0000
0010
1000
0100
0000
,
0010
0000
0001
0000
0100
0001
0010
0000
,
0100
1010
0100
0010
,
0100
0011
0100
1000
,
0001
0100
0010
0000
1000
0000
0100
0000
,
0010
0000
0000
1001
0000
0000
0200
0000
,
0000
0000
0000
0300
,
0001
0001
0002
0003
,
1000
0100
0010
0100
1000
0000
0000
0000
,
1000
0010
0100
0001
,
0010
0100
1000
0000
1001
0000
0000
0000
,
0010
0010
0100
0001
,
1000
0000
0100
0000
0010
0001
0020
0000
,
0130
1000
2002
3003
,
0001
0010
0100
1000
0002
0000
0003
0000
,
1000
1000
2000
3000
,
0010
0100
0001
0000
1001
0000
0000
0000
,
1000
1000
1100
0000
,
0001
0100
0010
0000
0110
0000
0000
0000
,
2000
0001
3001
0100
,
0010
0010
0010
1001
;

//---------------dance-single - ----------------
#NOTES:
     dance-single:
     :
     Beginner:
     2:
     0.130,0.166,0.069,0.035,0.000:
0000
0000
0000
0000
,
0000
0000
0000
0000
,
0000
0000
0000
0000
,
0000
0000
0000
0000
,
0000
0000
0000
0000
,
1000
1000
1000
0000
,
0000
0001
0000
0000
,
0001
0001
0001
0000
,
0000
1000
0000
0000
,
0100
0100
0100
0000
,
0000
0010
0000
0100
,
0010
0010
0010
0000
,
0000
0000
0100
0000
,
0200
0000
0300
0000
,
0000
0000
0000
0000
,
0000
0001
0000
0001
,
0000
1000
0000
1000
,
0000
0001
0000
0001
,
0000
0100
0000
0100
,
0000
0010
0000
0010
,
0000
1000
0000
1000
,
0000
0100
0000
0100
,
0000
0010
0000
0000
,
0000
0001
0000
0001
,
0000
0100
0000
0100
,
0000
0010
0000
0010
,
0000
1000
0000
1000
,
0000
0100
0000
0100
,
0000
0010
0000
0010
,
0000
0000
0000
0000
,
0000
0000
0000
0000
,
0200
0000
0000
0000
,
0300
0000
0000
0000
,
0000
1001
0000
0000
,
0000
0110
0000
0000
,
1000
0000
1000
0000
,
0001
0000
0001
0000
,
0000
1001
0000
0000
,
0000
0110
0000
0000
,
0100
0000
0100
0000
,
0010
0000
1000
0000
,
0000
1001
0000
0000
,
0000
0110
0000
0000
,
0001
0000
0001
0000
,
0100
0000
0100
0000
,
0000
1001
0000
0000
,
0000
0110
0000
0000
,
1000
0000
1000
0000
,
0100
0000
0020
0000
,
0030
0000
0000
0000
,
0001
0000
0001
0000
,
0001
0000
0000
0000
,
1000
0000
1000
0000
,
1000
0000
0000
0000
,
0100
0000
0100
0000
,
0100
0000
0000
0000
,
0010
0000
0010
0000
,
0010
0000
0000
0000
,
0100
0000
0100
0000
,
0100
0000
0000
0000
,
1000
0000
1000
0000
,
1000
0000
0000
0000
,
0002
0000
0003
0000
,
0100
0100
0100
0100
;

//---------------dance-single - ----------------
#NOTES:
     dance-single:
     :
     Challenge:
     14:
     0.493,0.525,0.434,0.052,0.512:
0000
0000
0000
0000
,
0000
0000
0000
0000
,
0000
0000
0000
0000
,
1000
0100
0010
0100
1000
0100
0010
0001
,
1000
0010
1000
0010
0100
0001
0100
0001
1000
0000
0000
MMMM
0000
0000
1001
0000
,
0001
0100
0000
0010
0000
1000
0000
MMMM
0000
0000
1000
0000
0001
0000
0000
0000
,
1000
0100
0000
0010
0000
0001
0000
MMMM
0000
0000
0010
0000
1000
0000
0000
0000
,
0001
0100
0000
0010
0000
1000
0000
MMMM
0000
0000
1000
0000
0001
0000
0000
0000
,
0010
0100
0000
1000
0000
0010
0000
MMMM
0000
0000
0001
0000
1000
0000
0000
0000
,
0001
1000
0000
0100
0000
0010
0000
MMMM
0000
0000
1000
MMMM
1000
0000
0000
0000
,
0001
0100
0000
0010
0000
1000
0000
MMMM
0000
0000
0100
MMMM
0100
0000
0000
0000
,
0001
0010
0000
0100
0000
1000
0000
MMMM
0000
0000
0010
MMMM
1000
0000
0001
0000
,
1001
0000
0000
0000
0001
0000
0100
0000
0110
0000
0000
MMMM
0000
0000
1010
0000
,
0202
0000
0000
0303
,
1000
0100
1000
0100
1000
0100
1000
0100
1000
0100
1000
0100
MMMM
0000
0000
0000
,
0001
0100
0010
1000
MMMM
0000
1000
0100
,
MMMM
0000
0001
0000
1000
0000
0001
0010
,
0100
0000
1000
0100
MMMM
0001
0100
0000
,
0010
0000
1000
0000
0001
0010
0100
1000
,
0010
0100
0001
1000
MMMM
0000
0010
0001
,
MMMM
0000
0100
0000
0010
0000
1000
0100
,
0010
0000
0001
0100
MMMM
1000
0100
0000
,
0010
0000
1001
0000
0100
1010
MMMM
0101
,
1001
0010
1000
0100
MMMM
0000
0001
0010
,
MMMM
0000
1100
0000
0010
0000
0101
0100
,
0010
0000
1000
0100
MMMM
0001
0010
0000
,
0100
0000
1010
0000
0100
0001
0010
0100
,
1000
0010
0100
0001
MMMM
0000
0100
0010
,
MMMM
0000
1010
0000
0100
0000
0011
0010
,
0100
0000
MMMM
1001
0000
MMMM
0110
0000
,
0010
0000
0010
0000
0010
0101
MMMM
1010
,
0002
0000
0000
0003
,
1000
0000
0000
0100
0000
0010
0000
0001
2000
0000
0000
0000
0000
0000
3000
0000
,
1100
0000
0000
0000
1000
0100
0010
0001
0000
0000
0000
0000
MMMM
0000
0000
0000
,
0000
0000
0000
0000
0001
0100
0010
1000
0000
0000
0000
0000
MMMM
0000
0000
0000
,
0001
0100
0010
MMMM
0001
1000
0100
MMMM
,
0010
1000
0100
MMMM
MMMM
0100
0001
1000
,
1100
0000
0000
0000
0001
0010
0100
1000
0000
0000
0001
0000
MMMM
0000
0100
0000
,
0000
0000
0000
0000
1000
0010
0100
0001
0000
0000
1000
0000
MMMM
0000
0100
0000
,
0001
0010
0100
MMMM
0100
1000
0001
MMMM
,
1000
0000
0100
0000
0001
0000
0010
0000
1100
0000
0000
0011
0000
0000
MMMM
0000
,
1001
0000
0000
0000
1000
0100
0010
0001
0000
0000
0000
0000
MMMM
0000
0000
0000
,
0000
0000
0000
0000
0001
0100
0010
1000
0000
0000
0000
0000
MMMM
0000
0000
0000
,
1000
0000
0001
0100
0000
0010
0000
MMMM
0000
0100
1000
0200
0000
0000
0310
0000
,
0001
0000
0000
0001
0000
1000
0100
2000
0000
0000
0000
0000
3001
0000
MMMM
0000
,
0000
0000
0000
0000
0001
0010
0100
1000
0000
0000
0000
0000
MMMM
0000
0000
0000
,
0000
0000
0000
0000
1000
0010
0100
0001
0000
0000
1000
0000
MMMM
0000
0100
0000
,
0001
0000
0010
0100
0000
MMMM
0000
1100
0000
0101
0000
0000
1010
0000
0011
0000
,
1001
0000
0000
0110
0000
0000
1001
0000
0000
0000
0000
0000
1000
0000
0100
0000
,
MMMM
0000
0000
MMMM
0000
0000
MMMM
0000
MMMM
0000
MMMM
0000
,
0011
0000
0000
0000
1100
0000
0000
0000
1001
0000
0000
0000
MMMM
0000
1000
0100
,
0000
0001
0000
0000
0000
0000
0100
1000
0001
0000
0000
0000
MMMM
0000
0000
0000
,
0101
0000
0000
0000
1010
0000
0000
0000
1001
0000
0000
0000
MMMM
0000
0001
0100
,
0000
1000
0000
0000
0000
0000
0100
0001
1000
0000
0000
0000
MMMM
0000
0000
0000
,
0110
0000
0000
0000
1001
0000
0000
0000
0110
0000
0000
0000
MMMM
0000
1000
0010
,
0000
0000
0000
0001
0000
0000
0000
0000
0000
0000
0000
0000
0000
0000
0000
0000
0000
0000
0010
0000
0000
0100
0000
0000
0001
0000
0000
0000
0010
0000
0000
0000
0001
0000
0000
0000
1000
0000
0000
0000
0100
0000
0000
0000
1000
0000
0000
0000
,
0001
0000
0000
0000
0101
0000
0000
0000
1100
0000
0000
0000
MMMM
0000
1000
0100
,
0000
0000
0000
0010
0000
0000
0000
0000
0000
0000
0000
0000
0000
0000
0000
0000
0000
0000
0001
0000
0000
0100
0000
0000
0010
0000
0000
0000
0100
0000
0000
0000
0010
0000
0000
0000
1000
0000
0000
0000
0001
0000
0000
0000
1000
0000
0000
0000
,
0100
0000
0000
0000
0011
0000
0000
0000
1010
0000
0000
0000
MMMM
0000
0001
0100
,
0000
0000
0000
0010
0000
0000
0000
0000
0000
0000
0000
0000
0000
0000
0000
0000
0000
0000
1000
0000
0000
0100
0000
0000
0010
0000
0000
0000
0001
0000
0000
0000
0001
0000
0000
0000
1000
0000
0000
0000
0100
0000
0000
0000
0100
0000
0000
0000
,
1000
0000
0000
0000
1100
0000
0000
0000
0011
0000
0000
1001
0000
MMMM
0000
0010
,
0000
0100
0000
1001
0000
0000
0001
0000
0101
0000
0000
0000
1010
0000
0000
0000
,
1000
0100
1000
0001
0100
0001
1000
0100
0010
0001
0100
0010
,
1000
MMMM
0010
MMMM
0001
MMMM
0110
0000
;

//---------------dance-double - ----------------
#NOTES:
     dance-double:
     :
     Hard:
     12:
     0.535,0.525,0.338,0.408,0.317: // measure 1
00000000
00000000
00000000
00000000
,  // measure 2
00000000
00000000
00000000
00000000
,  // measure 3
00000000
00000000
00000000
00000000
,  // measure 4
10000000
01000000
10000000
01000000
00100000
00001000
00100000
00001000
,  // measure 5
00010000
00000000
00000100
00000000
00000010
00000000
00000001
00000000
00000101
00000000
00000000
00001010
00000000
00000000
00001001
00000000
,  // measure 6
00000001
00000000
00000000
00000100
00000000
00000010
00000000
00010000
00000000
00000000
00001000
00000000
01000000
00000000
00010000
00000000
,  // measure 7
00100000
00000000
00000000
01000000
00000000
10000000
00000000
01000000
00000000
00000000
00100000
00000000
00001000
00000000
00010000
00000000
,  // measure 8
00000100
00000000
00000000
00001000
00000000
00000010
00000000
00000100
00000000
00000000
00000001
00000000
00000100
00000000
00001000
00000000
,  // measure 9
00010000
00000000
00000000
00100000
00000000
10000000
00000000
00010000
00000000
00000000
00100000
00000000
01000000
00000000
10000000
00000000
,  // measure 10
01000000
00000000
00000000
00010000
00000000
00001000
00000000
00000010
00000000
00000000
00000001
00000000
00001000
00000000
00000001
00000000
,  // measure 11
00000100
00000000
00000000
00001000
00000000
00010000
00000000
00100000
00000000
00000000
01000000
00000000
00010000
00000000
10000000
00000000
,  // measure 12
01000000
00000000
00000000
00010000
00000000
00001000
00000000
00000100
00000000
00000000
00000001
00000000
00001000
00000000
00000001
00000000
,  // measure 13
00000010
00000000
00000000
00000000
00000100
00000000
00020000
00000000
00031000
00000000
00000000
01001000
00000000
00000000
01010000
00000000
,  // measure 14
20020000
00000000
00000000
30030000
,  // measure 15
10000000
01000000
00010000
00001000
00000010
00000001
00000101
00000000
,  // measure 16
00000100
00000001
00001000
00000200
00000010
00000000
00010300
00002000
,  // measure 17
01000000
00000000
00103000
00000000
01000000
10000000
00010000
01000000
,  // measure 18
00200000
00000000
10300000
02000000
00000000
03010000
00002000
00000000
,  // measure 19
00013000
00000000
00000100
00000000
00000010
00000001
00000100
00000001
,  // measure 20
00001000
00000010
00000100
00002000
00010000
00000000
00103000
00020000
,  // measure 21
01000000
00000000
00130000
00000000
01000000
00000000
10000000
02000000
,  // measure 22
10000000
00000000
03010000
00002000
00000000
00003100
00000020
00000000
,  // measure 23
00010030
00000000
00001000
00000000
00100000
00110000
00000000
11000000
,  // measure 24
01000000
10000000
00010000
02000000
00100000
00000000
03001000
00020000
,  // measure 25
00000100
00000000
00030010
00000000
00000100
00000001
00001000
00000100
,  // measure 26
00000020
00000000
00000031
00000200
00000000
00001300
00020000
00000000
,  // measure 27
00031000
00000000
01000000
00000000
00100000
10000000
01000000
10000000
,  // measure 28
00010000
00100000
01000000
00020000
00001000
00000000
00030010
00002000
,  // measure 29
00000100
00000000
00003010
00000000
00000100
00000000
00000001
00000100
,  // measure 30
00000101
00000000
00000000
00011000
00000000
00000000
11000000
00000000
,  // measure 31
00000000
00000000
00000000
00000000
00000000
00110000
00000000
00011000
,  // measure 32
00000200
00000000
00000000
00000000
,  // measure 33
00000310
00000000
00000000
00000001
00000000
00001000
00000000
00000001
00000200
00000000
00000000
00000000
00000300
00000000
00000000
00000000
,  // measure 34
00000110
00000000
00000000
00000000
00000001
00000100
00000001
00000200
00000000
00000000
00000000
00000000
00001300
00000000
00000000
00000000
,  // measure 35
00010000
00000000
00000000
00000000
01000000
10000000
01000000
20000000
00000000
00000000
00000000
00000000
30010000
00000000
00000000
00000000
,  // measure 36
10000000
01000000
00010000
00001000
00000100
00000010
00000001
00000010
,  // measure 37
00000100
00001000
00010000
00100000
01000000
10000000
00010000
00100000
,  // measure 38
10000000
00000000
00000000
00000000
10000000
01000000
10000000
02000000
00000000
00000000
00000000
00000000
03010000
00000000
00000000
00000000
,  // measure 39
00001000
00000000
00000000
00000000
00000100
00000001
00000100
00000002
00000000
00000000
00001000
00000000
00001003
00000000
00000000
00000000
,  // measure 40
00000001
00000100
00001000
00010000
00100000
01000000
10000000
01000000
,  // measure 41
00100000
00000000
00010000
00000000
00001000
00000000
00000100
00000000
00000001
00000000
00000000
00001001
00000000
00000000
00000000
00000000
,  // measure 42
00000110
00000000
00000000
00000000
00000001
00000100
00000010
00002000
00000000
00000000
00000000
00000000
00003100
00000000
00000000
00000000
,  // measure 43
00001000
00000000
00000000
00000000
00010000
00100000
01000000
20000000
00000000
00000000
00000000
00000000
30010000
00000000
00000000
00000000
,  // measure 44
10000000
00000000
01000000
00100000
00000000
00001000
00000000
00000000
00000000
00010000
00000100
00010000
00000000
00000000
00001000
00000000
,  // measure 45
01000000
00000000
00000000
01000000
00000000
00100000
10000000
00200000
00000000
00000000
00000000
00000000
01000000
00000000
01300000
00000000
,  // measure 46
00000000
00000000
00000000
00000000
10000000
01000000
00100000
00020000
00000000
00000000
00000000
00000000
00130000
00000000
00000000
00000000
,  // measure 47
00010000
00000000
00000000
00000000
00001000
00000100
00000010
00000002
00000000
00000000
00000100
00000000
00000103
00000000
00000000
00000000
,  // measure 48
00000101
00000000
00000000
00001010
00000000
00000000
00000000
00010000
00000000
00010100
00000000
00000000
01001000
00000000
01000000
00000000
,  // measure 49
00100000
00000000
00000000
10100000
00000000
00000000
20010000
00000000
00000000
00000000
00000000
00000000
01000000
00000000
31000000
00000000
,  // measure 50
00000000
00000000
00000000
00000000
,  // measure 51
11000000
00000000
00000000
00000000
01010000
00000000
00000000
00000000
10010000
00000000
00000000
00000000
00000000
00000000
10000000
01000000
,  // measure 52
00000000
00010000
00000000
00000000
00000000
00000000
00001000
00010000
00001000
00000000
00000000
00000000
00000000
00000000
00000000
00000000
,  // measure 53
00010100
00000000
00000000
00000000
01001000
00000000
00000000
00000000
00011000
00000000
00000000
00000000
00000000
00000000
00010000
00000100
,  // measure 54
00000000
00000010
00000000
00000000
00000000
00000000
00000001
00001000
00000001
00000000
00000000
00000000
00000100
00000000
00000000
00000000
,  // measure 55
00001010
00000000
00000000
00000000
00010100
00000000
00000000
00000000
00011000
00000000
00000000
00000000
00000000
00000000
00001000
01000000
,  // measure 56
00000000
00010000
00000000
00000000
00000000
00000000
10000000
01000000
20000000
00000000
00000000
00000000
32000000
00000000
00000000
00000000
,  // measure 57
03100000
00000000
00000000
00000000
00101000
00000000
00000000
00000000
00011000
00000000
00000000
00000000
00000000
00000000
00010000
00000100
,  // measure 58
00000000
00000010
00000000
00000000
00000000
00000000
00000001
00001000
00000002
00000000
00000000
00000000
00000203
00000000
00000000
00000000
,  // measure 59
00000310
00000000
00000000
00000000
00010010
00000000
00000000
00000000
00011000
00000000
00000000
00000000
00000000
00000000
01000000
00001000
,  // measure 60
00000000
00010000
00000000
00000000
00000000
00000000
00000010
00010000
00002000
00000000
00000000
00000000
00203000
00000000
00000000
00000000
,  // measure 61
01300000
00000000
00000000
00000000
11000000
00000000
00000000
00000000
10010000
00000000
00000000
01010000
00000000
00000000
00000000
01000000
,  // measure 62
00000000
00001000
00000000
00010000
00000000
00000000
00000100
00000000
00000020
00000000
00000000
00000000
00000032
00000000
00000000
00000000
,  // measure 63
00000203
00000320
00002030
00003200
,  // measure 64
00020300
00030100
00020000
01030000
00020000
00030100
00000010
00000000
;

//---------------dance-double - ----------------
#NOTES:
     dance-double:
     :
     Medium:
     9:
     0.373,0.442,0.165,0.121,0.061:
00000000
00000000
00000000
00000000
,
00000000
00000000
00000000
00000000
,
00000000
00000000
00000000
00000000
,
00001000
00010000
00001000
00000000
00010000
00001000
00010000
00000000
,
00001000
00000000
01000000
00000000
00010000
00000000
10000000
00000000
00100000
00000000
00000000
01000000
00000000
00000000
00100000
00000000
,
10000000
01000000
00100000
00000000
00100000
01000000
10000000
00000000
,
00010000
01000000
00001000
00000000
00001000
00010000
00000100
00000000
,
00001000
00000010
00000100
00000000
00000100
00000010
00001000
00000000
,
00000001
00000010
00000100
00000000
00000100
00000010
00000001
00000000
,
00000100
00001000
00010000
00000000
00010000
00001000
01000000
00000000
,
00010000
10000000
01000000
00000000
01000000
00010000
00001000
00000000
,
00100000
00010000
01000000
00000000
01000000
00100000
10000000
00000000
,
01000000
00000000
00000000
00000000
00010000
00000000
00001000
00000000
00010000
00000000
00000000
00000100
00000000
00000000
00000010
00000000
,
00000110
00000000
00000000
00000000
,
00000001
00000100
00000010
00010000
00001000
01000000
00100000
00000000
,
10000000
01000000
00100000
01000000
00000000
00000000
10000000
00010000
,
00000000
00000000
01000000
00000000
00000000
00000000
01000000
00001000
,
00010000
00000000
00000000
00000100
00000000
00000000
00001000
00000000
,
00000010
00000000
00000100
00000000
00000001
00001000
00000000
00000100
,
00000010
00000001
00000100
00000010
00000000
00000000
00010000
00001000
,
00000000
00000000
01000000
00000000
00000000
00000000
00100000
10000000
,
00010000
00000000
00000000
00100000
00000000
00000000
00001000
00000000
,
00010000
00000000
00000010
00000000
00000100
00000001
00000000
00001000
,
00000001
00000100
00000010
00000100
00000000
00000000
00000001
00001000
,
00000000
00000000
00000100
00000000
00000000
00000000
00000100
00010000
,
00001000
00000000
00000000
01000000
00000000
00000000
00010000
00000000
,
00100000
00000000
01000000
00000000
10000000
00010000
00000000
01000000
,
00100000
10000000
01000000
00100000
00000000
00000000
00001000
00010000
,
00000000
00000000
00000100
00000000
00000000
00000000
00000010
00000001
,
00001000
00000000
00000000
00000010
00000000
00000000
00010000
00000000
,
00001000
00000000
00100000
00000000
01000000
10000000
00000000
00010000
,
02000000
00000000
00000000
00000000
,
03200000
00000000
00000000
00300000
,
10010000
00000000
10000000
01000000
00000000
00000000
00010000
00000000
,
00000000
00000000
00001000
00000100
00000000
00000000
00000001
00000000
,
00001000
00000100
00001000
00000000
00000100
00010000
00000100
00000000
,
00010000
00000010
00010000
00000000
00000010
00000100
00000010
00000000
,
00000100
00000000
00000001
00000100
00000000
00000000
00001000
00000000
,
00000000
00000000
00010000
01000000
00000000
00000000
10000000
00000000
,
00010000
10000000
01000000
00000000
00010000
00001000
00010000
00000000
,
00001000
00000000
00000100
00000000
00000010
00000000
00000000
00000000
00001000
00000000
00000000
00000001
00000000
00000000
00000000
00000000
,
00001001
00000000
00000001
00000010
00000000
00000000
00001000
00000000
,
00000000
00000000
00010000
00100000
00000000
00000000
10000000
00000000
,
00010000
00000000
00000000
10000000
00000000
01000000
00000000
00000000
00000000
00100000
00000000
00100000
00000000
00000000
00001000
00000000
,
01000000
00000000
00000000
00010000
00000000
00100000
00000000
01000000
00000000
00000000
00000000
00000000
10000000
00000000
00010000
00000000
,
00000000
00000000
10000000
00100000
00000000
00000000
00010000
00000000
,
00000000
00000000
00001000
00000010
00000000
00000000
00000001
00000000
,
00001000
00000100
00010000
00000000
00001000
01000000
00010000
00000000
,
10000000
00000000
00000000
00010000
00000000
00000000
10010000
00000000
00000000
00000000
00000000
00000000
10000000
00000000
00010000
00000000
,
00000000
00000000
00000000
00000000
,
10000000
01000000
01010000
00000000
,
00010000
00001000
00000100
00000000
00001001
00000000
00000000
00000000
,
00000001
00000100
00001100
00000000
,
00001000
00010000
00100000
00000000
10100000
00000000
00000000
00000000
,
10000000
01000000
01010000
00000000
,
00010000
00001000
00000010
00000000
00000012
00000003
00002000
00003000
,
00000001
00000010
00001010
00000000
,
00001000
00010000
00100000
00000000
20100000
30000000
00020000
00030000
,
10000000
01000000
01010000
00000000
,
00010000
00001000
00000010
00000000
00000012
00000003
00002000
00003000
,
00000001
00000000
00000000
00000000
00000100
00000000
00000000
00000000
00001100
00000000
00000000
00001000
00000000
00000000
00000000
00010000
,
00000000
00001000
00000000
00000000
00010000
00000000
00001000
00000000
02000000
00000000
03000000
00000000
00200000
00000000
00300000
00000000
,
20000000
30000000
00020000
00030000
00002000
00003000
00000002
00000003
,
00001100
00000101
00001100
00001001
;

//---------------dance-double - ----------------
#NOTES:
     dance-double:
     :
     Easy:
     7:
     0.293,0.277,0.165,0.061,0.000:
00000000
00000000
00000000
00000000
,
00000000
00000000
00000000
00000000
,
00000000
00000000
00000000
00000000
,
00000001
00000100
00000010
00010000
,
00001000
01000000
00100000
10000000
,
00010000
00010000
10000000
10000000
,
01000000
01000000
00100000
00100000
,
00001000
00010000
00001000
00001000
,
00010000
00000100
00001000
00001000
,
00000010
00000100
00000001
00000100
,
00000010
00010000
00001000
01000000
,
00010000
00100000
01000000
10000000
,
00010000
00000000
01000000
00100000
01000000
00000000
00010000
00000000
,
20020000
00000000
00000000
30030000
,
02000000
00000000
00000000
03100000
,
10000000
01000000
00010000
00001000
,
00000010
00000001
00001000
00000001
,
00001000
00000001
00000100
00001000
,
00010000
00100000
10000000
00010000
,
10000000
01000000
00010000
00001000
,
00000100
00000001
00001000
00000001
,
00000100
00001000
00010000
01000000
,
10000000
00000000
01000000
00000000
00000000
00100000
00000000
00100000
,
01000000
10000000
00010000
10000000
,
01000000
00010000
00001000
00000100
,
00000001
00001000
00000001
00000010
,
00000001
00000100
00001000
00010000
,
00100000
10000000
00010000
10000000
,
01000000
00010000
00001000
00000010
,
00000001
00000000
00000000
00001000
00000000
00000000
00001001
00000000
,
00000000
00000000
00000000
00000000
00000000
00000100
00000000
00000100
,
00000020
00000000
00000000
00000030
,
00002002
00000000
00000000
00003003
,
00000100
00000011
00000000
00001000
,
00000100
00010100
00000000
00001000
,
01000000
00010000
00100000
01000000
,
10000000
00100000
01000000
00010000
,
01000000
01001000
00000000
00001000
,
00010000
00010100
00000000
00001000
,
00000010
00000100
00000001
00000010
,
00000100
00001000
00001001
00000000
,
00000001
00001010
00000000
00000100
,
00010000
00011000
00000000
00001000
,
01000000
01000000
00100000
00100000
,
10000000
01000000
00100000
00000000
,
00010000
01010000
00000000
01000000
,
00001000
00010100
00000000
00001000
,
00000010
00000100
00000001
00001000
,
00000001
00000010
00000200
00000300
,
00000000
00000000
00000000
00000000
,
00000001
00001000
00001001
00000000
,
00000100
00010000
00001000
01000000
,
00010000
10000000
10010000
00000000
,
01000000
00001000
00010000
00000010
,
00001000
00000001
00001001
00000000
,
00000010
00010000
00001000
00100000
,
00010000
10000000
10010000
00000000
,
00100000
10000000
01000000
00010000
,
00001000
00010000
00011000
00000000
,
00001000
01000000
00100000
10000000
,
01000000
00100000
00001000
00010000
,
00000100
00001000
00000010
00000000
,
00000100
00000001
00001000
00000100
,
00010000
00011000
00001000
00011000
;

//---------------dance-double - ----------------
#NOTES:
     dance-double:
     :
     Challenge:
     14:
     0.485,0.525,0.182,0.104,0.538: // measure 1
00000000
00000000
00000000
00000000
,  // measure 2
00000000
00000000
00000000
00000000
,  // measure 3
00000000
00000000
00000000
00000000
,  // measure 4
00001000
00010000
01000000
10000000
01000000
00010000
00001000
00000100
,  // measure 5
00000010
00001000
00000010
00001000
00000001
00000100
00000001
00000100
00000010
00000000
00000000
00010000
00000000
00000000
00011000
00000000
,  // measure 6
00001000
00000000
00000000
01000000
00000000
MMMMMMMM
00000000
10000000
00000000
00000000
01000000
00000000
00100000
00000000
00001000
00000000
,  // measure 7
00010000
00000000
00000000
00000100
00000000
MMMMMMMM
00000000
00000010
00000000
00000000
00000100
00000000
00000001
00000000
00001000
00000000
,  // measure 8
00000100
00000000
00000000
00010000
00000000
MMMMMMMM
00000000
01000000
00000000
00000000
00010000
00000000
00100000
00000000
01000000
00000000
,  // measure 9
10000000
00000000
00000000
00010000
00000000
MMMMMMMM
00000000
00001000
00000000
00000000
00010000
00000000
00000100
00000000
00001000
00000000
,  // measure 10
00000010
00000100
00000000
00000001
00000000
MMMMMMMM
00000000
00000100
00000000
00000000
00010000
00001000
00010000
00000000
00001000
00000000
,  // measure 11
01000000
00010000
00000000
00100000
00000000
MMMMMMMM
00000000
10000000
00000000
00000000
01000000
00100000
01000000
00000000
00010000
00000000
,  // measure 12
00001000
00010000
00000000
00001000
00000000
MMMMMMMM
00000000
00000010
00000000
00000000
00010000
00001000
00010000
00000000
01000000
00000000
,  // measure 13
11000000
00000000
00000000
00000000
01000000
00000000
00020000
00000000
00031000
00000000
00000000
00000010
00000000
00000000
00000100
00000000
,  // measure 14
00000220
00000000
00000000
00000330
,  // measure 15
00000001
00000100
00000001
00000100
00000001
00000100
00000001
00000100
00000001
00000100
00000001
00000100
MMMMMMMM
00000000
00000000
00000000
,  // measure 16
00001000
00000100
MMMMMMMM
00001000
01000000
00000000
MMMMMMMM
00100000
,  // measure 17
01000000
00000000
MMMMMMMM
00000000
01000000
00000000
MMMMMMMM
00001000
,  // measure 18
00010000
00000000
MMMMMMMM
00000100
00000010
00001000
MMMMMMMM
00000000
,  // measure 19
00000010
00000000
MMMMMMMM
00000000
00000100
00000010
MMMMMMMM
00000100
,  // measure 20
00010000
00001000
MMMMMMMM
00100000
01000000
00000000
MMMMMMMM
10000000
,  // measure 21
00010000
00000000
MMMMMMMM
00000000
00001000
00000000
MMMMMMMM
00000100
,  // measure 22
00001000
00000000
MMMMMMMM
00000100
00000001
00001000
MMMMMMMM
00000000
,  // measure 23
00010000
00001000
MMMMMMMM
00000000
00010000
10100000
MMMMMMMM
01010000
,  // measure 24
10000000
01000000
MMMMMMMM
00001000
00010000
00000000
MMMMMMMM
00001000
,  // measure 25
00000010
00000000
MMMMMMMM
00000000
00000001
00000000
MMMMMMMM
00000100
,  // measure 26
00010000
00000000
MMMMMMMM
01000000
00100000
10000000
MMMMMMMM
00000000
,  // measure 27
00100000
00000000
MMMMMMMM
00000000
00010000
00000100
MMMMMMMM
00000100
,  // measure 28
00000001
00000100
MMMMMMMM
00000010
00010000
00000000
MMMMMMMM
10000000
,  // measure 29
00010000
00000000
MMMMMMMM
00000000
00100000
00000000
MMMMMMMM
01000000
,  // measure 30
00010000
00000000
MMMMMMMM
00010100
00000000
MMMMMMMM
00001010
00000000
,  // measure 31
00000000
00000000
00000000
00000000
00000000
00000101
MMMMMMMM
00001100
,  // measure 32
00000002
00000000
00000000
00000003
,  // measure 33
00001000
00000000
00000000
00000001
00000000
00000100
00000010
00010000
00002000
00000000
00000000
00000000
00000000
00000000
00003000
00000000
,  // measure 34
10000000
00000000
00000000
00000000
00010000
01000000
00100000
10000000
00000000
00000000
00000000
00000000
MMMMMMMM
00000000
00000000
00000000
,  // measure 35
01000000
00000000
00000000
00000000
00001000
00010000
00000100
00001000
00000000
00000000
00000000
00000000
MMMMMMMM
00000000
00000000
00000000
,  // measure 36
00000100
00000001
00000100
00000000
00000010
00000000
00001000
00000000
00000100
00000000
00010000
00001000
00000000
00010000
00000000
01000000
,  // measure 37
10000000
00010000
10000000
00010000
00000000
01000000
00010000
00000000
01000000
00100000
10000000
01000000
00000000
00010000
00000000
00001000
,  // measure 38
00000100
00000000
00000000
00000000
00000001
00000010
00000100
00001000
00000000
00000000
00000000
00000000
MMMMMMMM
00000000
00000000
00000000
,  // measure 39
01000000
00000000
00000000
00000000
00010000
00100000
01000000
10000000
00000000
00000000
00010000
00000000
MMMMMMMM
00000000
00010000
00000000
,  // measure 40
00100000
00001000
00100000
00000000
00001000
00010000
00001000
00000000
00010000
00000000
00000100
00001000
00000000
00000010
00000100
00000010
,  // measure 41
00000000
00001000
00000100
00001000
00000000
00000001
00000100
00000000
00000010
00001000
00000001
00001000
00000000
00000100
00000010
00000100
,  // measure 42
00001000
00000000
00000000
00000000
00000001
00000100
00000010
00010000
00000000
00000000
00000000
00000000
MMMMMMMM
00000000
00000000
00000000
,  // measure 43
00100000
00000000
00000000
00000000
00010000
01000000
00100000
10000000
00000000
00000000
00000000
00000000
MMMMMMMM
00000000
00000000
00000000
,  // measure 44
00010000
00000000
00001000
00010000
00000000
00000100
00000000
00000000
00000000
00001000
00000010
00002000
00000000
00000000
00003010
00000000
,  // measure 45
00000100
00000000
00000000
00000100
00000000
00000001
00001000
00000002
00000000
00000000
00000000
00000000
00000013
00000000
00000010
00000000
,  // measure 46
00000000
00000000
00000000
00000000
00000100
00010000
00001000
01000000
00000000
00000000
00000000
00000000
MMMMMMMM
00000000
00000000
00000000
,  // measure 47
00001000
00000000
00000000
00000000
00000010
00010000
00001000
00100000
00000000
00000000
00010000
00000000
MMMMMMMM
00000000
00010000
00000000
,  // measure 48
10010000
00000000
00000000
01010000
00000000
00000000
00000000
01001000
00000000
00011000
00000000
00000000
00010000
00000000
00000100
00000000
,  // measure 49
00000110
00000000
00000000
00000011
00000000
00000000
00001002
00000000
00000000
00000000
00000000
00000000
00000103
00000000
00000100
00000000
,  // measure 50
MMMMMMMM
00000000
MMMMMMMM
MMMMMMMM
,  // measure 51
10000000
00000000
01000000
00000000
00010000
00000000
MMMMMMMM
00000000
10000000
00000000
00000000
00000000
00010000
00000000
01000000
00001000
,  // measure 52
00000000
00010000
00000000
00000000
00000000
00000000
00000100
00000000
00001100
00000000
00000000
00000000
00000011
00000000
00000000
00000000
,  // measure 53
00000001
00000000
00000100
00000000
00001000
00000000
MMMMMMMM
00000000
00000001
00000000
00000000
00000000
00001000
00000000
00000100
00010000
,  // measure 54
00000000
00001000
00000000
00000000
00000000
00000000
00100000
01000000
10000000
00000000
00000000
00000000
00110000
00000000
00000000
00000000
,  // measure 55
10000000
00000000
01000000
00000000
00010000
00000000
MMMMMMMM
00000000
00010000
00000000
00000000
00000000
00001000
00000000
00010000
00000100
,  // measure 56
00000000
00000000
00000000
00000010
00000000
00000000
00000000
00000000
00000000
00000000
00000000
00000000
00000000
00000000
00000000
00000000
00000000
00000000
00000001
00000000
00000000
00000000
00000000
00000000
00000100
00000000
00000000
00000000
00000010
00000000
00000000
00000000
00001000
00000000
00000000
00000000
MMMMMMMM
00000000
00000000
00000000
00000010
00000000
00000000
00000000
00000001
00000000
00000000
00000000
,  // measure 57
00001000
00000000
00000100
00000000
00010000
00000000
MMMMMMMM
00000000
01000000
00000000
00000000
00000000
00010000
00000000
10000000
01000000
,  // measure 58
00000000
00000000
00000000
00100000
00000000
00000000
00000000
00000000
00000000
00000000
00000000
00000000
00000000
00000000
00000000
00000000
00000000
00000000
00001000
00000000
00000000
00010000
00000000
00000000
00000100
00000000
00000000
00000000
00000010
00000000
00000000
00000000
00000001
00000000
00000000
00000000
MMMMMMMM
00000000
00000000
00000000
00000010
00000000
00000000
00000000
00001000
00000000
00000000
00000000
,  // measure 59
00000100
00000000
00010000
00000000
01000000
00000000
MMMMMMMM
00000000
00100000
00000000
00000000
00000000
10000000
00000000
01000000
00010000
,  // measure 60
00000000
00000000
00000000
00001000
00000000
00000000
00000000
00000000
00000000
00000000
00000000
00000000
00000000
00000000
00000000
00000000
00000000
00000000
00000100
00000000
00000000
00000000
00000000
00000000
00000010
00000000
00000000
00000000
00010000
00000000
00000000
00000000
00001000
00000000
00000000
00000000
MMMMMMMM
00000000
00000000
00000000
00001000
00000000
00000000
00000000
00010000
00000000
00000000
00000000
,  // measure 61
00100000
00000000
10000000
00000000
01000000
00000000
MMMMMMMM
00000000
00100000
00000000
00000000
01100000
00000000
00000000
00000000
01000000
,  // measure 62
00000000
00000000
00000000
00001000
00000000
00000000
00000000
00000000
00000000
00010000
00000000
00000000
00000000
00000000
00000000
00000000
00000000
00000000
00000100
00000000
00000000
00000000
00000000
00000000
00001000
00000000
00000000
00000000
00000100
00000000
00000000
00000000
00010000
00000000
00000000
00000000
MMMMMMMM
00000000
00000000
00000000
00100000
00000000
00000000
00000000
00010000
00000000
00000000
00000000
,  // measure 63
02000000
03020000
00230000
02300000
,  // measure 64
13000000
MMMMMMMM
00010000
MMMMMMMM
00000100
MMMMMMMM
00001001
00000000
;
