#TITLE:Turii ~Panta rhei~;
#SUBTITLE:;
#ARTIST:Zektbach;
#TITLETRANSLIT:Turii ~Panta rhei~;
#SUBTITLETRANSLIT:;
#ARTISTTRANSLIT:;
#GENRE:;
#CREDIT:Silverhawke;
#MENUCOLOR:;
#METERTYPE:DDR;
#BANNER:Turii ~Panta rhei~.png;
#BACKGROUND:Turii ~Panta rhei~-bg.png;
#LYRICSPATH:;
#CDTITLE:cdtitle.png;
#MUSIC:Turii ~Panta rhei~.mp3;
#OFFSET:-0.028;
#SAMPLESTART:40.561;
#SAMPLELENGTH:15.000;
#SELECTABLE:YES;
#LISTSORT:;
#BPMS:0.000=148.000;
#STOPS:;
#BGCHANGES:0.000=Turii ~Panta rhei~.avi=1.000=1=0=0,
99999=-nosongbg-=1.000=0=0=0 // don't automatically add -songbackground-
;
#ATTACKS:;

//---------------dance-single - ----------------
#NOTES:
     dance-single:
     :
     Hard:
     12:
     0.560,0.662,0.216,0.701,0.193:
0000
0000
0000
0000
,
0000
0000
0000
0000
,
0000
0000
0000
0000
,
0000
0000
0000
0000
,
0000
0000
0000
0000
,
0101
1100
1010
0011
,
1000
0000
1000
0100
0000
0100
0010
0000
0010
0001
0000
0000
,
1100
0101
0011
1010
,
0001
0010
0100
1000
0000
0000
0010
0000
0000
0110
0000
0000
,
1010
0011
0101
1100
,
0001
0010
0100
1000
0000
0000
0001
0100
0010
1000
0000
0000
,
0011
1010
1100
0101
,
1000
0100
0010
0001
0010
0100
1000
0010
0100
0001
0000
0000
,
2000
0000
0100
0000
,
3020
0000
1000
0000
,
0230
0000
0000
0301
,
2002
3003
0000
0000
,
0002
0000
0100
0000
,
0023
0000
0000
0001
,
0230
0000
0000
1300
,
1001
0000
0000
0000
,
0001
0100
0001
0000
0010
0000
0100
0000
1000
0000
0010
0000
0100
0000
0010
0000
,
1000
0100
1000
0000
0001
0000
0010
0000
0100
0000
1000
0000
1001
0000
0000
0000
,
1000
0100
1000
0000
0010
0000
0100
0000
0001
0000
0010
0000
0100
0000
0010
0000
,
0001
0100
0001
0000
0010
0000
0100
0000
1000
0000
0010
0000
0110
0000
0000
0000
,
2000
0000
3010
0000
0100
0001
0020
0000
,
0230
0000
1300
0010
1000
0010
0100
0000
,
0001
2000
3200
0302
,
0023
0000
0130
0010
2000
0000
3001
0000
,
0020
0000
0130
1000
0020
0000
0130
0000
,
0002
0013
2000
3100
,
0001
0000
0001
0000
0010
0100
1000
0000
,
1000
0010
0100
0001
1000
0001
0100
0010
,
2000
0000
3100
0010
0100
0010
0002
0000
,
0203
0000
0310
1000
0010
1000
0001
0010
,
0100
2000
3020
0032
,
0203
0000
0310
0100
2000
0000
3010
0000
,
0200
0000
0301
0010
0200
0000
1300
0000
,
0002
0103
2000
3010
,
0002
0000
1003
0000
0010
0000
0100
0001
,
0020
0000
0130
0000
1000
1000
1000
1000
,
0100
0000
1000
0001
1000
0000
0010
0000
0100
0000
0001
1000
0001
0000
0010
0000
,
0100
0000
1000
0100
1000
0000
0100
0010
0100
0000
0010
0001
0010
0000
0001
0000
,
0100
0010
0100
0000
0001
0000
1000
0000
0100
0010
0100
0000
1000
0000
0001
0000
,
0100
0010
0100
0000
0001
0000
0010
0000
0100
0000
1000
0000
0001
0100
0010
0000
,
0100
0000
0001
1000
0001
0000
0010
0000
0100
0000
1000
0001
1000
0000
0010
0000
,
0100
0000
0001
0100
0001
0000
0100
0010
0100
0000
0010
1000
0010
0000
1000
0000
,
0100
0010
0100
0000
1000
0000
0001
0000
0100
0010
0100
0000
0001
0000
1000
0000
,
0100
0010
0100
0000
1000
0000
0010
0000
0100
0000
0001
0000
1000
0100
0010
0000
,
0001
0000
0000
0001
0010
0000
0100
0000
1000
0000
0010
0000
0100
0001
0100
0000
,
0010
0000
0000
0010
1000
0000
0100
0000
0010
0001
0010
0000
0100
0000
0000
0000
,
1000
0000
0000
1000
0010
0000
0100
0000
0001
0000
0010
0000
0100
1000
0100
0000
,
0010
0000
0000
0010
0001
0000
0100
0000
0010
1000
0010
0000
0100
0000
0100
0000
,
0002
0023
0230
0000
,
0300
2000
3020
0230
,
0302
0023
0230
2300
,
3002
0000
0003
0000
,
0200
0320
2030
0100
,
3001
0020
0230
2300
,
3020
0230
0302
0023
,
0032
0203
0300
0000
,
1001
0200
0302
0023
,
0230
0000
0000
0000
0000
0000
1300
0000
0001
0000
0000
0100
0000
0000
0010
0000
,
0100
0002
2003
3200
,
0320
0000
0000
0031
0000
0000
0100
0000
0010
0000
0000
1000
0000
0000
0100
0000
,
0010
0002
0203
2300
,
3200
0000
0000
0310
0000
0000
1000
0000
0001
0000
0000
0010
0000
0000
0001
0000
,
1000
0200
0320
0230
,
2300
0000
0000
0002
0000
0000
3003
0000
,
1100
0100
0010
0002
0000
0203
0000
0310
,
0000
2000
0000
3000
1001
0000
0001
0010
,
0200
0000
1300
0020
0000
0230
0000
0302
,
0000
0000
1003
1001
,
0101
0100
0010
2000
0000
3200
0000
0310
,
0000
0002
0000
0003
1001
0000
1000
0010
,
0200
0000
0301
0020
0000
0230
0000
2300
,
0000
0000
0002
3003
,
2002
0000
0000
0000
,
0000
3003
0000
0000
0000
0000
0000
0000
;

//---------------dance-single - ----------------
#NOTES:
     dance-single:
     :
     Medium:
     9:
     0.448,0.512,0.146,0.385,0.023:
0000
0000
0000
0000
,
0000
0000
0000
0000
,
0000
0000
0000
0000
,
0000
0000
0000
0000
,
0000
0000
0000
0000
,
1000
1100
0001
0101
,
1000
0100
0010
0001
,
1000
1010
0001
0011
,
1000
0010
0100
0110
,
0001
0101
1000
1100
,
0001
0010
0100
1001
,
0001
0011
1000
1010
,
0001
0000
0000
0100
0000
0000
0010
0100
0010
0100
0000
0000
,
0002
0000
2003
0000
,
3200
0000
0320
0000
,
0032
0000
0003
2000
,
0002
0000
0000
3003
,
0000
0000
2000
0000
,
3020
0000
0030
2000
,
0002
0000
3003
0200
,
0020
0000
0000
0330
,
1000
0100
0010
0001
0010
0100
1000
0001
,
0100
0010
1000
0010
0100
0001
0010
0000
,
0001
0100
0010
1000
0010
0100
0001
1000
,
0100
0010
0001
0010
0100
1000
0010
0000
,
0210
1000
0001
0320
,
2030
0100
0010
3100
,
1002
0010
0100
1000
,
0023
0100
0032
0100
,
2003
0010
3002
0000
,
0203
0001
0320
1000
,
0230
0001
1000
0301
,
1000
0100
0010
0001
1000
0001
0010
0100
,
2000
0000
3010
0000
1000
0100
0010
0001
,
0200
0000
0310
0000
0001
0010
0100
1000
,
0020
0000
0130
0000
1000
0010
0100
0001
,
0020
0000
0130
0000
0001
0010
0100
1000
,
0020
0000
0130
0000
0001
0010
0100
1000
,
0020
0000
0130
0000
0001
0100
0010
1000
,
0200
0001
1000
0301
,
0010
0000
0001
0000
0100
0100
0100
0000
,
0010
1000
0100
1000
0010
0100
0001
0100
,
0010
1000
0100
1000
0001
1000
0100
1000
,
0001
0010
0100
0010
0001
0010
0100
1000
,
0001
0100
0010
0100
0001
0010
0100
0100
,
0010
0001
0100
0001
0010
0100
1000
0100
,
0010
0001
0100
0001
1000
0001
0100
0001
,
1000
0010
0100
0010
1000
0010
0100
0001
,
1000
0100
0010
0100
1000
0010
0100
0100
,
0010
0000
0100
0001
0010
0100
1000
0010
,
0100
0000
0010
1000
0100
0010
0110
0000
,
1001
0000
0010
1000
0100
0010
0001
0100
,
0010
0000
0100
0001
0010
0100
0110
0000
,
2000
0100
3002
0000
,
0003
1000
0020
0100
,
2030
0100
3002
0010
,
0203
0000
0300
0000
,
0002
0100
0023
0000
,
0230
0001
2300
0001
,
3020
0001
0230
1000
,
0302
2000
3003
0000
,
1100
0010
0001
0100
,
0010
0000
0000
0000
1000
0000
0100
0000
0010
0000
0000
0001
0000
0000
0010
0000
,
0100
1000
0010
0100
,
0001
0000
0000
0000
0010
0000
0100
0000
1000
0000
0000
0010
0000
0000
0100
0000
,
0001
1000
0001
0010
,
0001
0000
0000
0010
0000
0000
0100
0000
1000
0000
0000
0100
0000
0000
0010
0000
,
0001
0100
0010
1000
,
1001
0000
0000
0110
0000
0000
0000
0000
,
1000
0100
0010
0001
0000
0010
0000
0100
,
0000
2000
0000
0000
3000
0000
0001
0100
,
0010
0000
1000
0100
0000
0010
0000
0002
,
0000
0000
0003
0000
,
1000
0010
0100
0001
0000
0010
0000
0100
,
0000
2000
0000
0000
3000
0000
0001
0100
,
0010
0000
1000
0100
0000
0010
0000
0100
,
1000
0000
0001
0000
,
2002
0000
0000
0000
,
0000
3003
0000
0000
0000
0000
0000
0000
;

//---------------dance-single - ----------------
#NOTES:
     dance-single:
     :
     Easy:
     6:
     0.313,0.361,0.015,0.077,0.000:
0000
0000
0000
0000
,
0000
0000
0000
0000
,
0000
0000
0000
0000
,
0000
0000
0000
0000
,
0000
0000
0000
0000
,
1000
1000
0001
0001
,
1000
0100
0010
0001
,
1000
1000
0010
0010
,
0100
0001
0010
0100
,
0010
0010
0001
0001
,
0100
0010
1000
0100
,
0010
0010
0100
0100
,
1000
0001
0100
0010
,
2000
0000
3100
0000
,
0002
0000
0103
0000
,
2000
0000
3000
0001
,
2000
0000
3000
0000
,
0002
0000
0103
0000
,
2000
0000
3100
0000
,
0002
0000
0003
1000
,
0002
0000
0003
0000
,
1000
0000
0100
0000
0010
0001
0010
0001
,
0100
0000
0010
0000
0100
0001
1000
0000
,
0001
0000
0010
0000
0100
1000
0100
1000
,
0010
0000
0100
0000
0010
1000
0001
0000
,
0010
0100
0100
1000
,
0010
0100
0100
0001
,
0010
0100
1000
0001
,
0100
0000
1001
0000
,
0010
1000
0100
0010
,
0100
1000
0010
0100
,
0001
0001
1000
1000
,
0100
0000
0010
0001
0010
0000
0001
0000
,
1000
0000
0010
0000
0100
0001
0010
0000
,
0100
0000
0010
0000
0001
0100
0010
0000
,
1000
0000
0100
0000
0010
0100
1000
0000
,
0010
0000
0100
0000
0010
1000
0100
0000
,
0010
0000
0001
0000
0100
0010
1000
0000
,
0001
0000
0010
0000
0100
1000
0010
0000
,
0100
0100
0010
0010
,
1000
0000
0001
0000
1000
0001
1000
0000
,
0001
0010
0100
0000
0100
0010
0001
0000
,
1000
0000
0100
0000
1000
0100
1000
0000
,
0001
0100
0001
0000
0100
0001
0100
0000
,
0010
0000
1000
0000
0100
0010
0100
0000
,
1000
0010
0100
0000
0100
0010
1000
0000
,
0001
0000
0100
0000
0001
0100
0001
0000
,
1000
0100
1000
0000
0100
1000
0100
0000
,
0010
0000
0001
0000
0100
0010
0100
0000
,
0001
0000
0010
0000
0100
1000
0001
0000
,
1000
0000
0100
0000
0010
0001
1000
0000
,
0010
0000
0100
0000
0001
0010
0100
0000
,
1000
0000
0100
0000
0010
0001
0100
0000
,
0010
0000
1000
0000
,
0100
0000
0001
0000
,
0010
0000
0001
0000
,
0100
0000
1000
0000
,
0001
0000
0100
0000
,
1000
0000
0010
0000
,
0001
0000
0010
0000
,
1000
0000
0100
0000
,
0001
0001
0010
0100
,
1000
0000
1000
0000
0010
0100
0001
0000
,
1000
1000
0100
0010
,
0001
0000
0001
0000
0100
0010
1000
0000
,
0100
0100
0010
0001
,
0100
0000
0100
0000
0010
1000
0100
0000
,
0010
0001
0100
1000
,
0010
0000
0000
0100
0000
0000
0000
0000
,
1000
0100
0001
0010
,
1000
0000
0000
0000
,
0001
0100
1000
0010
,
0001
0000
0000
0000
,
1000
0010
0001
0100
,
1000
0000
0000
0000
,
0001
0010
1000
0100
,
0001
0000
0000
0000
,
2002
0000
0000
0000
,
0000
3003
0000
0000
0000
0000
0000
0000
;

//---------------dance-single - ----------------
#NOTES:
     dance-single:
     :
     Beginner:
     1:
     0.084,0.150,0.000,0.039,0.000:
0000
0000
0000
0000
,
0000
0000
0000
0000
,
0000
0000
0000
0000
,
0000
0000
0000
0000
,
0000
0000
0000
0000
,
1000
0000
0000
0000
,
0001
0000
0000
0000
,
1000
0000
0000
0000
,
0001
0000
0000
0000
,
1000
0000
0000
0000
,
0001
0000
0000
0000
,
1000
0000
0000
0000
,
0001
0000
0000
0000
,
1000
0000
0000
0000
,
0000
0000
0000
0000
,
0001
0000
0000
0000
,
0000
0000
0000
0000
,
0100
0000
0000
0000
,
0000
0000
0000
0000
,
0010
0000
0000
0000
,
0000
0000
0000
0000
,
1000
0000
0000
0000
,
1000
0000
1000
1000
,
1000
0000
0000
0000
,
0001
0000
0001
0001
,
0001
0000
0000
0000
,
0100
0000
0000
0000
,
1000
0000
0000
0000
,
0010
0000
0000
0000
,
0001
0000
0000
0000
,
0010
0000
0000
0000
,
1000
0000
0000
0000
,
0100
0000
0000
0000
,
0001
0000
0000
0000
,
1000
0000
0000
0000
,
0100
0000
0000
0000
,
0010
0000
0000
0000
,
0001
0000
0000
0000
,
0100
0000
0000
0000
,
0010
0000
0000
0000
,
1000
0000
0000
0000
,
0100
0000
0000
0000
,
0010
0000
0010
0000
,
0010
0000
0000
0000
,
0001
0000
0001
0000
,
0001
0000
0000
0000
,
1000
0000
1000
0000
,
1000
0000
0000
0000
,
0010
0000
0010
0000
,
0010
0000
0000
0000
,
0001
0000
0001
0000
,
0001
0000
0000
0000
,
0100
0000
0100
0000
,
0100
0000
0000
0000
,
0000
0000
0000
0000
,
0010
0000
0000
0000
,
0000
0000
0000
0000
,
1000
0000
0000
0000
,
0000
0000
0000
0000
,
0001
0000
0000
0000
,
0000
0000
0000
0000
,
0010
0000
0000
0000
,
0100
0000
0000
0000
,
1000
0000
0000
0000
,
0010
0000
0000
0000
,
0001
0000
0000
0000
,
0100
0000
0000
0000
,
1000
0000
0000
0000
,
0001
0000
0000
0000
,
0200
0000
0300
0000
,
0000
0000
0000
0000
,
0002
0000
0003
0000
,
0000
0000
0000
0000
,
2000
0000
3000
0000
,
0000
0000
0000
0000
,
0200
0000
0300
0000
,
0000
0000
0000
0000
,
0020
0000
0000
0000
,
0000
0030
0000
0000
0000
0000
0000
0000
;

//---------------dance-double - ----------------
#NOTES:
     dance-double:
     :
     Hard:
     12:
     0.540,0.572,0.247,0.578,0.092: // measure 1
00000000
00000000
00000000
00000000
,  // measure 2
00000000
00000000
00000000
00000000
,  // measure 3
00000000
00000000
00000000
00000000
,  // measure 4
00000000
00000000
00000000
00000000
,  // measure 5
00000000
00000000
00000000
00000000
,  // measure 6
00000011
00000101
00001100
00011000
,  // measure 7
00010000
00000000
00010000
01000000
00000000
01000000
10000000
00000000
10000000
00100000
00000000
00000000
,  // measure 8
10100000
11000000
01010000
00011000
,  // measure 9
00010000
00000100
00000010
00000001
00000000
00000000
00000100
00000000
00000000
00000110
00000000
00000000
,  // measure 10
00000101
00000011
00001010
00001100
,  // measure 11
00001000
00000100
00010000
00001000
00000000
00000000
01000000
00010000
00100000
01000000
00000000
00000000
,  // measure 12
11000000
10100000
00110000
00011000
,  // measure 13
00010000
00000100
00010000
00000010
00001000
00000010
00000100
00000001
00000100
00000010
00000000
00000000
,  // measure 14
00002000
00000000
00003200
00000000
,  // measure 15
00020300
00000000
00032000
00000000
,  // measure 16
02003000
00000000
03000000
00100000
,  // measure 17
20020000
30030000
00000000
00000000
,  // measure 18
00020000
00000000
02030000
00000000
,  // measure 19
03002000
00000000
00003000
00010000
,  // measure 20
00000200
00000000
00000300
00000010
,  // measure 21
00001001
00000000
00000000
00000000
,  // measure 22
00000001
00000100
00000001
00000000
00001000
00000000
00000100
00000000
00010000
00000000
00001000
00000000
00100000
00000000
01000000
00000000
,  // measure 23
00100000
00010000
00100000
00000000
01000000
00000000
00010000
00000000
00001000
00000000
01000000
00000000
01100000
00000000
00000000
00000000
,  // measure 24
10000000
01000000
10000000
00000000
00010000
00000000
01000000
00000000
00001000
00000000
00010000
00000000
00000010
00000000
00000100
00000000
,  // measure 25
00000010
00001000
00000010
00000000
00000100
00000000
00001000
00000000
00010000
00000000
00000100
00000000
00000110
00000000
00000000
00000000
,  // measure 26
00000002
00000000
00000103
00000001
00000010
00000100
00000020
00000000
,  // measure 27
00000130
00010000
00001000
00000000
01001000
00001000
00010000
00000000
,  // measure 28
00001000
01000000
00020000
00000000
00230000
00000000
20300000
00000000
,  // measure 29
30100000
00010000
01000000
00000000
01002000
00000000
00013000
00000000
,  // measure 30
00000100
00000010
00000001
00000010
00000200
00000000
00010300
00000000
,  // measure 31
00001000
01000000
00100000
00000000
10100000
10000000
01000000
00000000
,  // measure 32
00010000
00000010
00000100
00001000
,  // measure 33
01000000
00010000
00100000
00001000
00000010
00000100
00001000
00000001
,  // measure 34
00000200
00000000
00000301
00000010
00000100
00010000
00002000
00000000
,  // measure 35
01003000
10000000
01000000
00010000
00100000
00001000
00020000
00000000
,  // measure 36
00030020
00000000
00000130
00000001
00000010
00001000
00020000
00000000
,  // measure 37
00031000
01000000
00100000
01000000
00010000
10000000
02000000
00000000
,  // measure 38
03100000
00001000
00010000
00001000
00000200
00000000
00000310
00000000
,  // measure 39
00001000
00000100
00001000
00010000
00200000
00000000
01300000
00000000
,  // measure 40
10000000
00010000
00001000
00000001
,  // measure 41
00000100
00000000
00010000
00000000
00100000
00100000
00100000
00100000
,  // measure 42
01000000
00100000
00001000
00000010
00000100
00010000
01000000
10000000
,  // measure 43
00100000
00010000
00000010
00010000
00000100
00010000
01000000
10000000
,  // measure 44
00100000
00010000
00100000
00010000
00001000
00000100
00001000
00000100
,  // measure 45
00000001
00000010
00001000
00010000
00000100
00000010
00000001
00000100
,  // measure 46
00000100
00000010
00010000
00100000
01000000
00001000
00000100
00000001
,  // measure 47
00000010
00001000
00100000
00001000
01000000
00001000
00000100
00000001
,  // measure 48
00000010
00001000
00000010
00001000
00010000
01000000
00010000
01000000
,  // measure 49
10000000
00100000
00010000
00001000
01000000
00100000
00010000
00100000
,  // measure 50
10000000
01000000
00100000
00010000
00001000
00000100
00000010
00000001
,  // measure 51
00000001
00000100
00000010
00001000
00010000
01000000
01100000
00000000
,  // measure 52
10000000
00100000
01000000
00010000
00001000
00000010
00000100
00000001
,  // measure 53
00000001
00000010
00000100
00001000
00010000
00100000
01100000
01000000
,  // measure 54
20000000
30020000
02030000
03000000
,  // measure 55
00001000
00020000
00030020
00000230
,  // measure 56
00020300
02030000
03200000
20300000
,  // measure 57
31000000
01000000
01000000
01000000
,  // measure 58
00200000
00302000
00003200
00000300
,  // measure 59
00000001
00000020
00000230
00002300
,  // measure 60
00023000
00230000
02300000
23000000
,  // measure 61
30020000
00030020
00000030
00000000
,  // measure 62
00001001
00000000
00000010
00010000
00000200
00000000
00010300
00001000
,  // measure 63
00020000
00000000
00000000
00000000
00031000
00000000
01000000
00000000
00100000
00000000
00000000
10000000
00000000
00000000
01000000
00000000
,  // measure 64
00100000
00002000
00023000
00030200
,  // measure 65
00000320
00000000
00000000
00000031
00000000
00000000
00000100
00000000
00001000
00000000
00000000
00010000
00000000
00000000
00100000
00000000
,  // measure 66
10000000
20000000
30020000
00032000
,  // measure 67
00003002
00000000
00000000
00000013
00000000
00000000
00000100
00000000
00010000
00000000
00000000
00001000
00000000
00000000
00100000
00000000
,  // measure 68
01000000
20000000
30200000
00320000
,  // measure 69
00030020
00000000
00000000
00000200
00000000
00000000
00000330
00000000
,  // measure 70
00000001
00000100
00001000
00010000
00000000
00100000
00000000
20000000
,  // measure 71
00000000
00020000
00000000
30030000
01100000
00000000
10000000
01000000
,  // measure 72
00010000
00000000
00001000
00000010
00000000
00000002
00000000
00002000
,  // measure 73
00000000
00003003
00000110
00001000
,  // measure 74
00000001
00000010
00000100
00010000
00000000
00001000
00000000
00200000
,  // measure 75
00000000
02000000
00000000
03300000
10010000
00000000
10000000
01000000
,  // measure 76
00100000
00000000
00001000
00010000
00000000
00000020
00000000
00000200
,  // measure 77
00000000
00000330
00002200
00003300
,  // measure 78
00022000
00000000
00000000
00000000
,  // measure 79
00000000
00033000
00000000
00000000
00000000
00000000
00000000
00000000
;

//---------------dance-double - ----------------
#NOTES:
     dance-double:
     :
     Medium:
     9:
     0.425,0.512,0.031,0.524,0.019: // measure 1
00000000
00000000
00000000
00000000
,  // measure 2
00000000
00000000
00000000
00000000
,  // measure 3
00000000
00000000
00000000
00000000
,  // measure 4
00000000
00000000
00000000
00000000
,  // measure 5
00000000
00000000
00000000
00000000
,  // measure 6
10000000
00100000
01000000
00001000
,  // measure 7
00010000
00000010
00000100
00000001
,  // measure 8
00000001
00000010
00000100
00010000
,  // measure 9
00001000
00100000
01000000
10000000
,  // measure 10
10000000
01000000
00100000
00010000
,  // measure 11
00001000
00000100
00000010
00000001
,  // measure 12
00000001
00000100
00000010
00001000
,  // measure 13
00010000
01000000
00100000
10000000
,  // measure 14
20000000
00000000
32000000
00000000
,  // measure 15
03200000
00000000
00302000
00000000
,  // measure 16
00003020
00000000
00000030
00000001
,  // measure 17
00000200
00000000
00000300
00000000
,  // measure 18
00000020
00000000
00002030
00000000
,  // measure 19
00003200
00000000
00000300
00010000
,  // measure 20
00002000
00000000
00003000
01000000
,  // measure 21
00200000
00000000
00300000
00000000
,  // measure 22
10000000
01000000
10000000
00000000
01000000
00010000
01000000
00000000
,  // measure 23
00010000
00001000
00010000
00000000
00001000
00000100
00000001
00000000
,  // measure 24
00000001
00000100
00000001
00000000
00000100
00001000
00000100
00000000
,  // measure 25
00001000
00010000
00001000
00000000
00010000
01000000
10000000
00000000
,  // measure 26
00200000
01300000
00010000
00200000
,  // measure 27
00302000
00013000
00000100
00001000
,  // measure 28
00000010
00002000
00003200
00020300
,  // measure 29
00032000
00100000
02003000
00100000
,  // measure 30
03020000
00230000
02300000
13000000
,  // measure 31
00200000
10000000
02300000
00010000
,  // measure 32
03001000
00010000
00000100
00000010
,  // measure 33
00000001
00000100
00000010
00010000
00001000
00010000
00000010
00000100
,  // measure 34
00000002
00000103
00001000
00000020
,  // measure 35
00020030
00031000
01000000
00010000
,  // measure 36
00100000
00020000
02030000
03002000
,  // measure 37
00023000
00000010
00030200
00000010
,  // measure 38
00002300
00003020
00000230
00000301
,  // measure 39
00000020
00000001
00000230
00001000
,  // measure 40
00010300
00001000
01000000
00100000
,  // measure 41
10000000
00000000
01000000
00000000
00100000
00100000
00100000
00000000
,  // measure 42
00010000
01000000
00100000
01000000
00010000
01000000
00100000
01000000
,  // measure 43
00001000
00100000
00010000
00100000
00001000
00100000
00010000
00100000
,  // measure 44
00001000
00010000
00000100
00010000
00001000
00010000
00000100
00010000
,  // measure 45
00001000
00000100
00000010
00001000
00000001
00000000
00001001
00000000
,  // measure 46
00001000
00000100
00000010
00000100
00001000
00000100
00000010
00000100
,  // measure 47
00010000
00000010
00001000
00000010
00010000
00000010
00001000
00000010
,  // measure 48
00010000
00001000
01000000
00001000
00010000
00001000
01000000
00001000
,  // measure 49
00010000
01000000
00100000
00010000
10000000
00000000
10010000
00000000
,  // measure 50
10000000
01000000
00100000
00000000
00100000
01000000
10000000
00000000
,  // measure 51
01000000
00010000
00001000
00000100
,  // measure 52
00000001
00000010
00000100
00000000
00000100
00000010
00000001
00000000
,  // measure 53
00000100
00000000
00001000
00000000
00010000
00000000
00100000
10000000
,  // measure 54
00020000
02030000
03002000
00003000
,  // measure 55
00010000
00000200
00000320
00000032
,  // measure 56
00000203
00000320
00020030
00032000
,  // measure 57
01003000
01000000
01000000
01000000
,  // measure 58
00200000
20300000
30020000
00030000
,  // measure 59
01000000
00002000
00023000
00030200
,  // measure 60
00000320
00000032
00000203
00002300
,  // measure 61
00023000
00032000
00003000
00000000
,  // measure 62
00011000
00010000
01000000
10000000
,  // measure 63
00200000
00000000
00000000
00000000
00300000
00000000
01000000
00000000
00010000
00000000
00000000
00100000
00000000
00000000
00001000
00000000
,  // measure 64
00010000
00000100
00001000
00000010
,  // measure 65
00000100
00000000
00000000
00000010
00000000
00000000
00001000
00000000
00000100
00000000
00000000
00000010
00000000
00000000
00000100
00000000
,  // measure 66
00001000
00000001
00000100
00001000
,  // measure 67
00010000
00000000
00000000
01000000
00000000
00000000
10000000
00000000
00010000
00000000
00000000
01000000
00000000
00000000
00010000
00000000
,  // measure 68
10000000
01000000
00100000
00001000
,  // measure 69
00020000
00000000
00000000
00002000
00000000
00000000
00033000
00000000
,  // measure 70
00010000
00001000
01000000
00001000
00000000
00100000
00000000
00010000
,  // measure 71
00000000
02000000
00000000
00000000
03000000
00000000
00100000
10000000
,  // measure 72
01000000
00000000
00100000
00010000
00000000
01000000
00000000
00002000
,  // measure 73
00000000
00000000
00013000
00000000
,  // measure 74
00001000
00010000
00000100
00000010
00000000
00000001
00000000
00000100
,  // measure 75
00000000
00000020
00000000
00000000
00000030
00000000
00001000
00000100
,  // measure 76
00010000
00000000
00001000
01000000
00000000
00100000
00000000
02000000
,  // measure 77
00000000
00000000
03100000
00000000
,  // measure 78
20020000
00000000
00000000
00000000
,  // measure 79
00000000
30030000
00000000
00000000
00000000
00000000
00000000
00000000
;

//---------------dance-double - ----------------
#NOTES:
     dance-double:
     :
     Easy:
     6:
     0.314,0.331,0.008,0.185,0.000: // measure 1
00000000
00000000
00000000
00000000
,  // measure 2
00000000
00000000
00000000
00000000
,  // measure 3
00000000
00000000
00000000
00000000
,  // measure 4
00000000
00000000
00000000
00000000
,  // measure 5
00000000
00000000
00000000
00000000
,  // measure 6
00000001
00000001
00000001
00000001
,  // measure 7
00000100
00001000
00010000
01000000
,  // measure 8
10000000
10000000
10000000
10000000
,  // measure 9
01000000
00010000
00001000
00000100
,  // measure 10
00000001
00000001
00000001
00000001
,  // measure 11
00000010
00001000
00010000
01000000
,  // measure 12
10000000
10000000
10000000
10000000
,  // measure 13
00100000
00010000
00001000
00000100
,  // measure 14
00000002
00000000
00002003
00000000
,  // measure 15
00003200
00000000
00020300
00000000
,  // measure 16
00032000
00000000
00003000
01000000
,  // measure 17
00020000
00030000
00000000
00000000
,  // measure 18
20000000
00000000
30020000
00000000
,  // measure 19
02030000
00000000
03000000
00001000
,  // measure 20
00020000
00000000
00030000
00000100
,  // measure 21
00001000
00000000
00000000
00000000
,  // measure 22
00000001
00000100
00000001
00000000
00000100
00000000
00001000
00000000
,  // measure 23
00010000
00001000
00010000
00000000
01000000
00000000
10000000
00000000
,  // measure 24
10000000
01000000
10000000
00000000
01000000
00000000
00010000
00000000
,  // measure 25
00001000
00010000
00001000
00000000
00000100
00000000
00000001
00000000
,  // measure 26
00001000
00001000
00000100
00010000
,  // measure 27
00001000
00001000
01000000
00010000
,  // measure 28
10000000
10000000
01000000
00100000
,  // measure 29
00020000
00030000
20000000
30000000
,  // measure 30
00010000
00010000
01000000
00001000
,  // measure 31
00010000
00010000
00000100
00001000
,  // measure 32
00000010
00000100
00000001
00000010
,  // measure 33
00000100
00000010
00000100
00000000
00000010
00000000
00000001
00000000
,  // measure 34
00001000
00001000
00000100
00010000
,  // measure 35
00001000
00001000
01000000
00010000
,  // measure 36
10000000
10000000
01000000
00100000
,  // measure 37
00020000
00030000
20000000
30000000
,  // measure 38
00010000
00010000
01000000
00001000
,  // measure 39
00010000
00010000
00000100
00001000
,  // measure 40
00000010
00000100
00000001
00000010
,  // measure 41
00000100
00000000
00000010
00000000
00000001
00001000
00000001
00000000
,  // measure 42
00001000
00000100
00010000
00001000
,  // measure 43
01000000
00010000
01000000
00000000
00010000
01000000
00010000
00000000
,  // measure 44
10000000
01000000
00010000
00001000
,  // measure 45
00000100
00000010
00000100
00000000
00000001
00001000
00000001
00000000
,  // measure 46
00001000
00000100
00010000
00001000
,  // measure 47
01000000
00010000
01000000
00000000
00010000
01000000
00010000
00000000
,  // measure 48
10000000
01000000
00010000
00001000
,  // measure 49
00000100
00000010
00000100
00000000
00000001
00001000
00000001
00000000
,  // measure 50
00001000
00000100
00010000
00001000
,  // measure 51
01000000
00000000
00010000
00000000
10000000
01000000
10000000
00000000
,  // measure 52
00010000
01000000
00001000
00010000
,  // measure 53
00000100
00000000
00001000
00000000
00000001
00000100
00000001
00000000
,  // measure 54
00001000
00000100
00020000
00000000
,  // measure 55
00030000
00001000
01000000
00010000
,  // measure 56
00100000
01000000
10000000
00010000
,  // measure 57
20000000
00000000
30000000
00000000
,  // measure 58
01000000
00010000
00002000
00000000
,  // measure 59
00003000
00010000
00000100
00001000
,  // measure 60
00000010
00000100
00000001
00000010
,  // measure 61
00000100
00002000
00003000
00000000
,  // measure 62
00000001
00000100
00001000
00010000
,  // measure 63
01000000
10000000
01000000
00010000
,  // measure 64
01000000
10000000
01000000
00010000
,  // measure 65
00001000
00000100
00000001
00001000
,  // measure 66
00000001
00000010
00001000
00010000
,  // measure 67
00100000
10000000
00100000
00010000
,  // measure 68
00001000
00010000
00001000
00000010
,  // measure 69
00000001
00000000
00000000
00001000
00000000
00000000
00000000
00000000
,  // measure 70
00000001
00000100
00001000
00010000
,  // measure 71
02000000
00000000
03000000
00000000
,  // measure 72
10000000
01000000
00010000
00001000
,  // measure 73
00000200
00000000
00000300
00000000
,  // measure 74
00000001
00000010
00001000
00010000
,  // measure 75
00200000
00000000
00300000
00000000
,  // measure 76
10000000
00100000
00010000
00001000
,  // measure 77
00000020
00000000
00000030
00000000
,  // measure 78
00002002
00000000
00000000
00000000
,  // measure 79
00000000
00003003
00000000
00000000
00000000
00000000
00000000
00000000
;
