#TITLE:Todestrieb;
#SUBTITLE:;
#ARTIST:Rche;
#TITLETRANSLIT:;
#SUBTITLETRANSLIT:;
#ARTISTTRANSLIT:;
#GENRE:;
#CREDIT:Silverhawke;
#MENUCOLOR:;
#METERTYPE:DDR;
#BANNER:Todestrieb.png;
#BACKGROUND:Todestrieb-bg.png;
#LYRICSPATH:;
#CDTITLE:cdtitle.png;
#MUSIC:Todestrieb.mp3;
#OFFSET:-0.025;
#SAMPLESTART:41.517;
#SAMPLELENGTH:15.000;
#SELECTABLE:YES;
#LISTSORT:;
#BPMS:0.000=185.000;
#STOPS:;
#BGCHANGES:;
#ATTACKS:;

//---------------dance-single - ----------------
#NOTES:
     dance-single:
     :
     Hard:
     14:
     0.689,0.925,0.123,0.509,0.424: // measure 1
0000
0000
0000
0000
,  // measure 2
0000
0000
0000
0000
,  // measure 3
0000
0000
0000
0000
,  // measure 4
0000
0000
0000
0000
,  // measure 5
0002
0000
0000
0023
0000
0000
0230
0000
,  // measure 6
0000
2300
0000
0000
3020
0000
0230
0000
,  // measure 7
0302
0000
0000
2003
0000
0000
3200
0000
,  // measure 8
0000
0320
0000
0000
0230
0000
2300
0000
,  // measure 9
3001
0000
0001
0100
0000
0100
0010
0000
,  // measure 10
0010
1000
0000
1000
0100
0010
0100
1000
,  // measure 11
0001
0000
0001
0010
0000
0010
0100
0000
,  // measure 12
0100
1000
0000
1000
0001
0100
0010
0100
,  // measure 13
0001
0000
0001
1000
0000
1000
0010
0000
,  // measure 14
0010
0100
0000
0100
0001
1000
0100
0010
,  // measure 15
0100
0000
0100
1000
0000
1000
0010
0000
,  // measure 16
0010
0001
0000
0001
0010
0100
0010
1000
,  // measure 17
0001
0000
0010
0001
0100
0000
0010
0000
,  // measure 18
0100
0001
0010
0000
0100
1000
0100
1000
,  // measure 19
0010
0000
0100
0001
1000
0000
0100
0000
,  // measure 20
0010
0100
1000
0000
0001
0100
0010
0100
,  // measure 21
1000
0000
0100
0010
0100
0000
0001
0000
,  // measure 22
0010
0100
1000
0000
0001
0010
0100
0010
,  // measure 23
1000
0000
0010
0001
0100
0000
0010
0000
,  // measure 24
1100
0000
0100
0000
0110
0000
0010
0000
0011
0000
0001
0000
1000
0100
1000
0100
,  // measure 25
2000
0000
0000
0000
,  // measure 26
3002
0000
0000
0000
,  // measure 27
0203
0000
0000
0000
,  // measure 28
0320
0000
0000
0000
,  // measure 29
2030
0000
0100
0100
,  // measure 30
3200
0000
0010
0010
,  // measure 31
0320
0000
0001
0001
,  // measure 32
0031
0000
0000
0000
1000
0000
0100
0000
0000
0000
0010
0000
0100
0000
1000
0001
,  // measure 33
1000
0000
0010
0000
0000
0100
0000
0000
0001
0000
0000
1000
0000
0000
0100
0000
,  // measure 34
0000
0000
0010
0000
0000
0100
0000
0000
1000
0000
0000
0001
0000
0000
0100
0000
,  // measure 35
0000
0000
0010
0000
0000
1000
0000
0000
0001
0000
0000
1000
0000
0000
0100
0000
,  // measure 36
0000
0000
0001
0000
0000
0100
0000
0000
0010
0000
0000
0001
0000
0000
0100
0000
,  // measure 37
0000
0000
0001
0000
0000
1000
0000
0000
0100
0000
0000
0010
0000
0000
0001
0000
,  // measure 38
0000
0000
0100
0000
0000
1000
0000
0000
0100
0000
0000
0010
0000
0000
1000
0000
,  // measure 39
0000
0000
0001
0000
0000
0010
0000
0000
0100
0000
0000
0001
0000
0000
0100
0000
,  // measure 40
0000
0000
1000
0000
0000
0001
0000
0000
0100
0000
0000
0010
0000
0000
1000
0000
,  // measure 41
0001
0000
0200
0000
0000
0310
0000
0000
2000
0000
0000
3100
0000
0000
0010
0000
,  // measure 42
0000
0000
0002
0000
0000
0103
0000
0000
0020
0000
0000
1030
0000
0000
0001
0000
,  // measure 43
0000
0000
2000
0000
0000
3100
0000
0000
0002
0000
0000
0103
0000
0000
0010
0000
,  // measure 44
0000
0000
0002
0000
0000
0103
0000
0000
2000
0000
0000
3100
0000
0000
0010
0000
,  // measure 45
0000
0000
2000
0000
0000
3200
0000
0000
0320
0000
0000
0032
0000
0000
0103
0000
,  // measure 46
0000
0000
0002
0000
0000
2003
0000
0000
3020
0000
0000
0230
0000
0000
1300
0000
,  // measure 47
0000
0000
0200
0000
0000
0302
0000
0000
2003
0000
0000
3200
0000
0000
0310
0000
,  // measure 48
0000
0000
0002
0000
0000
2003
0000
0000
3020
0000
0000
0230
0000
0000
0301
0000
,  // measure 49
2000
0000
0100
0200
0000
0000
0300
0000
,  // measure 50
3002
0000
0100
0103
0020
0000
1000
0000
,  // measure 51
0230
1000
0302
0010
,  // measure 52
2003
0000
0001
0002
0000
0000
0003
0000
,  // measure 53
3200
0000
0010
0020
0000
0000
0030
0000
,  // measure 54
2300
0000
0010
3010
0200
0000
0001
0000
,  // measure 55
0320
0001
2030
0100
,  // measure 56
3002
0000
0100
0100
0000
0000
0103
0000
,  // measure 57
1001
0000
0000
0000
0000
0000
1000
0000
0100
0000
0010
0000
0001
0000
0000
0100
0000
0000
0010
0000
0000
0000
0000
0000
,  // measure 58
0100
0000
0000
0000
0000
0000
0001
0000
0010
0000
0100
0000
1000
0000
0000
0001
0000
0000
0100
0000
0000
0000
0000
0000
,  // measure 59
0010
0000
0000
0000
0000
0000
0100
0000
0001
0000
1000
0000
0010
0000
0000
1000
0000
0000
0100
0000
0000
0000
0000
0000
,  // measure 60
0010
0000
0000
0000
0000
0000
0001
0000
1000
0000
0100
0000
0010
0000
0000
0100
0000
0000
1000
0000
0000
0000
0000
0000
,  // measure 61
0001
0000
0000
0000
0000
0000
0010
0000
0100
0000
1000
0000
0001
0000
0000
0100
0000
0000
0010
0000
0000
0000
0000
0000
,  // measure 62
0100
0000
0000
0000
0000
0000
0001
0000
1000
0000
0100
0000
0010
0000
0000
0001
0000
0000
0100
0000
0000
0000
0000
0000
,  // measure 63
0010
0000
0000
0000
0000
0000
1000
0000
0001
0000
0100
0000
0010
0000
0000
1000
0000
0000
0100
0000
0000
0000
0000
0000
,  // measure 64
0010
0000
0000
0000
0000
0000
0100
0000
1000
0000
0001
0000
0010
0000
0000
0001
0000
0000
0100
0000
0000
0000
0000
0000
,  // measure 65
0010
0000
1000
0000
0001
0100
0001
0000
1000
0100
1000
0000
0001
0100
0001
0000
,  // measure 66
0010
0000
0100
0000
1000
0100
1000
0000
0001
0100
0001
0000
1000
0100
1000
0000
,  // measure 67
0010
0000
0100
0000
0001
0010
0001
0000
1000
0010
1000
0000
0001
0010
0001
0000
,  // measure 68
1000
0000
0100
0000
0010
0001
0010
0100
1000
0000
0100
0000
1000
0001
1000
0000
,  // measure 69
0010
0000
0100
0000
0001
0010
0001
0000
1000
0010
1000
0000
0001
0100
0001
0000
,  // measure 70
1000
0000
0100
0000
0010
0001
0010
0000
0100
1000
0100
0000
1000
0001
1000
0000
,  // measure 71
0001
0000
0100
0000
0010
1000
0010
0000
0100
0001
0100
0000
0001
1000
0001
0000
,  // measure 72
1000
0000
0001
0000
0100
0010
1000
0010
0100
0000
0001
0000
1000
0001
1000
0000
,  // measure 73
0100
0000
0100
0000
0110
0000
0010
0000
0001
0100
0001
0000
1000
0100
1000
0000
,  // measure 74
0010
0000
0010
0000
0110
0000
0100
0000
0001
0010
0001
0000
1000
0010
1000
0000
,  // measure 75
0100
0000
0100
0000
0110
0000
0010
0000
0001
0100
0001
0000
1000
0100
1000
0000
,  // measure 76
0001
0000
0001
0000
0011
0000
0010
0000
0100
1000
0100
0000
0010
0001
0010
0000
,  // measure 77
0001
0000
0001
0000
1001
0000
1000
0000
0010
1000
0001
0000
0100
0001
1000
0000
,  // measure 78
0010
0000
0010
0000
1010
0000
1000
0000
0001
0010
0100
0000
1000
0100
0010
0000
,  // measure 79
0100
0000
0100
0000
0110
0000
0010
0000
0001
0100
0010
0000
1000
0100
0010
0000
,  // measure 80
0011
0000
0001
0000
0101
0000
0100
0000
0110
0000
0010
0000
1010
0000
1000
0001
,  // measure 81
1000
0000
0001
0000
1000
0100
0000
0000
0010
0000
0000
0100
1000
0000
0001
0000
,  // measure 82
0100
0000
0010
0000
0100
0001
0000
0000
1000
0000
0000
0100
0010
0000
0100
0000
,  // measure 83
1000
0000
0001
0000
0100
0010
0000
0000
0100
0000
0000
0001
1000
0000
0100
0000
,  // measure 84
0010
0000
0001
0000
0100
0010
0000
0010
1000
0000
1000
0001
0000
0001
0010
0000
,  // measure 85
0100
0000
1000
0000
0001
0100
0000
0000
0010
0000
0000
1000
0100
0000
0001
0000
,  // measure 86
0100
0000
1000
0000
0010
0100
0000
0000
0001
0000
0000
0100
1000
0000
0100
0000
,  // measure 87
0010
0000
1000
0000
0100
0001
0000
0000
0100
0000
0000
0010
0001
0000
0100
0000
,  // measure 88
0010
0000
1000
0000
0001
0010
0000
0010
0100
0000
0100
1000
0000
1000
0001
0000
,  // measure 89
0200
0000
0000
0000
,  // measure 90
0320
0000
0000
0000
,  // measure 91
2030
0000
0000
0000
,  // measure 92
3002
0000
0000
0000
,  // measure 93
0023
0000
0000
0000
,  // measure 94
0230
0000
0000
0000
,  // measure 95
2300
0000
0000
0000
,  // measure 96
3002
0000
0000
0000
0000
0000
0000
0003
,  // measure 97
1001
0000
0000
0000
;

//---------------dance-single - ----------------
#NOTES:
     dance-single:
     :
     Medium:
     10:
     0.445,0.629,0.015,0.208,0.000: // measure 1
0000
0000
0000
0000
,  // measure 2
0000
0000
0000
0000
,  // measure 3
0000
0000
0000
0000
,  // measure 4
0000
0000
0000
0000
,  // measure 5
1000
0000
0000
0100
0000
0000
0010
0000
,  // measure 6
0000
0100
0000
0000
1000
0000
0001
0000
,  // measure 7
1000
0000
0000
0010
0000
0000
0100
0000
,  // measure 8
0000
0001
0000
0000
1000
0000
0100
0000
,  // measure 9
0010
0000
0000
0100
0000
0000
1000
0000
,  // measure 10
0000
0100
0000
0000
0010
0000
0001
0000
,  // measure 11
0100
0000
0000
0010
0000
0000
1000
0000
,  // measure 12
0000
0010
0000
0000
0100
0000
0001
0000
,  // measure 13
1000
0000
0100
0010
0000
0000
0001
0000
,  // measure 14
0100
0010
0000
0000
1000
0000
0100
0000
,  // measure 15
0010
0000
0001
1000
0000
0000
0010
0000
,  // measure 16
1000
0001
0000
0000
0010
0000
0100
0000
,  // measure 17
1000
1000
1000
1000
,  // measure 18
0100
0100
0100
0100
,  // measure 19
0001
0001
0001
0001
,  // measure 20
0010
0010
0010
0010
,  // measure 21
1000
1000
0100
0100
,  // measure 22
0001
0001
0010
0010
,  // measure 23
1000
0100
0001
0010
,  // measure 24
1000
0100
0010
0001
,  // measure 25
2000
0000
0000
0000
,  // measure 26
3200
0000
0000
0000
,  // measure 27
0320
0000
0000
0000
,  // measure 28
0032
0000
0000
0000
,  // measure 29
2003
0000
0000
0000
,  // measure 30
3020
0000
0000
0000
,  // measure 31
0230
0000
0000
0000
,  // measure 32
0302
0000
0000
0000
,  // measure 33
1003
0000
0100
0000
0010
0100
1000
0000
,  // measure 34
0001
0000
0100
0000
0010
1000
0001
0000
,  // measure 35
0010
0000
0100
0000
1000
0010
0100
0000
,  // measure 36
0010
0000
1000
0000
0001
1000
0100
0000
,  // measure 37
0010
0000
0001
0000
0100
0001
0010
0000
,  // measure 38
0100
0000
1000
0000
0010
0100
0001
0000
,  // measure 39
1000
0000
0100
0000
0010
0100
1000
0000
,  // measure 40
0010
0000
0100
0000
0001
1000
0100
0000
,  // measure 41
0010
0001
0100
0000
0010
1000
0100
0000
,  // measure 42
0010
0001
1000
0000
0010
1000
0001
0000
,  // measure 43
0100
0000
0010
0000
0100
0001
1000
0000
,  // measure 44
0100
0010
0001
0000
1000
0000
0100
0000
,  // measure 45
0010
0000
0001
0000
0100
0010
1000
0000
,  // measure 46
0100
0000
0010
0000
0100
0001
1000
0000
,  // measure 47
0100
0010
0001
0000
0010
0100
1000
0000
,  // measure 48
0001
0100
0010
1000
0100
0000
0010
0000
,  // measure 49
0002
0000
0000
0000
,  // measure 50
0203
0000
0000
0000
,  // measure 51
0320
0000
2030
0000
,  // measure 52
3002
0000
0000
0000
,  // measure 53
0203
0000
0000
0000
,  // measure 54
0320
0000
2030
0000
,  // measure 55
3002
0000
2003
0000
,  // measure 56
3200
0000
0000
0000
,  // measure 57
0310
0001
1000
0001
,  // measure 58
0010
0100
1000
0100
,  // measure 59
0010
0001
0100
0010
,  // measure 60
1000
0100
0010
0001
,  // measure 61
0001
0100
0010
0100
,  // measure 62
0001
1000
0100
1000
,  // measure 63
0001
0010
0100
1000
,  // measure 64
0001
0100
0010
1000
,  // measure 65
0001
0100
0010
1000
0100
0000
0010
0000
,  // measure 66
0100
1000
0001
0100
0010
0000
0100
0000
,  // measure 67
0001
1000
0100
0010
0001
0000
1000
0000
,  // measure 68
0001
0100
0010
1000
0100
0000
1000
0000
,  // measure 69
0010
0100
1000
0100
0001
0000
1000
0000
,  // measure 70
0100
0001
0100
0010
0001
0000
0100
0000
,  // measure 71
0010
1000
0010
0001
0010
0000
0100
0000
,  // measure 72
0001
1000
0100
0010
0100
0000
1000
0000
,  // measure 73
0001
0100
0010
1000
0100
0010
0100
1000
,  // measure 74
0001
0100
0010
1000
0100
0001
0100
1000
,  // measure 75
0001
0100
0010
1000
0010
0100
0001
0010
,  // measure 76
0100
0001
0100
1000
0001
0100
1000
0100
,  // measure 77
0010
1000
0010
0100
0001
0010
0100
1000
,  // measure 78
0100
0010
0001
0100
0010
1000
0001
0010
,  // measure 79
0100
0010
0001
1000
0010
0100
0010
1000
,  // measure 80
0001
0100
0010
1000
0100
0010
0001
0000
,  // measure 81
1000
0100
0010
0000
0001
0100
0010
0000
,  // measure 82
0100
0001
1000
0000
0100
0010
0001
0000
,  // measure 83
0100
0010
0100
0000
0001
0010
0100
0000
,  // measure 84
1000
0010
0100
0010
1000
0000
1001
0000
,  // measure 85
0010
0100
1000
0000
0001
0100
0010
0000
,  // measure 86
1000
0001
0010
0000
0100
1000
0001
0000
,  // measure 87
0100
1000
0100
0000
0010
1000
0010
0000
,  // measure 88
0100
0001
1000
0100
0010
0000
0110
0000
,  // measure 89
0200
0000
0000
0000
,  // measure 90
2300
0000
0000
0000
,  // measure 91
3020
0000
0000
0000
,  // measure 92
0230
0000
0000
0000
,  // measure 93
0302
0000
0000
0000
,  // measure 94
0023
0000
0000
0000
,  // measure 95
0230
0000
0000
0000
,  // measure 96
2300
0000
0000
0000
,  // measure 97
3001
0000
0000
0000
;

//---------------dance-single - ----------------
#NOTES:
     dance-single:
     :
     Easy:
     6:
     0.270,0.333,0.062,0.116,0.000: // measure 1
0000
0000
0000
0000
,  // measure 2
0000
0000
0000
0000
,  // measure 3
0000
0000
0000
0000
,  // measure 4
0000
0000
0000
0000
,  // measure 5
1000
0000
0000
0001
,  // measure 6
0000
0000
0100
0000
,  // measure 7
0010
0000
0000
0100
,  // measure 8
0000
0000
0001
0000
,  // measure 9
1000
0000
0000
0100
,  // measure 10
0000
0000
0010
0000
,  // measure 11
0001
0000
0000
0100
,  // measure 12
0000
0000
0010
0000
,  // measure 13
1000
0000
0000
0001
,  // measure 14
0000
0000
0100
0000
,  // measure 15
0010
0000
0000
1000
,  // measure 16
0000
0000
0100
0000
,  // measure 17
0010
0000
0001
1000
,  // measure 18
0001
0000
0100
0000
,  // measure 19
0010
0000
1000
0001
,  // measure 20
1000
0000
0100
0000
,  // measure 21
0010
0000
0001
1000
,  // measure 22
0001
0000
0100
0000
,  // measure 23
0010
0000
1000
0001
,  // measure 24
1000
0000
0100
0000
,  // measure 25
0020
0000
0030
0000
,  // measure 26
0002
0000
0003
0000
,  // measure 27
0200
0000
0300
0000
,  // measure 28
2000
0000
3000
0000
,  // measure 29
0020
0000
0030
0000
,  // measure 30
0200
0000
0300
0000
,  // measure 31
2000
0000
3000
0000
,  // measure 32
0001
1000
0000
1000
,  // measure 33
0001
0010
0001
0000
,  // measure 34
1000
0010
1000
0000
,  // measure 35
0001
0100
0001
0000
,  // measure 36
1000
0100
1000
0000
,  // measure 37
0001
0010
0100
0000
,  // measure 38
1000
0010
0100
0000
,  // measure 39
0001
1000
0100
0000
,  // measure 40
1000
0001
0100
0000
,  // measure 41
0010
1000
0100
0000
,  // measure 42
0010
0001
0100
0000
,  // measure 43
0010
1000
0001
0000
,  // measure 44
0010
0001
1000
0000
,  // measure 45
0100
1000
0010
0000
,  // measure 46
0100
0001
0010
0000
,  // measure 47
0100
1000
0001
0000
,  // measure 48
0010
0001
1000
0000
,  // measure 49
1000
0000
0000
0000
,  // measure 50
0100
0000
0000
0000
,  // measure 51
0010
0000
0001
0000
,  // measure 52
1000
0000
0000
0000
,  // measure 53
0010
0000
0000
0000
,  // measure 54
0100
0000
0001
0000
,  // measure 55
1000
0000
0001
0000
,  // measure 56
0010
0000
0000
0000
,  // measure 57
0100
1000
0001
1000
,  // measure 58
0000
0010
0100
0010
,  // measure 59
0000
0100
0001
0100
,  // measure 60
0000
0001
1000
0100
,  // measure 61
0000
0010
0001
0010
,  // measure 62
0000
0001
0100
0001
,  // measure 63
0000
0100
0010
0100
,  // measure 64
0000
0010
1000
0001
,  // measure 65
0000
1000
0100
0010
,  // measure 66
0000
0100
1000
0001
,  // measure 67
0000
0100
0010
1000
,  // measure 68
0000
0001
0100
0010
,  // measure 69
0000
0100
0001
1000
,  // measure 70
0000
0100
0010
0001
,  // measure 71
0000
0010
0100
1000
,  // measure 72
0000
0001
0100
0010
,  // measure 73
1000
0100
0010
0110
,  // measure 74
0000
1000
0001
1001
,  // measure 75
0000
0010
0100
0110
,  // measure 76
0000
0100
0001
1001
,  // measure 77
0000
0100
0001
0110
,  // measure 78
0000
1000
0010
0110
,  // measure 79
0000
0001
1000
0110
,  // measure 80
0000
0010
0100
1001
,  // measure 81
1000
0100
1000
0100
,  // measure 82
0001
0100
0001
0100
,  // measure 83
1000
0010
1000
0010
,  // measure 84
0001
0010
0001
0010
,  // measure 85
1000
0100
0001
0100
,  // measure 86
1000
0010
0001
0010
,  // measure 87
1000
0100
0010
0001
,  // measure 88
0100
1000
0001
0010
,  // measure 89
2000
0000
3000
0000
,  // measure 90
0200
0000
0300
0000
,  // measure 91
0020
0000
0030
0000
,  // measure 92
0002
0000
0003
0000
,  // measure 93
2000
0000
3000
0000
,  // measure 94
0020
0000
0030
0000
,  // measure 95
0200
0000
0300
0000
,  // measure 96
0002
0000
0003
0000
,  // measure 97
1000
0000
0000
0000
;

//---------------dance-double - ----------------
#NOTES:
     dance-double:
     :
     Hard:
     14:
     0.648,0.888,0.116,0.239,0.455:
00000000
00000000
00000000
00000000
,
00000000
00000000
00000000
00000000
,
00000000
00000000
00000000
00000000
,
00000000
00000000
00000000
00000000
,
10000000
00000000
00000000
01000000
00000000
00000000
00100000
00000000
,
00000000
00001000
00000000
00000000
00010000
00000000
00000100
00000000
,
00001000
00000000
00000000
00000010
00000000
00000000
00000100
00000000
,
00000000
00000001
00000000
00000000
00000010
00000000
00000100
00000000
,
00010000
00000000
00010000
00001000
00000000
00001000
01000000
00000000
,
01000000
00100000
00000000
00100000
10000000
00000000
00010000
00000000
,
01000000
00000000
01000000
00001000
00000000
00001000
00010000
00000000
,
00010000
00000010
00000000
00000010
00000100
00000000
00000001
00000000
,
00000010
00000000
00000010
00000100
00000000
00000100
00010000
00000000
,
00010000
00001000
00000000
00001000
01000000
00000000
00100000
00000000
,
10000000
00000000
10000000
01000000
00000000
01000000
00010000
00000000
,
00010000
00001000
00000000
00001000
00000100
00000000
00000001
00000000
,
00000010
00000000
00000010
00000100
00000000
00000100
00010000
00000000
,
00010000
00001000
00000000
00001000
01000000
00010000
01000000
00100000
,
01000000
00000000
01000000
00010000
00000000
00010000
10000000
00000000
,
10000000
01000000
00000000
01000000
00100000
00010000
00100000
00001000
,
00100000
00000000
00100000
00001000
00000000
00001000
00010000
00000000
,
00010000
00000010
00000000
00000010
00000100
00001000
00000100
00000001
,
00000100
00000000
00000100
00000010
00000000
00000010
00010000
00000000
,
00010000
00000000
00001000
00000000
00010000
00000000
00001000
00000000
01000000
00000000
00010000
00000000
01000000
00010000
01000000
00010000
,
20000000
00000000
00000000
00000000
,
32000000
00000000
00000000
00000000
,
03200000
00000000
00000000
00000000
,
00320000
00000000
00000000
00000000
,
00032000
00000000
00000000
00000000
,
00003200
00000000
00000000
00000000
,
00000320
00000000
00000000
00000000
,
00000031
00000000
00000000
00000000
00000100
00000000
00001000
00000000
00000000
00000000
00000100
00000000
00000001
00000000
00001000
00000001
,
00001000
00000000
00000100
00000000
00000010
00000000
00000000
00000000
00000001
00000000
00000000
00000100
00000000
00000000
00000010
00000000
,
00000000
00000000
00010000
00000000
00000000
00001000
00000000
00000000
01000000
00000000
00000000
00100000
00000000
00000000
10000000
00000000
,
00000000
00000000
00010000
00000000
01000000
00000000
00000000
00000000
00001000
00000000
00000000
00010000
00000000
00000000
00000100
00000000
,
00000000
00000000
00000010
00000000
00000000
00000001
00000000
00000000
00000100
00000000
00000000
00000001
00000000
00000000
00000010
00000000
,
00000000
00000000
00000100
00000000
00010000
00000000
00000000
00000000
00001000
00000000
00000000
01000000
00000000
00000000
00100000
00000000
,
00000000
00000000
10000000
00000000
00000000
01000000
00000000
00000000
00010000
00000000
00000000
01000000
00000000
00000000
10000000
00000000
,
00000000
00000000
00010000
00000000
01000000
00000000
00000000
00000000
00001000
00000000
00000000
00010000
00000000
00000000
00000100
00000000
,
00000000
00000000
00001000
00000000
00000000
00000010
00000000
00000000
00000100
00000000
00000000
00000001
00000000
00000000
00000010
00000000
,
00000000
00000000
00000100
00000000
00010000
00001000
00000000
00000000
01000000
00010000
00000000
10000000
00000000
00000000
01000000
00000000
,
00000000
00000000
00100000
00000000
00001000
00010000
00000000
00000000
00000100
00001000
00000000
00000010
00000000
00000000
00000100
00000000
,
00000000
00000000
00000001
00000000
00001000
00000100
00000000
00000000
00010000
00001000
00000000
01000000
00000000
00000000
00010000
00000000
,
00000000
00000000
00100000
00000000
01000000
10000000
00000000
00000000
01000000
00010000
00000000
00001000
00000000
00000000
00000100
00000000
,
00000000
00000000
00000010
00000000
00001000
00000001
00000000
00000000
00000010
00000100
00000000
00010000
00000000
00000000
00001000
00000000
,
00000000
00000000
01000000
00000000
00100000
10000000
00000000
00000000
00010000
01000000
00000000
00001000
00000000
00000000
00010000
00000000
,
00000000
00000000
00000100
00000000
00000010
00000001
00000000
00000000
00000010
00001000
00000000
00010000
00000000
00000000
01000000
00000000
,
00000000
00000000
10000000
00000000
00010000
01000000
00000000
00000000
00001000
00010000
00000000
00000010
00000000
00000000
00000100
00000000
,
00000002
00000000
00000100
00000200
00000000
00000000
00000003
00000000
,
00000320
00000000
00010000
00010030
00002000
00000000
01000000
00000000
,
00203000
00000000
01000000
01300000
20000000
00000000
01000000
00000000
,
30020000
00000000
00100000
00200000
00000000
00000000
00330000
00000000
,
20000000
00000000
01000000
02000000
00000000
00000000
30000000
00000000
,
03200000
00000000
00001000
00301000
00020000
00000000
00000100
00000000
,
00030020
00000000
00000100
00000130
00000002
00000000
00000100
00000000
,
00002003
00000000
00000010
00000020
00000000
00000000
00003030
00000000
,
00001001
00000000
00000000
00000000
00000000
00000000
00000001
00000000
00000010
00000000
00000100
00000000
00001000
00000000
00000000
00000100
00000000
00000000
00010000
00000000
00000000
00000000
00000000
00000000
,
00011000
00000000
00000000
00000000
00000000
00000000
01000000
00000000
00010000
00000000
00100000
00000000
01000000
00000000
00000000
10000000
00000000
00000000
00010000
00000000
00000000
00000000
00000000
00000000
,
10010000
00000000
00000000
00000000
00000000
00000000
10000000
00000000
01000000
00000000
00100000
00000000
00010000
00000000
00000000
01000000
00000000
00000000
00100000
00000000
00000000
00000000
00000000
00000000
,
01100000
00000000
00000000
00000000
00000000
00000000
01000000
00000000
00001000
00000000
00010000
00000000
00000100
00000000
00000000
00001000
00000000
00000000
00000010
00000000
00000000
00000000
00000000
00000000
,
00000110
00000000
00000000
00000000
00000000
00000000
00000100
00000000
00000001
00000000
00001000
00000000
00000100
00000000
00000000
00010000
00000000
00000000
00001000
00000000
00000000
00000000
00000000
00000000
,
01001000
00000000
00000000
00000000
00000000
00000000
01000000
00000000
00100000
00000000
10000000
00000000
01000000
00000000
00000000
00010000
00000000
00000000
00001000
00000000
00000000
00000000
00000000
00000000
,
00011000
00000000
00000000
00000000
00000000
00000000
00010000
00000000
00000010
00000000
00000100
00000000
00000001
00000000
00000000
00001000
00000000
00000000
00000100
00000000
00000000
00000000
00000000
00000000
,
00010100
00000000
00000000
00000000
00000000
00000000
00010000
00000000
00001000
00000000
00100000
00000000
01000000
00000000
00000000
10000000
00000000
00000000
00010000
00000000
00000000
00000000
00000000
00000000
,
01010000
00000000
01000000
00000000
00100000
10000000
00100000
00000000
10000000
00010000
10000000
00000000
00010000
01000000
00010000
00000000
,
01000000
00000000
00001000
00000000
00010000
00000100
00010000
00000000
00000100
00001000
00000100
00000000
00001000
00000010
00001000
00000000
,
00000010
00000000
00000100
00000000
00000001
00001000
00000001
00000000
00001000
00000100
00001000
00000000
00000100
00000010
00000100
00000000
,
00000010
00000000
00000001
00000000
00001000
00000010
00001000
00000010
00001000
00000000
00000001
00000000
00000100
00000000
00001000
00000000
,
00010000
00000000
00100000
00000000
10000000
00010000
10000000
00000000
00010000
01000000
00010000
00000000
01000000
00100000
01000000
00000000
,
00100000
00000000
10000000
00000000
01000000
00100000
01000000
00000000
00100000
00001000
00100000
00000000
00001000
00010000
00001000
00000000
,
00010000
00000000
00000100
00000000
00000010
00000001
00000010
00000000
00000001
00001000
00000001
00000000
00001000
00000100
00001000
00000000
,
00000100
00000000
00010000
00000000
00001000
00010000
00001000
00010000
00001000
00000000
00010000
00000000
01000000
00000000
10000000
00000000
,
00010000
00000000
01000000
00000000
01100000
00000000
00100000
00000000
10000000
01000000
10000000
00000000
00010000
01000000
00010000
00000000
,
00100000
00000000
00001000
00000000
00011000
00000000
00010000
00000000
00000100
00001000
00000100
00000000
00001000
00000010
00001000
00000000
,
00000010
00000000
00000100
00000000
00000101
00000000
00000001
00000000
00001000
00000100
00001000
00000000
00000100
00000010
00000100
00000000
,
00000010
00000000
00000001
00000000
00000100
00000010
00000100
00000010
00000100
00000000
00001000
00000000
00010000
00000000
01000000
00000000
,
10000000
00000000
00010000
00000000
01010000
00000000
01000000
00000000
00100000
10000000
00100000
00000000
01000000
00010000
01000000
00000000
,
00010000
00000000
00100000
00000000
00101000
00000000
00001000
00000000
00010000
00000010
00010000
00000000
00000010
00000100
00000010
00000000
,
00000100
00000000
00000001
00000000
00001001
00000000
00001000
00000000
00000100
00010000
00000100
00000000
00010000
00001000
00010000
00000000
,
00001000
00000000
01000000
00000000
00100000
10000000
00100000
10000000
00100000
00000000
01000000
00000000
00001000
00000000
00000100
00000000
,
00000010
00000000
00001000
00000000
00000100
00000010
00000000
00000000
00000001
00000100
00000000
00001000
00000000
00000000
00010000
00000000
,
00100000
00000000
10000000
00000000
00010000
00100000
00000000
00000000
01000000
10000000
00000000
00010000
00000000
00000000
01000000
00000000
,
00001000
00000000
00010000
00000000
00000100
00001000
00000000
00000000
00000010
00000100
00000000
00000001
00000000
00000000
00000010
00000000
,
00000100
00000000
00010000
00000000
00001000
01000000
00000000
00000000
00010000
00100000
00000000
01000000
00000000
00000000
10000000
00000000
,
00010000
00000000
01000000
00000000
00100000
01000000
00000000
00000000
00010000
00100000
00000000
00001000
00000000
00000000
00010000
00000000
,
00000100
00000000
00001000
00000000
00000010
00000100
00000000
00000000
00000001
00000010
00000000
00000100
00000000
00000000
00010000
00000000
,
00001000
00000000
01000000
00000000
00100000
10000000
00000000
00000000
01000000
00010000
00000000
00001000
00000000
00000000
00000100
00000000
,
00000010
00000000
00001000
00000000
00000001
00000010
00000000
00000010
00000100
00000000
00000100
00010000
00000000
00010000
00001000
00000000
,
02000000
00000000
00000000
00000000
,
03200000
00000000
00000000
00000000
,
20300000
00000000
00000000
00000000
,
30020000
00000000
00000000
00000000
,
00032000
00000000
00000000
00000000
,
00003002
00000000
00000000
00000000
,
00000203
00000000
00000000
00000000
,
00000320
00000000
00000000
00000000
,
00010030
00000000
00000000
00000000
;

//---------------dance-double - ----------------
#NOTES:
     dance-double:
     :
     Medium:
     10:
     0.465,0.555,0.216,0.200,0.000:
00000000
00000000
00000000
00000000
,
00000000
00000000
00000000
00000000
,
00000000
00000000
00000000
00000000
,
00000000
00000000
00000000
00000000
,
00001000
00000000
00000000
00010000
00000000
00000000
00001000
00000000
,
00000000
00010000
00000000
00000000
00001000
00000000
01000000
00000000
,
00100000
00000000
00000000
01000000
00000000
00000000
00100000
00000000
,
00000000
01000000
00000000
00000000
00100000
00000000
10000000
00000000
,
00010000
00000000
00000000
10000000
00000000
00000000
00010000
00000000
,
00000000
10000000
00000000
00000000
00010000
00000000
10000000
00000000
,
01000000
00000000
00000000
00100000
00000000
00000000
01000000
00000000
,
00000000
00100000
00000000
00000000
01000000
00000000
00100000
00000000
,
00001000
00000000
00000000
00010000
00000000
00000000
00001000
00000000
,
00000000
00010000
00000000
00000000
00001000
00000000
00010000
00000000
,
00000100
00000000
00000000
00001000
00000000
00000000
00000100
00000000
,
00000000
00001000
00000000
00000000
00000100
00000000
00001000
00000000
,
00000001
00000001
00000001
00000001
,
00000100
00000000
00000100
00000000
00000100
00000010
00000100
00000010
,
00010000
00010000
00010000
00010000
,
00001000
00000000
00001000
00000000
00001000
01000000
00001000
01000000
,
00010000
00010000
00010000
00010000
,
10000000
00000000
10000000
00000000
10000000
01000000
10000000
01000000
,
00100000
00100000
00100000
00100000
,
00001000
00000000
00001000
00000000
00001000
00010000
00001000
00010000
,
00000200
00000000
00000000
00000000
,
00000320
00000000
00000000
00000000
,
00000032
00000000
00000000
00000000
,
00000203
00000000
00000000
00000000
,
00002300
00000000
00000000
00000000
,
00023000
00000000
00000000
00000000
,
00230000
00000000
00000000
00000000
,
10300000
00000000
00010000
00000000
10000000
00010000
01000000
00000000
,
00100000
00000000
10000000
00000000
01000000
10000000
00100000
00000000
,
01000000
00000000
00010000
00000000
00100000
00001000
00010000
00000000
,
00000100
00000000
00001000
00000000
00000010
00000100
00000001
00000000
,
00001000
00000000
00000001
00000000
00000010
00000100
00001000
00000000
,
00000100
00000000
00010000
00000000
00001000
01000000
00001000
00000000
,
00100000
00000000
01000000
00000000
10000000
00010000
01000000
00000000
,
00100000
00000000
01000000
00000000
00010000
10000000
01000000
00000000
,
00100000
00000000
00001000
00000000
00010000
00000100
00010000
00000000
,
00000100
00000000
00001000
00000000
00000010
00000100
00000001
00000000
,
00001000
00000000
00000100
00000000
00010000
00001000
01000000
00000000
,
00010000
00000000
00100000
00000000
01000000
10000000
00010000
00000000
,
01000000
00000000
00100000
00000000
10000000
01000000
00010000
00000000
,
00001000
00000000
00010000
00000000
00001000
00000100
00000010
00000000
,
00001000
00000000
00000001
00000000
00000010
00000100
00001000
00000000
,
00000100
00000000
00000001
00000000
00000100
00001000
00000010
00000000
,
00000100
00000000
00001000
00000000
00010000
00100000
01000000
00000000
,
00020000
00000000
00000000
00000000
,
20030000
00000000
00000000
00000000
,
32000000
00000000
03200000
00000000
,
00320000
00000000
00000000
00000000
,
00032000
00000000
00000000
00000000
,
00003200
00000000
00000320
00000000
,
00000032
00000000
00002003
00000000
,
00003002
00000000
00000000
00000000
,
00000103
00000110
00001001
00000110
,
00000010
00010010
00011000
00010010
,
00001000
01001000
01010000
01001000
,
00100000
01100000
11000000
01100000
,
00010000
01010000
00110000
01010000
,
00001000
00011000
00010100
00011000
,
00000010
00000110
00000101
00000110
,
00001000
00001100
00001001
00001100
,
00000001
00000100
00000010
00000000
00000100
00000100
00000010
00000000
,
00001000
00000100
00010000
00000000
00001000
00001000
01000000
00000000
,
00010000
00100000
01000000
00000000
10000000
10000000
00100000
00000000
,
01000000
00010000
00100000
00000000
00001000
00001000
00010000
00000000
,
00000100
00001000
00000010
00000000
00000100
00000100
00000001
00000000
,
00001000
00000100
00010000
00000000
00001000
00001000
01000000
00000000
,
00010000
00100000
01000000
00000000
10000000
10000000
00010000
00000000
,
10000000
01000000
00100000
00000000
00001000
00001000
00010000
00000000
,
00000100
00001000
00000010
00000100
00000001
00000001
00001000
00000000
,
00000001
00000100
00000010
00010000
00001000
00001000
01000000
00000000
,
00010000
00100000
01000000
10000000
00100000
00100000
10000000
00000000
,
01000000
00100000
00001000
00010000
00000100
00000100
00001000
00000000
,
00000010
00000100
00000001
00000100
00001000
00001000
00010000
00000000
,
01000000
10000000
00010000
10000000
00100000
00100000
01000000
00000000
,
00001000
00010000
00000100
00001000
00000010
00000010
00000100
00000000
,
00000001
00000010
00001000
00000010
00000100
00000100
00010000
00000000
,
00001000
01000000
00010000
00000000
01000000
00010000
00100000
00000000
,
01000000
10000000
00010000
00000000
01000000
00000000
01100000
00000000
,
00100000
10000000
01000000
00000000
00100000
00001000
00010000
00000000
,
00000100
00001000
00000010
00000000
00000100
00000000
00000101
00000000
,
00000001
00000010
00000100
00000000
00010000
00000100
00001000
00000000
,
00000010
00000100
00000001
00000000
00001000
00000000
00001100
00000000
,
00000100
00010000
00001000
00000000
01000000
00010000
00100000
00000000
,
01000000
10000000
00010000
00000000
01000000
00000000
01100000
00000000
,
00200000
00000000
00000000
00000000
,
20300000
00000000
00000000
00000000
,
32000000
00000000
00000000
00000000
,
03020000
00000000
00000000
00000000
,
00032000
00000000
00000000
00000000
,
00003200
00000000
00000000
00000000
,
00000302
00000000
00000000
00000000
,
00000023
00000000
00000000
00000000
,
00000130
00000000
00000000
00000000
;

//---------------dance-double - ----------------
#NOTES:
     dance-double:
     :
     Easy:
     6:
     0.262,0.333,0.000,0.154,0.000:
00000000
00000000
00000000
00000000
,
00000000
00000000
00000000
00000000
,
00000000
00000000
00000000
00000000
,
00000000
00000000
00000000
00000000
,
00000001
00000000
00000000
00000100
,
00000000
00000000
00000010
00000000
,
00001000
00000000
00000000
00000100
,
00000000
00000000
00010000
00000000
,
00001000
00000000
00000000
01000000
,
00000000
00000000
00100000
00000000
,
10000000
00000000
00000000
01000000
,
00000000
00000000
00100000
00000000
,
00010000
00000000
00000000
00001000
,
00000000
00000000
00000100
00000000
,
00000010
00000000
00000000
00000001
,
00000000
00000000
00000100
00000000
,
00001000
00000000
00001000
00000000
,
00010000
00000000
00010000
00000000
,
00100000
00000000
00100000
00000000
,
10000000
00000000
10000000
00000000
,
00010000
00000000
00100000
00000000
,
01000000
00000000
10000000
00000000
,
01000000
00000000
00100000
00000000
,
00001000
00000000
00010000
00000000
,
00000200
00000000
00000300
00000000
,
00000020
00000000
00000030
00000000
,
00000002
00000000
00000003
00000000
,
00000200
00000000
00000300
00000000
,
00002000
00000000
00003000
00000000
,
00020000
00000000
00030000
00000000
,
02000000
00000000
03000000
00000000
,
10000000
00010000
00000000
00010000
,
01000000
00001000
00010000
00000000
,
00001000
00010000
00000100
00000000
,
00001000
00000010
00000100
00000000
,
00000001
00000010
00000100
00000000
,
00000010
00000001
00000100
00000000
,
00000010
00001000
00000100
00000000
,
00010000
00001000
01000000
00000000
,
00010000
00100000
01000000
00000000
,
10000000
00100000
01000000
00000000
,
00010000
00100000
00001000
00000000
,
00010000
00000100
00001000
00000000
,
00000010
00000100
00000001
00000000
,
00000010
00000100
00010000
00000000
,
00001000
00100000
01000000
00000000
,
10000000
00100000
01000000
00000000
,
00001000
00010000
00000100
00000000
,
00000020
00000000
00000030
00000000
,
00000002
00000000
00000003
00000000
,
00000100
00000000
00000010
00000000
,
00020000
00000000
00030000
00000000
,
00002000
00000000
00003000
00000000
,
01000000
00000000
00100000
00000000
,
10000000
00000000
01000000
00000000
,
00200000
00000000
00300000
00000000
,
00001000
00010000
00010000
00010000
,
00000000
00000100
00000100
00000100
,
00000000
00000010
00000010
00000010
,
00000000
00000001
00000001
00000001
,
00000000
00000100
00000100
00000100
,
00000000
00000010
00000010
00000010
,
00000000
00010000
00010000
00010000
,
00000000
00001000
00001000
00001000
,
01000000
00100000
10000000
00100000
,
00000000
01000000
00010000
01000000
,
00000000
00010000
00100000
00001000
,
00000000
00001000
00010000
00000100
,
00000000
00000010
00000001
00000010
,
00000000
00000100
00001000
00000100
,
00000000
00010000
00001000
00100000
,
00000000
00100000
01000000
10000000
,
00010000
01000000
00100000
01000000
,
00010000
00100000
01000000
00100000
,
00001000
00010000
00000100
00000010
,
00000001
00000010
00000100
00001000
,
00000001
00000100
00000010
00000100
,
00000001
00001000
00000100
00001000
,
00000010
00010000
00001000
00100000
,
00010000
00100000
01000000
10000000
,
00010000
01000000
00100000
00000000
,
10000000
01000000
00100000
00000000
,
00001000
00010000
00000100
00000000
,
00001000
00000010
00000100
00000000
,
00000001
00000010
00001000
00000000
,
00010000
01000000
10000000
00000000
,
10000000
01000000
00010000
00000000
,
00001000
00000100
00000001
00000000
,
00002000
00000000
00003000
00000000
,
00000200
00000000
00000300
00000000
,
00020000
00000000
00030000
00000000
,
00002000
00000000
00003000
00000000
,
02000000
00000000
03000000
00000000
,
00020000
00000000
00030000
00000000
,
00200000
00000000
00300000
00000000
,
02000000
00000000
03000000
00000000
,
10000000
00000000
00000000
00000000
;

//---------------dance-single - ----------------
#NOTES:
     dance-single:
     :
     Beginner:
     2:
     0.138,0.185,0.000,0.123,0.000: // measure 1
0000
0000
0000
0000
,  // measure 2
0000
0000
0000
0000
,  // measure 3
0000
0000
0000
0000
,  // measure 4
0000
0000
0000
0000
,  // measure 5
0000
0000
0000
0000
,  // measure 6
0000
0000
0000
0000
,  // measure 7
0000
0000
0000
0000
,  // measure 8
0000
0000
0000
0000
,  // measure 9
1000
0000
0000
0000
,  // measure 10
1000
0000
0000
0000
,  // measure 11
0001
0000
0000
0000
,  // measure 12
0001
0000
0000
0000
,  // measure 13
0100
0000
0000
0000
,  // measure 14
0100
0000
0000
0000
,  // measure 15
0010
0000
0000
0000
,  // measure 16
0010
0000
0000
0000
,  // measure 17
0100
0000
0000
0000
,  // measure 18
0001
0000
0000
0000
,  // measure 19
0010
0000
0000
0000
,  // measure 20
1000
0000
0000
0000
,  // measure 21
0001
0000
0000
0000
,  // measure 22
0010
0000
0000
0000
,  // measure 23
1000
0000
0000
0000
,  // measure 24
0001
0000
0000
0000
,  // measure 25
0200
0000
0000
0000
,  // measure 26
0000
0000
0000
0000
,  // measure 27
0000
0000
0000
0000
,  // measure 28
0000
0000
0300
0000
,  // measure 29
0020
0000
0000
0000
,  // measure 30
0000
0000
0000
0000
,  // measure 31
0000
0000
0000
0000
,  // measure 32
0000
0000
0030
0000
,  // measure 33
1000
0000
1000
0000
,  // measure 34
0001
0000
0000
0000
,  // measure 35
0100
0000
0100
0000
,  // measure 36
0010
0000
0000
0000
,  // measure 37
0100
0000
0100
0000
,  // measure 38
0001
0000
0000
0000
,  // measure 39
1000
0000
1000
0000
,  // measure 40
0100
0000
0000
0000
,  // measure 41
0001
0000
0001
0000
,  // measure 42
0100
0000
0100
0000
,  // measure 43
0010
0000
0010
0000
,  // measure 44
1000
0000
1000
0000
,  // measure 45
0001
0000
0001
0000
,  // measure 46
0010
0000
0010
0000
,  // measure 47
0100
0000
0100
0000
,  // measure 48
1000
0000
1000
0000
,  // measure 49
0002
0000
0000
0000
,  // measure 50
0003
0000
0000
0000
,  // measure 51
1000
0000
1000
0000
,  // measure 52
2000
0000
3000
0000
,  // measure 53
0020
0000
0000
0000
,  // measure 54
0030
0000
0000
0000
,  // measure 55
0100
0000
0100
0000
,  // measure 56
0200
0000
0300
0000
,  // measure 57
2000
3000
0000
0000
,  // measure 58
0200
0300
0000
0000
,  // measure 59
0020
0030
0000
0000
,  // measure 60
0002
0003
0000
0000
,  // measure 61
2000
3000
0000
0000
,  // measure 62
0020
0030
0000
0000
,  // measure 63
0200
0300
0000
0000
,  // measure 64
0002
0003
0000
0000
,  // measure 65
0000
0001
0000
0001
,  // measure 66
0000
1000
0000
1000
,  // measure 67
0000
0001
0000
0001
,  // measure 68
0000
1000
0000
1000
,  // measure 69
0000
0001
0000
0001
,  // measure 70
0000
1000
0000
1000
,  // measure 71
0000
0001
0000
0001
,  // measure 72
0000
1000
0000
1000
,  // measure 73
0000
0100
0000
0100
,  // measure 74
0000
0010
0000
0010
,  // measure 75
0000
0001
0000
0001
,  // measure 76
0000
1000
0000
1000
,  // measure 77
0000
0010
0000
0010
,  // measure 78
0000
0100
0000
0100
,  // measure 79
0000
0001
0000
0001
,  // measure 80
0000
1000
0000
1000
,  // measure 81
1000
0000
1000
0000
,  // measure 82
1000
0000
0000
0000
,  // measure 83
0001
0000
0001
0000
,  // measure 84
0001
0000
0000
0000
,  // measure 85
0100
0000
0100
0000
,  // measure 86
0100
0000
0000
0000
,  // measure 87
0010
0000
0010
0000
,  // measure 88
0010
0000
0000
0000
,  // measure 89
2000
0000
0000
0000
,  // measure 90
0000
0000
0000
0000
,  // measure 91
0000
0000
0000
0000
,  // measure 92
0000
0000
3000
0000
,  // measure 93
0002
0000
0000
0000
,  // measure 94
0000
0000
0000
0000
,  // measure 95
0000
0000
0000
0000
,  // measure 96
0000
0000
0003
0000
,  // measure 97
1000
0000
0000
0000
;
