#TITLE:The Smile of You;
#SUBTITLE:;
#ARTIST:猫叉Master feat. JESSY;
#TITLETRANSLIT:;
#SUBTITLETRANSLIT:;
#ARTISTTRANSLIT:Nekomata Master feat. JESSY;
#GENRE:;
#CREDIT:Silverhawke;
#MENUCOLOR:;
#METERTYPE:DDR;
#BANNER:The Smile of You.png;
#BACKGROUND:The Smile of You-bg.png;
#LYRICSPATH:;
#CDTITLE:cdtitle.png;
#MUSIC:The Smile of You.mp3;
#OFFSET:-0.028;
#SAMPLESTART:98.823;
#SAMPLELENGTH:15.000;
#SELECTABLE:YES;
#LISTSORT:;
#BPMS:0.000=136.000;
#STOPS:;
#BGCHANGES:0.000=The Smile of You.avi=1.000=1=1=0,
99999=-nosongbg-=1.000=0=0=0 // don't automatically add -songbackground-
;
#ATTACKS:;

//---------------dance-single - ----------------
#NOTES:
     dance-single:
     :
     Hard:
     10:
     0.528,0.471,0.428,0.407,0.000:
0000
0000
0000
0000
,
0000
0000
0000
0000
,
0000
0000
0000
0000
,
0000
0000
0000
0000
,
0010
0000
0100
0001
0011
0000
1100
1000
,
0010
0100
0001
0010
0000
0100
1002
0000
,
0100
0100
0100
0103
,
0100
0010
1000
0001
0010
1000
0010
0001
,
0101
0000
1000
0010
0110
0000
1001
0000
,
0011
0000
0100
1000
1010
0000
0101
0000
,
0110
0000
0010
1000
1100
0000
0011
0000
,
0101
0000
0001
0010
0110
0000
1001
0000
,
1100
0000
0100
1000
1010
0000
0101
0001
,
1000
0100
0010
0001
0000
1000
0120
0000
,
1000
0000
1000
0000
1000
0000
1030
0001
,
0010
0100
1000
0001
0101
0000
1100
0000
,
1002
0000
0013
0100
1000
0000
0110
0000
,
2001
0000
3010
0100
0001
0000
1001
0000
,
1000
0100
0001
0200
1000
0000
0310
0000
,
0001
0100
0010
0100
1000
0100
0010
0100
,
0001
0010
0100
2000
0001
0000
3010
0100
,
0102
0013
2100
3010
,
0120
0000
1030
0001
0010
0000
0100
0000
,
0120
0000
0031
0100
0010
0000
1000
0000
,
0001
0100
1000
0200
0001
0000
0310
1000
,
0100
0001
0100
0010
0001
0100
1000
0100
,
0010
1000
0100
2000
0010
0000
3001
0010
,
0210
1300
0210
0301
,
2000
0000
3001
0100
1000
0000
0100
0010
,
0120
2030
3002
0023
,
0230
0000
1300
0010
0100
0000
1000
0100
,
0001
0100
0010
1000
0000
0001
0010
0100
,
2000
0000
3010
0100
0001
0000
0010
0100
,
2000
0000
3001
0100
0020
0000
1030
0100
,
0000
0100
1000
0001
0000
0100
0010
1000
,
0000
0001
0100
0100
0000
0010
0100
0001
,
1001
1000
0100
0010
0002
0000
0103
0000
,
0010
1000
0100
0010
0200
0000
1300
0000
,
0001
0100
0010
0200
0001
0000
0310
1000
,
0100
0010
0001
1000
0010
0000
0110
1000
,
0001
0100
0010
2000
0100
0000
3010
0100
,
0002
0000
0013
0100
2000
0000
3010
0000
,
0101
0001
0010
0100
2000
0000
3010
0000
,
0100
0001
0010
0001
0200
0000
0310
0000
,
1000
0100
0010
0200
1000
0000
0310
0001
,
0100
1000
0100
0010
1000
0100
0001
0100
,
0010
0001
1000
0100
0020
0000
0031
0100
,
0020
0000
1030
0001
0020
0000
0130
0000
,
1100
0000
0101
0000
1100
0000
0010
1000
,
0002
0023
0230
2300
,
3020
0000
0100
0000
0100
0000
0130
0001
,
1000
0001
0010
0100
0000
1001
0000
0000
,
0120
0000
1000
0000
1030
0000
0001
0010
,
0200
0000
1300
0010
0200
0000
0300
1001
,
0000
0001
0100
1000
0000
0001
0010
1000
,
0000
0010
1000
0100
0010
0001
1000
0100
,
1100
0000
0101
0000
2200
0000
3300
0001
,
0100
1000
0100
0001
0010
0100
1000
0000
,
0101
1100
0202
0303
,
1000
0100
0001
0100
1000
0000
0010
0000
,
0200
0000
0301
0010
0200
0000
1300
0000
,
0010
0100
0001
0010
0100
1000
0100
0010
,
0002
0000
1003
0010
0100
0000
1001
0000
,
0011
1010
1100
0101
,
1010
0000
0011
0000
2020
0000
3030
0001
,
0010
1000
0010
0001
0100
0010
1000
0000
,
0011
1010
0022
0033
,
1000
0010
0001
0010
1000
0000
0100
0000
,
0020
0000
0031
0100
0020
0000
1030
0000
,
0100
0010
0001
0100
0010
1000
0010
0100
,
0001
1000
0100
0000
0001
1000
0100
0000
,
0001
1000
0100
0010
1000
0010
0001
0100
,
1001
0000
0000
0000
;

//---------------dance-single - ----------------
#NOTES:
     dance-single:
     :
     Medium:
     6:
     0.272,0.314,0.174,0.123,0.000: // measure 1
0000
0000
0000
0000
,  // measure 2
0000
0000
0000
0000
,  // measure 3
0000
0000
0000
0000
,  // measure 4
0000
0000
0000
0000
,  // measure 5
1100
0000
0101
0000
,  // measure 6
1000
0001
1000
0001
0000
0010
0100
0000
,  // measure 7
0000
1000
0000
1000
,  // measure 8
0001
0010
0100
1000
,  // measure 9
1010
0000
0011
0000
,  // measure 10
0101
0000
1100
0000
,  // measure 11
1001
0000
0110
0000
,  // measure 12
1000
0000
0100
0000
,  // measure 13
0011
0000
1010
0000
,  // measure 14
0001
1000
0001
1000
0000
0010
0100
0000
,  // measure 15
0000
0001
0000
0001
,  // measure 16
1000
0100
0010
0001
,  // measure 17
1000
0000
0100
0000
,  // measure 18
0010
0000
0001
0000
,  // measure 19
0100
0000
0010
1000
0000
0000
0000
0000
,  // measure 20
0100
0100
0010
0010
,  // measure 21
1000
0000
0100
0010
0000
0000
0001
0000
,  // measure 22
2000
3000
0002
0003
,  // measure 23
1000
0000
0010
0000
,  // measure 24
0100
0000
0001
0000
,  // measure 25
0010
0000
0100
1000
0000
0000
0000
0000
,  // measure 26
0010
0010
0100
0100
,  // measure 27
1000
0000
0001
0100
0000
0000
0010
0000
,  // measure 28
2000
3000
0002
0003
,  // measure 29
0100
0100
0110
0000
,  // measure 30
0001
0010
0100
1000
,  // measure 31
2002
0000
3003
1000
,  // measure 32
0001
0010
0000
0100
0000
0100
0000
0000
,  // measure 33
2000
3000
0100
0010
,  // measure 34
0002
0000
0003
0000
0100
0000
0000
1001
,  // measure 35
0000
0000
0000
0000
0100
0000
0010
1000
,  // measure 36
0000
0001
0010
0110
,  // measure 37
1000
0100
1000
0001
,  // measure 38
0100
0010
0100
0100
,  // measure 39
0001
0000
1000
0100
0000
0000
0000
0000
,  // measure 40
0001
0000
1000
0100
0000
0000
0000
0000
,  // measure 41
1000
0000
0001
0100
0000
0000
0010
0000
,  // measure 42
1000
0001
0010
0110
,  // measure 43
0001
0100
0001
1000
,  // measure 44
0100
0010
0100
0100
,  // measure 45
1000
0000
0001
0100
0000
0000
0000
0000
,  // measure 46
1000
0000
0001
0100
0010
0000
0100
0000
,  // measure 47
0001
0000
1000
0100
0000
0000
0010
0000
,  // measure 48
0001
1000
0010
0110
,  // measure 49
1000
1000
2000
3000
,  // measure 50
0001
0100
0010
1000
,  // measure 51
0002
0000
0003
1000
,  // measure 52
0100
0010
0000
0010
0000
0010
0000
0000
,  // measure 53
2002
0000
3003
0001
,  // measure 54
0200
0000
0300
0000
0010
0000
0000
1001
,  // measure 55
0000
1000
0000
1000
,  // measure 56
0000
0001
0100
0010
,  // measure 57
1000
0100
1100
0000
,  // measure 58
0001
0010
1000
0010
,  // measure 59
0001
0100
0101
0000
,  // measure 60
1000
0010
0001
0010
,  // measure 61
2000
3000
0200
0300
,  // measure 62
0010
0001
0100
0000
,  // measure 63
0010
1000
0001
1001
,  // measure 64
1000
1000
0010
0100
,  // measure 65
0001
0010
0011
0000
,  // measure 66
1000
0100
0001
0100
,  // measure 67
1000
0010
1010
0000
,  // measure 68
0001
0100
1000
0100
,  // measure 69
0002
0003
0020
0030
,  // measure 70
0100
1000
0010
0000
,  // measure 71
0100
0001
0100
0001
,  // measure 72
1000
0100
0010
0000
0001
0010
0100
0000
,  // measure 73
1001
0000
0000
0000
;

//---------------dance-single - ----------------
#NOTES:
     dance-single:
     :
     Easy:
     4:
     0.184,0.209,0.022,0.000,0.000: // measure 1
0000
0000
0000
0000
,  // measure 2
0000
0000
0000
0000
,  // measure 3
0000
0000
0000
0000
,  // measure 4
0000
0000
0000
0000
,  // measure 5
0001
0000
1000
0000
,  // measure 6
0010
0100
0000
0100
,  // measure 7
0000
0100
0000
0100
,  // measure 8
0001
0000
1000
0100
,  // measure 9
0010
0000
0001
0000
,  // measure 10
1000
0000
0010
0000
,  // measure 11
0001
0000
0100
0000
,  // measure 12
1000
0000
0001
0000
,  // measure 13
0100
0000
0010
0000
,  // measure 14
1000
0100
0000
0100
,  // measure 15
0000
0100
0000
0100
,  // measure 16
0010
0001
1000
0001
,  // measure 17
0100
0000
0010
0000
,  // measure 18
0100
0000
0001
0000
,  // measure 19
1000
0100
0100
0000
,  // measure 20
0010
0001
1000
0000
,  // measure 21
0001
0100
0100
0000
,  // measure 22
0010
1000
0001
0000
,  // measure 23
1000
0000
0100
0000
,  // measure 24
0010
0000
0001
0000
,  // measure 25
0100
0010
0010
0000
,  // measure 26
1000
0001
0100
0001
,  // measure 27
1000
0100
0100
0000
,  // measure 28
0010
0000
0001
0000
,  // measure 29
0100
0100
0100
0000
,  // measure 30
0001
1000
0001
0000
,  // measure 31
1000
0000
0100
0000
,  // measure 32
0010
0000
0001
0000
,  // measure 33
1000
0010
1000
0000
,  // measure 34
0001
0010
0001
0000
,  // measure 35
1000
0000
0001
0000
,  // measure 36
1001
0000
0000
0000
,  // measure 37
0100
0000
0010
0000
,  // measure 38
0100
0000
1000
0000
,  // measure 39
0001
0100
0100
0000
,  // measure 40
0010
1000
0001
0000
,  // measure 41
1000
0100
0100
0000
,  // measure 42
0010
0001
1000
0000
,  // measure 43
0001
0000
0100
0000
,  // measure 44
0010
0000
1000
0000
,  // measure 45
0100
0010
0010
0000
,  // measure 46
0001
1000
0100
1000
,  // measure 47
0001
0100
0100
0000
,  // measure 48
0010
0000
1000
0000
,  // measure 49
0100
0100
0100
0000
,  // measure 50
1000
0001
1000
0000
,  // measure 51
0001
0000
0100
0000
,  // measure 52
0010
0000
1000
0000
,  // measure 53
0001
0010
0001
0000
,  // measure 54
1000
0010
1000
0000
,  // measure 55
1001
0000
0000
0000
,  // measure 56
0100
0000
0100
0000
,  // measure 57
0001
0001
0001
0000
,  // measure 58
1000
0100
0010
0000
,  // measure 59
1000
1000
1000
0000
,  // measure 60
0001
0100
0010
0000
,  // measure 61
1000
0000
0001
0000
,  // measure 62
0100
0000
0010
0000
,  // measure 63
1000
0000
0100
0000
,  // measure 64
0001
0010
1000
0000
,  // measure 65
0001
0001
0001
0000
,  // measure 66
1000
0010
0100
0000
,  // measure 67
1000
1000
1000
0000
,  // measure 68
0001
0010
0100
0000
,  // measure 69
0001
0000
1000
0000
,  // measure 70
0100
0000
0010
0000
,  // measure 71
0001
0000
0100
0000
,  // measure 72
1000
0010
0001
0000
,  // measure 73
1001
0000
0000
0000
;

//---------------dance-double - ----------------
#NOTES:
     dance-double:
     :
     Hard:
     10:
     0.426,0.418,0.254,0.211,0.000:
00000000
00000000
00000000
00000000
,
00000000
00000000
00000000
00000000
,
00000000
00000000
00000000
00000000
,
00000000
00000000
00000000
00000000
,
00011000
00000000
00010010
00000000
,
00000010
00001000
00000001
00000010
00000000
00000010
00000001
00000000
,
00001000
00000001
00001000
00000001
,
00000010
00000100
00010000
00001000
00100000
01000000
10000000
00100000
,
01000000
00010000
01010000
01000000
,
00001000
00010000
00010010
00000010
,
00001000
00000100
00000110
00000010
,
00000011
00000001
00001001
00001010
,
00000010
00010000
00011000
00001000
,
00100000
01000000
10000000
00100000
00000000
00100000
01000000
00000000
,
00010000
00000000
00100000
00000000
00001000
00000000
00010000
00000010
,
00000100
00000010
00001000
00000100
00000010
00000000
00001001
00000000
,
00000002
00000013
00002000
00003010
,
00000200
00010300
00002000
00103000
,
00010000
01000000
00100000
10000000
00010000
00000000
10010000
00000000
,
10000000
00100000
01000000
00000000
00010000
00100000
00001000
00000000
,
00010000
00000010
00001000
00000100
00000010
00000000
00000001
00000000
,
00002000
00003020
00000230
00000300
,
00000002
00000013
00002000
00013000
,
00200000
10300000
02000000
03100000
,
00001000
00010000
00000010
00001000
00000100
00000000
00000010
00000000
,
00000001
00000010
00000100
00000000
00001000
00010000
00100000
00000000
,
01000000
10000000
00100000
01000000
00010000
00000000
00100000
00000000
,
00002000
00023000
00030020
00000030
,
00001000
00000001
00000022
00000033
,
00000100
00001000
00000010
00010000
,
00001000
00000000
00100000
00000000
00010000
00000000
01000000
00100000
,
10000000
00010000
00000000
00100000
00000000
02000000
00000000
03000000
,
10000000
00000000
10000000
00000000
00100000
00000000
01000000
00010000
,
00100000
00000000
00001000
00010000
00000010
00000000
00001000
00000001
,
00000000
00000010
00000100
00000010
00000000
00000001
00001000
00000010
,
00000000
00000100
00000001
00000100
00000000
00000010
00001000
00001000
,
00000002
00000000
00000013
00000100
00010000
00000000
00001000
00000000
,
02000000
00000000
03100000
10000000
00010000
00000000
00100000
00000000
,
00001000
00010000
00000010
00000100
00000001
00000000
00000010
00000100
,
00010000
00001000
00010000
00000100
00000010
00000000
00000001
00000100
,
00000010
00000000
00010000
00001000
00100000
00000000
01000000
10000000
,
00100000
01000000
00010000
00100000
00001000
00000000
00011000
00000000
,
00020000
00000000
00030010
00001000
00000100
00000000
00000001
00000000
,
00000200
00000000
00001300
00000010
00010000
00000000
00100000
00000000
,
01000000
00010000
00100000
01000000
10000000
00000000
00100000
00010000
,
00001000
00000100
00000001
00000010
00000001
00000100
00001000
00010000
,
00001000
00000000
00001000
00010000
00000010
00000000
00001000
00000100
,
00000010
00000000
00000001
00001000
00000010
00000000
00000110
00000000
,
00000200
00000302
00002003
00003000
,
00000001
00000010
00001010
00011000
,
00010100
00000100
00010000
00001000
,
00000100
00000001
00000000
00001000
00000000
00000002
00000000
00000003
,
00000100
00000000
00001000
00000000
00010000
00000000
01000000
10000000
,
00010000
00000000
10000000
00100000
00010000
00000000
00001000
00011000
,
00000000
00010000
00000010
00000100
00000000
00000010
00000100
00000001
,
00000000
00000100
00000001
00001000
00000100
00000010
00000001
00000000
,
00000011
00001010
00000011
00000000
,
00000001
00000010
00001000
00010000
00001000
00000010
00000001
00000000
,
00000101
00001100
00000101
00000000
,
00000001
00000100
00001000
00010000
01000000
00000000
10000000
00000000
,
00200000
00000000
01300000
00010000
00100000
00000000
00001000
00010000
,
00000200
00000000
00001300
00000010
00000100
00000000
00000001
00000000
,
00000010
00000000
00001000
00010000
01000000
00000000
10000000
00000000
,
10100000
01010000
00110000
11000000
,
10100000
00110000
10100000
00000000
,
10000000
00100000
00010000
00001000
00010000
00100000
10000000
00000000
,
11000000
01010000
11000000
00000000
,
10000000
01000000
00010000
00001000
00000100
00000000
00000001
00000000
,
00000020
00000000
00000130
00001000
00000010
00000000
00010000
00001000
,
02000000
00000000
03010000
00100000
01000000
00000000
10000000
00000000
,
00100000
00010000
00001000
00000000
00000100
00001000
00010000
00000000
,
01000000
00010000
00001000
00000000
00000010
00000001
00000100
00000010
,
00001001
00000000
00000000
00000000
;

//---------------dance-double - ----------------
#NOTES:
     dance-double:
     :
     Medium:
     7:
     0.283,0.288,0.080,0.022,0.000:
00000000
00000000
00000000
00000000
,
00000000
00000000
00000000
00000000
,
00000000
00000000
00000000
00000000
,
00000000
00000000
00000000
00000000
,
00000001
00000000
00000010
00000000
,
00000100
00000000
00010000
00001000
00000000
00001000
00010000
00000000
,
00000000
00001000
00000000
00100000
,
01000000
00000000
10000000
00000000
00100000
01000000
00010000
00000000
,
10000000
00100000
00010000
00000000
,
00001000
00000100
00000001
00000000
,
00000001
00000010
00001000
00000000
,
00010000
01000000
10000000
00000000
,
10000000
00100000
00010000
00000000
,
00001000
00000000
00000010
00000001
00000000
00000001
00001000
00000000
,
00000001
00000100
00001000
00010000
,
00100000
01000000
00100000
00000000
01000000
00000000
01100000
00000000
,
10000000
01000000
00100000
00000000
,
00001000
00010000
00000010
00000000
,
00000100
00000001
00001000
00000010
00000000
00000000
00000000
00000000
,
00000100
00000100
00000010
00010000
,
00001000
00100000
00010000
00100000
00000000
00000000
01000000
00000000
,
10000000
00100000
02000000
03000000
,
00010000
00100000
00001000
00000000
,
00010000
00000010
00000100
00000000
,
00000001
00000010
00000100
00001000
00000000
00000000
00000000
00000000
,
00000010
00001000
00000010
00000000
00000100
00000000
00000001
00000000
,
00000010
00000100
00010000
00001000
00000000
00000000
00010000
00000000
,
00001000
00100000
01000000
10000000
,
00010000
00010000
00100000
00001000
,
00010000
00010000
00000010
00001000
,
00000002
00000000
00000003
00001000
,
00000001
00000010
00000000
00000010
00000000
00000010
00000000
00000000
,
00000100
00010000
00001000
00100000
,
00010000
00000000
01000000
00000000
00100000
00000000
00000000
10010000
,
00000000
00000000
00000000
00000000
00000000
10000000
00100000
10000000
,
00000000
00100000
00000000
00010000
,
00001000
00000010
00000001
00001000
,
00000010
00000100
00000001
00000010
,
00000100
00001000
00000100
00001000
00000000
00000000
00000000
00000000
,
00000001
00000010
00000001
00000010
00000000
00000000
00000000
00000000
,
00001000
00010000
00001000
00010000
00000000
00000000
00100000
00000000
,
01000000
00010000
10000000
10010000
,
00010000
00100000
00001000
00000000
,
00000010
00000001
00001000
00000000
,
00000010
00000100
00000010
00000100
00000000
00000000
00000000
00000000
,
00000001
00000010
00000001
00000000
00000010
00000000
00001000
00000000
,
00010000
00001000
00010000
00001000
00000000
00000000
00010000
00000000
,
00100000
01000000
00001000
00000000
,
00010000
00000010
00010010
00000000
,
00000010
00001000
00000001
00000010
,
00000200
00000000
00000300
00001000
,
00000001
00001000
00000000
00001000
00000000
00001000
00000000
00000000
,
00000010
00010000
00001000
00100000
,
01000000
00000000
10000000
00000000
00010000
00000000
01000000
00100000
,
00000000
10000000
00000000
10000000
,
00000000
00000000
00010000
00000000
10000000
00100000
10000000
00000000
,
00010000
00100000
00110000
00000000
,
00100000
00001000
00010000
00000000
00000010
00000000
00001000
00000000
,
00000001
00000010
00000011
00000000
,
00000100
00001000
00000001
00000000
00001000
00000000
00000010
00000000
,
00010000
00001000
00100000
01000000
,
10000000
00100000
01000000
00000000
00010000
00000000
00100000
00000000
,
00001000
00000010
00000001
00001000
,
00000010
00000010
00000100
00000110
,
00001000
00000010
00001010
00000000
,
00000010
00010000
00001000
00000000
00100000
00000000
00010000
00000000
,
10000000
00100000
10100000
00000000
,
01000000
00010000
10000000
00000000
00010000
00000000
00100000
00000000
,
00001000
00010000
00000010
00000100
,
00000001
00000010
00000100
00000000
00001000
00000000
00000010
00000000
,
00010000
00100000
10000000
00010000
,
00100000
00100000
01000000
01100000
,
10010000
00000000
00000000
00000000
;

//---------------dance-double - ----------------
#NOTES:
     dance-double:
     :
     Easy:
     4:
     0.175,0.209,0.007,0.000,0.000:
00000000
00000000
00000000
00000000
,
00000000
00000000
00000000
00000000
,
00000000
00000000
00000000
00000000
,
00000000
00000000
00000000
00000000
,
10000000
00000000
01000000
00000000
,
00100000
00010000
00000000
00010000
,
00000000
00010000
00000000
00010000
,
01000000
00001000
00010000
00000000
,
00000100
00000000
00001000
00000000
,
00000010
00000000
00000100
00000000
,
00000001
00000000
00000010
00000000
,
00000100
00000000
00010000
00000000
,
00001000
00000000
01000000
00000000
,
00010000
00100000
00000000
00100000
,
00000000
01000000
00000000
01000000
,
10000000
00010000
01000000
00001000
,
00010000
00000000
00000100
00000000
,
00001000
00000000
00000010
00000000
,
00000100
00000001
00000000
00000001
,
00001000
00000100
00000000
00000100
,
00010000
00000000
00001000
00000000
,
01000000
00010000
00100000
00000000
,
01000000
00000000
10000000
00000000
,
00010000
00000000
01000000
00000000
,
00001000
00010000
00000000
00010000
,
00000100
00000010
00000000
00000010
,
00000001
00000000
00000100
00000000
,
00001000
00000000
00010000
00000000
,
00100000
00000000
10000000
00000000
,
00010000
10000000
01000000
00000000
,
00100000
00000000
00001000
00000000
,
00010000
00000100
00000010
00000001
,
00001000
00000000
00000001
00000000
,
00000100
00000000
00001000
00000000
,
00010000
00000000
00100000
00000000
,
10000000
00000000
00000000
00000000
,
00010000
00000000
10000000
00000000
,
01000000
00000000
00010000
00000000
,
00001000
00000100
00000000
00000100
,
00000010
00001000
00000000
00001000
,
00000001
00000000
00000010
00000000
,
00000100
00000000
00010000
00000000
,
00001000
00000000
01000000
00000000
,
00010000
00000000
00100000
00000000
,
01000000
10000000
00000000
10000000
,
01000000
00010000
00000000
00001000
,
00000100
00000000
00000001
00000000
,
00001000
00000000
00000100
00000000
,
00000010
00000010
00000010
00000000
,
00000001
00000100
00000010
00001000
,
00000001
00000000
00000100
00000000
,
00001000
00000000
00010000
00000000
,
00100000
00000000
10000000
00000000
,
00010000
00000000
10000000
00000000
,
01000000
00100000
00000000
00100000
,
00000000
00100000
00001000
00100000
,
00010000
00010000
00010000
00000000
,
10000000
01000000
00010000
00000000
,
00001000
00001000
00001000
00000000
,
00000100
00000000
00000001
00000000
,
00001000
00000000
00000100
00000000
,
00000010
00000001
00000100
00000000
,
00000010
00000000
00010000
00000000
,
00001000
01000000
00001000
00000000
,
01000000
01000000
01000000
00000000
,
00100000
10000000
01000000
00000000
,
00010000
00010000
00010000
00000000
,
00001000
00000000
00000100
00000000
,
00000001
00000000
00001000
00000000
,
00000100
00010000
00001000
00000000
,
01000000
00000000
00010000
00000000
,
00100000
01000000
10000000
00000000
,
10010000
00000000
00000000
00000000
;

//---------------dance-single - ----------------
#NOTES:
     dance-single:
     :
     Beginner:
     0:
     0.100,0.157,0.000,0.000,0.000: // measure 1
0000
0000
0000
0000
,  // measure 2
0000
0000
0000
0000
,  // measure 3
0000
0000
0000
0000
,  // measure 4
0000
0000
0000
0000
,  // measure 5
1000
0000
0000
0000
,  // measure 6
0001
0000
0000
0000
,  // measure 7
0000
0000
0000
0000
,  // measure 8
0100
0000
0000
0000
,  // measure 9
0010
0000
0010
0000
,  // measure 10
0010
0000
0000
0000
,  // measure 11
0100
0000
0100
0000
,  // measure 12
0100
0000
0000
0000
,  // measure 13
0001
0000
0001
0000
,  // measure 14
0001
0000
0000
1000
,  // measure 15
0000
0000
0000
0000
,  // measure 16
0001
0000
0001
0000
,  // measure 17
1000
0000
0000
0000
,  // measure 18
0100
0000
0000
0000
,  // measure 19
0001
0000
0000
0000
,  // measure 20
0010
0000
0010
0000
,  // measure 21
0010
0000
0000
0000
,  // measure 22
0001
0000
0000
0000
,  // measure 23
0100
0000
0000
0000
,  // measure 24
1000
0000
0000
0000
,  // measure 25
0010
0000
0000
0000
,  // measure 26
0001
0000
0001
0000
,  // measure 27
0001
0000
0000
0000
,  // measure 28
1000
0000
0000
0000
,  // measure 29
0100
0000
0000
0000
,  // measure 30
0010
0000
0000
0000
,  // measure 31
0001
0000
0000
0000
,  // measure 32
0100
0000
0100
0000
,  // measure 33
0100
0000
0000
0000
,  // measure 34
0010
0000
0000
0000
,  // measure 35
1000
0000
0000
0000
,  // measure 36
0100
0000
0000
0000
,  // measure 37
0010
0000
0010
0000
,  // measure 38
0010
0000
0000
0000
,  // measure 39
0001
0000
0001
0000
,  // measure 40
0001
0000
0000
0000
,  // measure 41
0100
0000
0100
0000
,  // measure 42
0100
0000
0000
0000
,  // measure 43
0010
0000
0010
0000
,  // measure 44
0010
0000
0000
0000
,  // measure 45
1000
0000
1000
0000
,  // measure 46
1000
0000
0000
0000
,  // measure 47
0100
0000
0100
0000
,  // measure 48
0100
0000
0000
0000
,  // measure 49
0010
0000
0010
0000
,  // measure 50
0001
0000
0001
0000
,  // measure 51
1000
0000
0000
0000
,  // measure 52
0010
0000
0010
0000
,  // measure 53
0010
0000
0000
0000
,  // measure 54
0100
0000
0100
0000
,  // measure 55
0100
0000
0000
0000
,  // measure 56
0001
0000
0000
0000
,  // measure 57
1000
0000
1000
0000
,  // measure 58
1000
0000
0000
0000
,  // measure 59
0001
0000
0001
0000
,  // measure 60
0001
0000
0000
0000
,  // measure 61
0100
0000
0100
0000
,  // measure 62
0100
0000
0000
0000
,  // measure 63
0010
0000
0010
0000
,  // measure 64
0010
0010
0010
0000
,  // measure 65
1000
0000
1000
0000
,  // measure 66
1000
0000
0000
0000
,  // measure 67
0001
0000
0001
0000
,  // measure 68
0001
0000
0000
0000
,  // measure 69
0010
0000
0010
0000
,  // measure 70
0010
0000
0000
0000
,  // measure 71
0100
0000
0100
0000
,  // measure 72
0100
0000
0100
0000
,  // measure 73
0100
0000
0000
0000
;
