#TITLE:The Heat Is On;
#SUBTITLE:;
#ARTIST:Aaron G.;
#TITLETRANSLIT:;
#SUBTITLETRANSLIT:;
#ARTISTTRANSLIT:;
#GENRE:;
#CREDIT:Silverhawke;
#MENUCOLOR:;
#METERTYPE:DDR;
#BANNER:The Heat Is On.png;
#BACKGROUND:The Heat Is On-bg.png;
#LYRICSPATH:;
#CDTITLE:cdtitle.png;
#MUSIC:The Heat Is On.mp3;
#OFFSET:-0.027;
#SAMPLESTART:49.484;
#SAMPLELENGTH:15.000;
#SELECTABLE:YES;
#LISTSORT:;
#BPMS:0.000=114.000;
#STOPS:;
#BGCHANGES:;
#ATTACKS:;

//---------------dance-single - ----------------
#NOTES:
     dance-single:
     :
     Hard:
     10:
     0.448,0.424,0.198,0.109,0.094:
0000
0000
0000
0000
,
0000
0000
0000
0000
,
0000
0000
0000
0000
,
0000
0000
0000
0000
,
1000
0000
0001
0000
0100
0000
0000
0010
0000
0000
0100
0000
1001
0000
0000
0000
,
0001
0000
0010
0000
0100
0000
0000
1000
0000
0000
0100
0000
1001
0000
0000
0000
,
1000
0000
0010
0000
0100
0000
0000
0001
0000
0000
0010
0000
1001
0000
0000
0000
,
0100
0000
0010
0000
1000
0000
0000
0001
0000
0000
0010
0000
1001
0000
0000
0001
,
0100
0000
0001
0000
1000
0000
0100
1000
0100
0000
0010
0000
0001
0000
0000
0000
,
1000
0000
0010
0000
0001
0000
0010
1000
0010
0000
0100
0000
0001
0000
0000
0000
,
1000
0100
0001
0100
1000
0001
0100
1000
,
0100
0000
0000
0100
0010
0000
0000
0010
1000
0000
0000
1001
0000
0000
1000
0100
,
1000
0001
0100
1000
0100
0100
0100
0000
,
0001
0010
1000
0010
0100
1000
0001
0000
,
0101
1000
0100
0000
1100
0001
0100
0000
,
1001
0000
0000
1000
0001
0000
0000
0100
0001
0000
0010
0000
0100
0000
1000
0000
,
0001
0000
1000
0100
0001
0000
0100
1000
,
0001
0000
0000
0000
0100
0000
0010
0000
1000
0000
0010
0000
0000
0100
0000
0000
,
0001
0000
1000
0100
0001
0000
0100
1000
,
0001
0000
0000
0000
0100
0000
0010
0000
1000
0000
0010
0000
0000
0100
0000
0000
,
0001
0000
0000
1000
0000
0000
0100
0000
0000
0000
0010
0000
0001
0000
0000
0000
,
0010
0000
0100
0000
1000
0000
0000
0000
0001
0000
0100
0000
0000
0010
0000
0000
,
1000
0010
0001
0000
0010
1000
0100
0000
,
0010
0001
0100
0001
1000
0100
0010
0001
,
0011
0000
1100
0000
1000
0010
0100
0010
,
0000
0001
0010
1000
0001
0001
1000
1000
,
1100
0000
0011
0000
0010
0100
1000
0001
,
0000
0100
1000
0001
0010
1000
0001
0010
,
0110
0000
1001
0000
1000
0010
0100
0001
,
0000
0100
1000
0100
0001
0010
0100
1000
,
0001
1000
0001
1000
0010
0000
0100
0002
,
0000
1003
0100
0001
0100
1000
0001
0100
,
0110
0000
1001
0000
0010
0001
0010
1000
,
0100
0000
0000
0010
0000
0000
0001
0000
0100
0000
0001
0000
1000
0000
0100
0000
,
1100
0000
0011
0000
0001
1000
0100
0010
,
0001
1000
0100
0010
0100
1000
0010
0100
,
0101
0000
1010
0000
1000
0001
0010
0100
,
0000
1000
0100
0010
0001
0100
0010
1000
,
0100
0000
0010
0000
0100
0000
0010
0000
0100
0000
0000
0010
0000
0000
0002
0000
,
0000
1003
0100
0010
0001
0100
1000
0100
,
0020
0000
1000
0000
0031
0010
1000
0100
,
0000
0010
0001
0010
0100
1000
0001
0100
,
0020
0000
1030
0001
0200
0000
1300
0200
,
0000
0301
0010
0100
1000
0010
0001
0010
,
2000
0000
0001
0000
3010
0100
0001
0010
,
0000
0100
1000
0100
0001
0100
1000
0001
,
0200
0000
0000
0000
0300
0000
0010
0002
,
0000
0013
2000
0002
0000
3003
0000
0000
;

//---------------dance-single - ----------------
#NOTES:
     dance-single:
     :
     Medium:
     7:
     0.314,0.330,0.099,0.059,0.020:
0000
0000
0000
0000
,
0000
0000
0000
0000
,
0000
0000
0000
0000
,
0000
0000
0000
0000
,
1000
0001
0100
0000
0010
0000
0100
0000
,
0001
1000
0010
0000
0100
0000
0010
0000
,
0100
0010
0001
0000
1000
0000
0010
0000
,
0001
0010
1000
0000
0001
0000
1001
0000
,
1000
0000
0100
0000
0001
0100
1000
0000
,
0001
0000
0100
0000
1000
0100
0001
0000
,
1000
0000
0010
0000
0001
0010
1000
0000
,
0001
0011
0110
1100
,
1000
0001
0100
0000
0010
0000
0010
0000
,
1000
0001
0010
0000
0100
0000
0100
0000
,
0010
0001
0100
0000
0010
1000
0100
0000
,
1000
1010
0110
0101
,
0002
0010
0000
0100
,
0000
0000
0000
0000
0010
0000
0000
0000
0000
0000
0013
0000
0000
0100
0000
0000
,
2000
0001
0000
0010
,
0000
0000
0000
0000
0100
0000
0000
0000
0000
0000
3010
0000
0000
0100
0000
0000
,
0001
0000
0000
1000
0000
0000
0200
0000
0000
0000
0000
0000
0010
0000
0000
0000
,
0000
0000
0000
0000
1000
0000
0000
0000
0000
0000
0310
0000
0000
0100
0000
0000
,
2000
0001
0000
0001
,
3001
0101
0110
1010
,
1000
0000
0001
0000
1000
0100
0001
0000
,
0100
0000
1000
0000
0010
0001
1000
0000
,
0100
0000
0001
0000
1000
0100
0001
0000
,
0010
0000
1000
0000
0010
0001
0100
0000
,
1000
0000
0001
0000
0100
1000
0010
0000
,
0001
0000
0010
0000
1000
0100
0001
0000
,
0100
0000
1000
0000
0001
0100
1000
0100
,
0001
0000
1000
0000
0100
0010
0001
0000
,
0100
0000
1000
0000
0010
1000
0100
0000
,
0001
0000
0010
0000
0100
1000
0010
0000
,
0001
0000
0100
0000
1000
0100
0001
0000
,
0010
0000
0100
0000
1000
0001
0100
0000
,
0010
1000
0001
0010
,
1000
0000
0001
0000
0100
1000
0001
0000
,
0100
0010
0100
0010
0100
0000
0010
0000
,
1000
0100
0001
0000
0010
0000
1000
0000
,
0010
0000
0001
0000
0100
0001
0010
0000
,
0001
0000
0100
0000
0001
0100
1000
0000
,
0100
0000
1000
0000
0100
1000
0010
0000
,
1000
0000
0010
0000
1000
0010
0001
0000
,
0010
0000
0001
0000
0010
0001
0100
0000
,
0001
0000
1000
0000
0100
0010
0001
0000
,
0100
0001
0100
0001
0100
0000
0001
1000
,
0000
1000
0002
0200
0000
0303
0000
0000
;

//---------------dance-single - ----------------
#NOTES:
     dance-single:
     :
     Easy:
     4:
     0.195,0.212,0.040,0.010,0.000:
0000
0000
0000
0000
,
0000
0000
0000
0000
,
0000
0000
0000
0000
,
0000
0000
0000
0000
,
1000
0001
0001
0001
,
0100
0010
0010
0010
,
0001
1000
1000
1000
,
0010
0100
0100
0100
,
1000
0100
0001
0100
,
1000
0010
0001
0010
,
1000
0001
0010
1000
,
0100
0001
0010
1000
,
0100
1000
0010
0001
,
0100
1000
0001
0010
,
0100
1000
0001
0100
,
0010
1000
0001
0010
,
0100
0000
0010
0000
,
0010
0000
0010
0100
,
1000
0000
1000
0000
,
1000
0000
1000
0001
,
0100
0000
0100
0000
,
0100
0000
0100
0010
,
1000
0000
1000
0000
,
1000
0001
1000
0001
,
0010
0000
0010
0000
,
0010
0100
1000
0001
,
0100
0000
0100
0000
,
0100
0010
1000
0001
,
0010
0000
0010
0000
,
0010
0100
1000
0001
,
0100
0000
0100
0000
,
0100
0001
1000
0100
,
0001
0000
0001
0000
,
0001
0100
1000
0010
,
0001
0000
0001
0000
,
0001
1000
0100
0001
,
1000
0000
1000
0000
,
1000
0100
0001
0010
,
1000
0000
1000
0000
,
1000
0001
0100
0000
,
0110
0000
0100
0001
,
1000
0000
0100
0000
,
0110
0000
0010
0001
,
0100
0000
0010
0000
,
0110
0000
0010
1000
,
0100
0000
0010
0000
,
1001
0000
0000
0000
,
0020
0000
0000
0000
0000
0030
0000
0000
;

//---------------dance-single - ----------------
#NOTES:
     dance-single:
     :
     Beginner:
     1:
     0.081,0.114,0.000,0.000,0.000:
0000
0000
0000
0000
,
0000
0000
0000
0000
,
0000
0000
0000
0000
,
0000
0000
0000
0000
,
0001
0000
0000
0000
,
1000
0000
0000
0000
,
0100
0000
0000
0000
,
0010
0000
0000
0000
,
1000
0000
0000
0000
,
0001
0000
0000
0000
,
1000
0000
0000
0000
,
0100
0000
0000
0000
,
0010
0000
0000
0000
,
0001
0000
0000
0000
,
0100
0000
0000
0000
,
0001
0001
0001
0000
,
1000
0000
0000
0000
,
0100
0000
0000
0000
,
0010
0000
0000
0000
,
0001
0000
0000
0000
,
1000
0000
0000
0000
,
0010
0000
0000
0000
,
0100
0000
0000
0000
,
0001
0000
0001
0000
,
0001
0000
0000
0000
,
1000
0000
1000
0000
,
1000
0000
0000
0000
,
0001
0000
0001
0000
,
0001
0000
0000
0000
,
0100
0000
0100
0000
,
0100
0000
0000
0000
,
0010
0000
0010
0000
,
0010
0000
0000
0000
,
1000
0000
1000
0000
,
1000
0000
0000
0000
,
0010
0000
0010
0000
,
0010
0000
0000
0000
,
0001
0000
0001
0000
,
0001
0000
0000
0000
,
1000
0000
1000
0000
,
1000
0000
0000
0000
,
0000
0000
0100
0100
,
0100
0000
0000
0000
,
0000
0000
0010
0010
,
0010
0000
0000
0000
,
0000
0000
0001
0001
,
0001
0000
0000
0000
;

//---------------dance-double - ----------------
#NOTES:
     dance-double:
     :
     Hard:
     10:
     0.430,0.425,0.148,0.188,0.084:
00000000
00000000
00000000
00000000
,
00000000
00000000
00000000
00000000
,
00000000
00000000
00000000
00000000
,
00000000
00000000
00000000
00000000
,
00010000
00000000
01000000
00000000
10000000
00000000
00000000
00100000
00000000
00000000
01100000
00000000
00000000
00000000
00000000
00000000
,
01000000
00000000
00001000
00000000
00010000
00000000
00000000
00000100
00000000
00000000
00000110
00000000
00000000
00000000
00000000
00000000
,
00000010
00000000
00000001
00000000
00000100
00000000
00000000
00001000
00000000
00000000
00011000
00000000
00000000
00000000
00000000
00000000
,
00010000
00000000
01000000
00000000
00100000
00000000
00000000
00001000
00000000
00000000
00011000
00000000
00000000
00000000
00000000
00010000
,
00000100
00000010
00000001
00000100
00000010
00000100
00000001
00000000
,
00001000
00000100
00001000
00000000
00000100
00000000
00010000
00000000
00001000
00000000
01000000
00000000
00100000
00000000
00000000
00000000
,
10000000
10000000
00010000
00010000
01000000
00100000
10000000
01000000
,
00010000
00000000
00000000
00010000
00001000
00000000
00000000
00001000
00000100
00000000
00000000
00000010
00000000
00000000
00001000
00000000
,
00000100
00000010
00000001
00000100
00001000
00000100
00000010
00000000
,
00010000
00001000
01000000
00100000
10000000
01000000
00010000
00000000
,
00001000
00000000
01000000
00010000
00000000
01000000
00000000
00000000
00001000
00000000
00010000
00000100
00000000
00001000
00000000
00000000
,
00000010
00000000
00000100
00000001
00000000
00000000
00001000
00000000
00000100
00000000
00000010
00000001
00000000
00001000
00000000
00000000
,
00000020
00000000
00000130
00000000
00000001
00001000
00000100
00000000
,
00010000
00000000
00001000
00100000
00010000
01000000
00100000
00000000
,
20000000
00000000
31000000
00000000
00010000
00001000
00000100
00000000
,
00000010
00001000
00000100
00000010
00000001
00000100
00000010
00000000
,
00000200
00000000
00000301
00000000
00001000
00000100
00010000
00000000
,
00001000
00100000
01000000
10000000
00100000
01000000
00001000
00000000
,
00020000
00000000
01030000
00000000
10000000
00100000
00010000
00000000
,
00001000
00000100
00000010
00000000
00002000
00003200
00000320
00000032
,
00000103
00000000
00000110
00000000
00000010
00001000
00010000
00001000
,
00000000
00000010
00010000
00000000
00001000
00100000
01000000
10000000
,
00100000
00000000
01100000
00000000
01000000
00001000
00010000
00001000
,
00000000
00010000
00000100
00000000
00000010
00000001
00000100
00001000
,
00010000
00000000
00011000
00000000
00001000
00100000
01000000
00100000
,
00000000
00010000
01000000
00000000
00100000
10000000
00010000
00100000
,
00010000
00100000
00010000
00100000
00010000
00000000
10000000
00020000
,
00000000
00130000
01000000
10000000
00100000
01000000
00100000
01000000
,
00010000
00000000
00110000
00000000
00100000
00001000
00010000
00000100
,
00000020
00000000
00000031
00000000
00000100
00001000
00000100
00000001
,
00000010
00000000
00000110
00000000
00000100
00010000
00001000
00000010
,
00000100
00010000
00001000
00000010
00000001
00000100
00001000
00010000
,
00100000
00000000
01100000
00000000
01000000
00010000
00001000
00010000
,
00000000
10000000
01000000
00000000
00100000
00010000
10000000
01000000
,
10000000
00000000
01000000
00000000
10000000
00000000
01000000
00000000
00100000
00000000
00000000
00001000
00000000
00000000
00020000
00000000
,
00000000
00030100
00000010
00000100
00001000
00000000
00001001
00000000
,
00000002
00000000
00000010
00000000
00001003
00000100
00010000
00001000
,
00200000
00310000
11000000
00110000
,
20000000
00000000
30100000
01000000
00020000
00000000
00130000
00002000
,
00000000
00013000
00001100
00000011
,
00000002
00000000
00000010
00000000
00001003
00000010
00000100
00001000
,
00010000
00000000
01000000
00000000
00100000
00010000
10000000
01000000
,
10000000
01000000
10000000
01000000
10000000
01000000
00100000
00020000
,
00000000
00031000
00000100
00000020
00000000
00000000
00000030
00000000
;

//---------------dance-double - ----------------
#NOTES:
     dance-double:
     :
     Medium:
     7:
     0.301,0.328,0.099,0.030,0.000:
00000000
00000000
00000000
00000000
,
00000000
00000000
00000000
00000000
,
00000000
00000000
00000000
00000000
,
00000000
00000000
00000000
00000000
,
00010000
00000000
00001000
00000000
00010000
00000100
00001000
00000000
,
00000100
00000000
00010000
00000000
00001000
01000000
00010000
00000000
,
00100000
00000000
00001000
00000000
00010000
00000010
00001000
00000000
,
00000100
00000000
00000010
00000000
00000001
00000101
00000000
00000000
,
00000010
00000000
00001000
00000000
00000100
00000000
00010000
00001000
,
00010000
00000000
00001000
00000000
01000000
00100000
01000000
00000000
,
00010000
10000000
00010000
00000000
00100000
01000000
10000000
00000000
,
00010000
01010000
01010000
10100000
,
10000000
00000000
00010000
00000000
01000000
00001000
01000000
00000000
,
00001000
00000000
00010000
00000000
00000100
00001000
00000010
00000000
,
00000100
00000101
00000010
00001010
,
00001000
00000000
00000100
00000000
00010000
00001000
01000000
00000000
,
00010000
10000000
00010000
10000000
,
00100000
01000000
00100000
01000000
,
00001000
00010000
00001000
00010000
,
00000100
00000010
00000100
00000010
,
00000001
00001000
00000001
00001000
,
00000010
00000100
00000010
00000100
,
00001000
00010000
00001000
00010000
,
00100000
00000000
01000000
00000000
00100000
10000000
01000000
00010000
,
00001000
00000000
00000010
00000000
00000001
00000100
00000001
00000010
,
00000100
00000000
00000010
00000000
00000001
00000100
00001000
00000000
,
00010000
00000000
00100000
00000000
10000000
00010000
10000000
00100000
,
01000000
00000000
00010000
00000000
10000000
01000000
00010000
00000000
,
00001000
00000000
00000010
00000000
00000100
00000000
00001000
00000010
,
00000100
00000001
00001000
00010000
,
10000000
00000000
10000000
00000000
10000000
00000000
10000000
00010000
,
00000000
00010000
01000000
00010000
00000000
00010000
00100000
00000000
,
01000000
10000000
00010000
00001000
,
00000001
00000100
00000010
00000000
00001000
00000000
00000100
00000000
,
00010000
00000000
00001000
00000000
01000000
00100000
01000000
00000000
,
00010000
00000000
10000000
00000000
01000000
00100000
01000000
10000000
,
00010000
00000000
01000000
00000000
00001000
00010000
00001000
00000000
,
00010000
00000000
00000100
00000000
00001000
00000010
00000100
00000000
,
00000001
00000000
00000001
00000000
00000001
00000000
00001000
00000100
,
00000000
00000100
00000010
00000001
00000000
00000000
00001000
00000000
,
00000001
00000100
00001000
00010000
,
01000000
10000000
10010000
10010000
,
10000000
01000000
00010000
00001000
,
00000010
00000001
00001001
00001001
,
00000001
00000100
00001000
00010000
,
01000000
00000000
10000000
00000000
00100000
01000000
00010000
00000000
,
20000000
00000000
00000000
00000000
30000000
00000000
00020000
02000000
,
00000000
00000000
00030000
03000000
00000000
00000000
00000000
00000000
;

//---------------dance-double - ----------------
#NOTES:
     dance-double:
     :
     Easy:
     4:
     0.195,0.212,0.030,0.010,0.000: // measure 1
00000000
00000000
00000000
00000000
,  // measure 2
00000000
00000000
00000000
00000000
,  // measure 3
00000000
00000000
00000000
00000000
,  // measure 4
00000000
00000000
00000000
00000000
,  // measure 5
00001000
00010000
00010000
00010000
,  // measure 6
00001000
01000000
01000000
01000000
,  // measure 7
00100000
10000000
10000000
10000000
,  // measure 8
01000000
00100000
00100000
00100000
,  // measure 9
00001000
00010000
00000100
00010000
,  // measure 10
00001000
00100000
00010000
00100000
,  // measure 11
00001000
00010000
00000010
00010000
,  // measure 12
00001000
01000000
00001000
00010000
,  // measure 13
01000000
10000000
01000000
00100000
,  // measure 14
00001000
00010000
00000100
00000010
,  // measure 15
00000001
00000100
00001000
00010000
,  // measure 16
00100000
10000000
01000000
00010000
,  // measure 17
00001000
00000000
00000010
00000000
,  // measure 18
00000010
00000000
00000010
00000100
,  // measure 19
00001000
00000000
00001000
00000000
,  // measure 20
00001000
00000000
00001000
00000001
,  // measure 21
00000100
00000000
00000100
00000000
,  // measure 22
00000100
00000000
00000100
00001000
,  // measure 23
00010000
00000000
00010000
00000000
,  // measure 24
00010000
00001000
00010000
00001000
,  // measure 25
01000000
00000000
01000000
00000000
,  // measure 26
01000000
00010000
00100000
00010000
,  // measure 27
01000000
00000000
01000000
00000000
,  // measure 28
01000000
00100000
10000000
01000000
,  // measure 29
00010000
00000000
00010000
00000000
,  // measure 30
00010000
01000000
00100000
00001000
,  // measure 31
00010000
00000000
00010000
00000000
,  // measure 32
00010000
00001000
01000000
00100000
,  // measure 33
10000000
00000000
10000000
00000000
,  // measure 34
10000000
01000000
00010000
00001000
,  // measure 35
00000010
00000000
00000010
00000000
,  // measure 36
00000010
00000001
00000100
00000010
,  // measure 37
00010000
00000000
00010000
00000000
,  // measure 38
00010000
00001000
00000010
00000100
,  // measure 39
00000010
00000000
00000010
00000000
,  // measure 40
00000010
00001000
00000100
00000000
,  // measure 41
00001100
00000000
00010000
00001000
,  // measure 42
01000000
00000000
00010000
00000000
,  // measure 43
10010000
00000000
10000000
00010000
,  // measure 44
00001000
00000000
00000001
00000000
,  // measure 45
00001001
00000000
00001000
00000100
,  // measure 46
00010000
00000000
00001000
00100000
,  // measure 47
00010000
00000000
00000000
00000000
,  // measure 48
02000000
00000000
00000000
00000000
00000000
03000000
00000000
00000000
;
