#TITLE:THE FALLEN;
#SUBTITLE:;
#ARTIST:L.E.D.-G;
#TITLETRANSLIT:;
#SUBTITLETRANSLIT:;
#ARTISTTRANSLIT:;
#GENRE:;
#CREDIT:Silverhawke;
#MENUCOLOR:;
#METERTYPE:DDR;
#BANNER:THE FALLEN.png;
#BACKGROUND:THE FALLEN-bg.png;
#LYRICSPATH:;
#CDTITLE:cdtitle.png;
#MUSIC:THE FALLEN.mp3;
#OFFSET:-0.028;
#SAMPLESTART:15.828;
#SAMPLELENGTH:15.000;
#SELECTABLE:YES;
#LISTSORT:;
#BPMS:0.000=167.000;
#STOPS:203.833=0.359
;
#BGCHANGES:;
#ATTACKS:;

//---------------dance-single - ----------------
#NOTES:
     dance-single:
     :
     Hard:
     15:
     0.611,0.689,0.210,0.229,0.814:
0000
0000
0000
0000
,
0000
0000
0000
0000
,
0000
0000
0000
0000
,
0000
0000
0000
0000
,
0000
0000
0000
0000
,
0001
0001
0100
0100
,
1000
1000
0010
0010
,
0001
0000
0001
0100
0000
0100
0010
0000
0010
1000
0000
1000
,
0100
0010
0001
0100
0010
1000
0100
0001
0100
1000
0010
2000
,
0002
0000
0000
0000
,
3003
0000
0000
0000
,
0001
0000
0000
0101
0000
0000
1000
0000
0000
1100
0000
0100
,
0020
0000
0000
0032
0000
0000
2003
0000
0000
3010
0000
0100
,
0001
0000
0000
0101
0000
0000
1000
0000
0001
0100
1000
0100
,
0001
0000
0000
1000
0000
0100
0010
0000
0000
0100
0000
1000
,
0001
0000
0000
0100
0000
0000
1000
0000
1000
0100
0000
0100
,
0001
0000
0000
1000
0000
0100
0010
0000
0000
1000
0000
0010
,
0001
0000
0000
0100
0000
0000
0010
0000
0010
1000
0000
1000
,
0001
0000
0000
0010
0000
0100
1000
0000
0000
0001
0100
1000
,
0100
0000
0000
0101
0000
0000
0010
0000
0000
1010
0000
1000
,
0200
0000
0000
0302
0000
0000
0203
0000
0000
1300
0000
0010
,
0001
0000
0000
1010
0000
0000
1000
0000
0001
0100
1000
0100
,
0001
0000
0000
0010
0000
0100
1000
0000
0000
0001
0000
0100
,
1000
0000
0000
0100
0000
0000
0001
0000
0010
0100
0000
1000
,
0100
0000
0000
0010
0000
0001
0100
0000
0000
1000
0000
0100
,
0001
0000
0000
0010
0000
0000
0100
0000
0100
1000
0000
1000
,
0001
0000
0000
0100
0000
0001
1000
0000
0000
0010
0100
1000
,
0100
0000
0100
0001
0000
0001
1000
0000
1000
0010
0000
0010
,
0002
0023
2030
3002
,
0013
1100
0010
0101
,
1001
0000
0000
1000
0100
0010
0002
0000
0000
0003
0000
0000
,
1000
0000
0000
0001
0000
1000
0100
0000
0000
1000
0000
0001
,
0100
0000
0000
0001
0000
0000
1000
0000
0000
0001
0000
0001
,
0100
0000
0000
1000
0000
0100
0001
0000
0000
1000
0000
0100
,
0001
0000
0000
0001
0000
0100
1000
0000
0020
0031
0000
0020
,
0130
0000
1000
0100
0000
0001
0100
0000
0010
1000
0000
0010
,
0002
0023
2030
3200
,
0301
0100
1000
0001
,
0010
0000
0000
1000
0010
0001
0200
0000
0000
0300
0000
0000
,
0010
0000
0000
0100
0000
0100
1000
0000
0000
0100
0000
0100
,
0001
0000
0000
0100
0000
0100
1000
0000
0000
0010
0000
0000
,
1000
0000
0100
0001
0000
0100
1000
0000
0010
0001
0000
0010
,
1000
0100
0001
0100
1000
0001
0010
1000
0010
0001
0100
0010
,
2000
0000
0010
0000
0000
0010
0000
0000
0001
0000
0000
0001
,
0000
0000
0100
0000
0000
0100
0000
0000
0001
3000
0000
0010
,
0002
0000
0100
0000
0000
0100
0000
0000
1000
0000
0000
1000
,
0000
0000
0010
0000
0000
0010
0000
0000
1000
0003
0000
0100
,
1000
0000
0000
0100
0000
0000
0001
0000
0000
0010
0000
0010
,
1000
0000
0000
0010
0000
0000
0001
0000
0000
0100
0000
0100
,
1000
0001
0100
0010
1000
0100
0001
0100
1000
0001
0100
0010
,
1000
0100
0010
0002
0000
1003
0001
0100
1000
0100
0001
1000
,
0100
0000
0100
0010
0000
0010
0001
0000
0001
0010
0000
0010
,
0100
0000
0100
1000
0100
0010
0001
0100
1000
0100
0000
0000
,
0100
0000
0100
0001
0000
0001
1000
0000
1000
0010
0000
0010
,
0001
0000
0001
1000
0100
0001
0100
0010
1000
0100
0000
0000
,
0100
0000
0100
1000
0000
1000
0010
0000
0010
0001
0000
0001
,
1000
0000
1000
0100
0010
1000
0100
0010
1000
0001
0000
0100
,
1000
0000
0000
0001
0000
0100
1000
0000
0000
0001
0010
1000
,
0001
0010
1000
0001
0100
1000
0001
0100
1000
0001
0000
0000
,
0011
0000
0000
0010
0000
1000
0100
0000
0000
0110
0000
0000
,
0010
0000
0100
1000
0000
0000
1001
0000
0000
0001
0100
1000
,
0100
0000
0000
0110
0000
0000
0010
0000
1000
0100
0000
0000
,
0101
0000
0000
0001
0000
0100
1000
0000
0000
1100
0000
0000
,
0100
0000
0010
0001
0000
0000
0101
0000
0000
0100
0000
0001
,
1000
0000
0000
1010
0000
0000
0010
0001
0010
1000
0000
0000
,
1100
0000
0000
0100
0000
0001
0100
0000
0000
0110
0000
0000
,
0010
0000
0001
0100
0000
0000
0110
0000
0000
0010
1000
0001
,
0100
0000
0000
0101
0000
0000
0001
0000
0010
0100
0000
0000
,
1100
0000
0000
1000
0000
0010
0100
0000
0000
0101
0000
0000
,
0001
0000
0010
0100
1000
0001
0100
1000
0100
0001
1000
0100
,
0001
0100
1000
0010
0100
1000
0001
0010
2000
0002
0000
0000
,
0000
0000
0000
3003
;

//---------------dance-single - ----------------
#NOTES:
     dance-single:
     :
     Medium:
     10:
     0.471,0.525,0.256,0.293,0.243:
0000
0000
0000
0000
,
0000
0000
0000
0000
,
0000
0000
0000
0000
,
0000
0000
0000
0000
,
0000
0000
0000
0000
,
1000
0100
1000
0100
,
0010
0001
0010
0001
,
1000
0001
1000
0001
,
1000
0000
0001
0100
0000
0000
0001
0000
1000
0100
0000
0000
,
0020
0000
0000
0000
,
0030
0000
0000
0000
,
0001
0001
0100
0100
,
0020
0000
0000
2030
0000
0000
3001
0000
0000
1000
0000
1000
,
0100
0010
0100
1000
,
0001
0000
0000
0200
0000
0000
0310
0000
0000
0100
0000
0100
,
0001
0000
0000
0100
0000
0000
0001
0000
0000
1000
0000
1000
,
0100
0000
0000
0010
0000
0000
0100
0000
0000
1000
0000
1000
,
0001
0000
0000
0100
0000
0000
0001
0000
0001
1000
0000
1000
,
0001
0100
0010
0110
,
1000
1000
0100
0100
,
0020
0000
0000
0032
0000
0000
1003
0000
0000
0001
0000
0001
,
0100
0010
0100
0001
,
1000
0000
0000
0200
0000
0000
0310
0000
0000
0100
0000
0100
,
1000
0000
0000
0100
0000
0000
1000
0000
0000
0001
0000
0001
,
0100
0000
0000
0010
0000
0000
0100
0000
0000
0001
0000
0001
,
1000
0000
0000
0100
0000
0000
1000
0000
1000
0001
0000
0001
,
1000
0100
0010
0110
,
0200
2300
3002
0203
,
0320
1030
1002
0103
,
0010
1000
0100
0010
,
1001
0000
0000
0001
1000
0001
2000
0000
0000
3000
0000
0000
,
0001
0000
0000
1000
0000
1000
0100
0000
0000
0010
0000
0010
,
0002
0203
0320
2030
,
3001
0101
0100
0110
,
0010
0000
0000
1010
0000
0000
1000
0000
1000
0001
0000
0001
,
0200
0302
2003
3200
,
0320
0031
2001
3100
,
0010
0001
0100
0010
,
1001
0000
0000
1000
0001
1000
0002
0000
0000
0003
0000
0000
,
1000
0000
0000
0001
0000
0001
0100
0000
0000
0010
0000
0010
,
2000
3200
0320
0032
,
1003
1100
0100
0110
,
0010
0000
0000
0011
0000
0000
0001
0000
0001
1000
0000
1000
,
0001
0000
0101
0000
,
1100
0000
1010
0000
,
0011
0000
0101
0000
,
1100
0000
1010
0000
,
0001
0001
0100
0100
,
1000
1000
0010
0010
,
0001
0100
1000
0010
,
0001
0100
1000
0010
,
0001
0100
0001
1000
,
1100
0110
0011
1001
,
1000
0100
1000
0001
,
0101
0110
1010
1001
,
0010
0010
0010
1001
,
0100
0000
0000
0100
0000
0000
0100
0000
0000
0001
0000
0001
,
0010
0000
0010
0100
0000
0100
1000
0000
1000
0001
0000
0100
,
0001
0000
0010
0001
0000
0100
0010
0000
1000
0100
0000
0000
,
0100
0000
0000
0100
0000
0100
1000
0000
0000
1000
0000
0000
,
1000
0000
1000
0010
0000
0000
0010
0000
0000
0010
0000
0010
,
0100
0000
0000
0100
0000
0000
0100
0000
0100
0001
0000
0000
,
0001
0000
0000
0001
0000
0001
0010
0000
0000
0010
0000
0000
,
0010
0000
0010
0100
0000
0000
0100
0000
0000
0100
0000
0100
,
1000
0000
0000
1000
0000
0000
1000
0000
1000
0001
0000
0000
,
0001
0000
0000
0100
0000
0100
0001
0000
0000
1000
0000
0000
,
0100
0000
0100
1000
0000
0000
0001
0000
0000
0010
0001
0010
,
0001
0000
0000
2000
0000
0000
3010
0000
0010
1000
0000
0000
,
0001
0000
0000
0100
0000
0010
1000
0000
0000
0100
0000
0000
,
0010
0000
0001
0100
0000
0000
0001
0000
0000
0010
0000
0100
,
1000
0000
0010
0100
0000
0001
0010
0000
0002
2000
0000
0000
,
0000
0000
0000
3003
;

//---------------dance-single - ----------------
#NOTES:
     dance-single:
     :
     Easy:
     4:
     0.242,0.263,0.009,0.064,0.000:
0000
0000
0000
0000
,
0000
0000
0000
0000
,
0000
0000
0000
0000
,
0000
0000
0000
0000
,
0000
0000
0000
0000
,
1000
0000
0001
0000
,
0100
0100
0100
0000
,
0010
0000
1000
0000
,
0001
0001
0001
0000
,
0200
0000
0000
0000
,
0300
0000
0000
0000
,
0001
0100
0001
0000
,
1000
0100
1000
0000
,
0001
0010
0100
1000
,
0001
0000
1000
0000
,
0001
0100
0001
0000
,
1000
0010
1000
0000
,
0001
0100
0010
1000
,
0100
0010
0001
0000
,
1000
0001
0100
0000
,
0001
1000
0100
0000
,
1000
0100
0010
0001
,
0010
0100
1000
0000
,
0001
0100
0010
0000
,
1000
0010
0100
0000
,
0001
0100
0010
1000
,
0010
0100
0001
0000
,
1000
0000
1000
0000
,
1000
0100
0010
0000
,
0010
0001
0010
0000
,
0100
0000
1000
0000
,
0001
0000
0001
0000
,
0001
0100
0010
0000
,
1000
0010
0100
0000
,
0010
0010
0010
0000
,
0001
0000
0001
0000
,
0001
0010
0100
0000
,
0100
1000
0100
0000
,
0010
0000
0001
0000
,
1000
0000
1000
0000
,
1000
0010
0100
0000
,
0001
0100
0010
0000
,
0100
0100
0100
0000
,
0020
0000
0000
0030
,
2000
0000
0000
3000
,
0200
0000
0000
0300
,
0020
0000
0000
0030
,
0001
0001
0001
0001
,
1000
1000
1000
1000
,
0001
0100
0010
0000
,
1000
0100
0010
0000
,
0000
0000
0000
0001
,
0100
0001
0100
0010
,
0000
1000
0000
1000
,
0100
1000
0100
0010
,
0000
0001
0000
0001
,
0100
0001
0100
0010
,
0100
0001
1000
0100
,
0000
0100
0000
0010
,
0010
0000
0001
0001
,
0000
0100
0100
0000
,
0010
0010
0000
1000
,
1000
0000
0001
0001
,
0000
0010
0010
0000
,
0100
0100
0000
1000
,
0001
0000
0001
0100
,
0000
0100
0010
0000
,
0010
1000
0000
1000
,
0100
0000
0100
0010
,
0000
0010
0001
0000
,
0001
1000
0000
2002
,
0000
0000
0000
3003
;

//---------------dance-single - ----------------
#NOTES:
     dance-single:
     :
     Beginner:
     1:
     0.099,0.131,0.000,0.009,0.000:
0000
0000
0000
0000
,
0000
0000
0000
0000
,
0000
0000
0000
0000
,
0000
0000
0000
0000
,
0000
0000
0000
0000
,
1000
0000
0000
0000
,
0001
0000
0000
0000
,
0100
0000
0000
0000
,
0010
0000
0000
0000
,
0000
0000
0000
0000
,
0000
0000
0000
0000
,
0100
0000
0000
0000
,
0100
0000
0000
0000
,
0001
0000
0001
0000
,
0001
0000
0000
0000
,
1000
0000
0000
0000
,
1000
0000
0000
0000
,
0100
0000
0100
0000
,
0100
0000
0000
0000
,
0010
0000
0000
0000
,
0010
0000
0000
0000
,
0001
0000
0001
0000
,
0001
0000
0000
0000
,
1000
0000
0000
0000
,
1000
0000
0000
0000
,
0001
0000
0001
0000
,
0001
0000
0000
0000
,
0100
0000
0100
0000
,
0100
0000
0000
0000
,
0010
0000
0000
0000
,
1000
0000
0000
0000
,
0100
0000
0100
0000
,
0100
0000
0000
0000
,
0010
0000
0000
0000
,
0001
0000
0000
0000
,
0100
0000
0100
0000
,
0100
0000
0000
0000
,
0010
0000
0000
0000
,
1000
0000
0000
0000
,
0100
0000
0100
0000
,
0100
0000
0000
0000
,
0010
0000
0000
0000
,
0001
0000
0000
0000
,
1000
0000
0000
0000
,
0000
0000
0000
0000
,
0001
0000
0000
0000
,
0000
0000
0000
0000
,
0100
0000
0000
0000
,
0100
0000
0000
0000
,
0100
0000
0100
0000
,
0100
0000
0000
0000
,
0000
0000
0000
1000
,
0000
0000
0000
0001
,
0000
0000
0000
0100
,
0000
0000
0000
0010
,
0000
0000
0000
0100
,
0000
0000
0000
0001
,
0000
0000
0000
1000
,
0000
0000
0000
0100
,
0000
0000
0010
0000
,
0000
0001
0000
0000
,
1000
0000
0000
0010
,
0000
0000
0100
0000
,
0000
0001
0000
0000
,
1000
0000
0000
0001
,
0000
0000
0100
0000
,
0000
0010
0000
0000
,
1000
0000
0000
0001
,
0000
0000
0010
0000
,
0000
0100
0000
0000
,
1000
0000
0000
0002
,
0000
0000
0000
0003
;

//---------------dance-double - ----------------
#NOTES:
     dance-double:
     :
     Hard:
     14:
     0.583,0.689,0.183,0.110,0.792:
00000000
00000000
00000000
00000000
,
00000000
00000000
00000000
00000000
,
00000000
00000000
00000000
00000000
,
00000000
00000000
00000000
00000000
,
00000000
00000000
00000000
00000000
,
10000000
01000000
00010000
00001000
,
00000010
00000001
00000100
00001000
,
00010000
00000000
00010000
01000000
00000000
01000000
10000000
00000000
10000000
00100000
00000000
00100000
,
00010000
00000000
00010000
00001000
00000000
00001000
00000100
00000010
00001000
00000100
00000010
00000001
,
00000200
00000000
00000000
00000000
,
00000300
00000000
00000000
00000000
,
00010000
00000000
00000000
00010000
00000000
00000000
00001000
00000000
00000000
00001000
00000000
00001000
,
01000000
00000000
00000000
00100000
00000000
00000000
10000000
00000000
00000000
01000000
00000000
00100000
,
00010000
00000000
00000000
00010000
00000000
00000000
01000000
00000000
01000000
00001000
01000000
00001000
,
00010000
00000000
00000000
00010000
00000000
00010000
00000100
00000000
00000000
00000010
00000000
00000010
,
00000001
00000000
00000000
00000001
00000000
00000000
00000001
00000000
00000001
00000100
00000000
00000100
,
00000010
00000000
00000000
00000010
00000000
00010000
00001000
00000000
00000000
00001000
00000000
00100000
,
01000000
00000000
00000000
01000000
00000000
00000000
10000000
00000000
10000000
00100000
00000000
00100000
,
00010000
00000000
00000000
00001000
00000000
00000000
00000010
00000000
00000000
00000010
00001000
00010000
,
00100000
00000000
00000000
00100000
00000000
00000000
10000000
00000000
00000000
01000000
00000000
01000000
,
00010000
00000000
00000000
00001000
00000000
00000000
00000100
00000000
00000000
00000010
00000000
00000010
,
00001000
00000000
00000000
00001000
00000000
00000000
00000001
00000000
00000001
00000010
00000001
00000010
,
00000100
00000000
00000000
00000100
00000000
00010000
00001000
00000000
00000000
01000000
00000000
00100000
,
10000000
00000000
00000000
10000000
00000000
00000000
10000000
00000000
10000000
01000000
00000000
01000000
,
00010000
00000000
00000000
00010000
00000000
00001000
00000100
00000000
00000000
00000100
00000000
00000010
,
00001000
00000000
00000000
00001000
00000000
00000000
00000001
00000000
00000001
00000010
00000000
00000010
,
00002000
00000000
00000000
00023000
00000000
00000000
00230000
00000000
00000000
10300000
01000000
00100000
,
00010000
00000000
01000000
00010000
00000000
00100000
00001000
00000000
00010000
00000100
00000000
00001000
,
00000010
00000100
00000001
00000010
,
00001000
00011000
00010000
01010000
,
01000000
00000000
00000000
00100000
00010000
00001000
00000020
00000000
00000000
00000000
00000000
00000000
,
00000031
00000000
00000000
00000001
00000000
00001000
00000100
00000000
00000000
00000100
00000000
00010000
,
00001000
00001000
01000000
00100000
,
10000000
00000000
10000000
01000000
00000000
01000000
00100000
00000000
00100000
00010000
00000000
00010000
,
00001000
00000000
00000000
00000100
00000000
00000100
00000010
00000000
00000020
00000031
00000000
00000020
,
00000031
00000000
00001000
00000100
00000000
00000100
00010000
00000000
00010000
00001000
00000000
00001000
,
01000000
00100000
10000000
00010000
,
00100000
00101000
00000010
00010010
,
00001000
00000000
00000000
00000001
00000100
00000010
00002000
00000000
00000000
00000000
00000000
00000000
,
00003100
00000000
00000000
00000010
00000000
00000001
00000100
00000000
00000000
00000010
00000000
00001000
,
00000100
00010000
01000000
00100000
,
00010000
00000000
00010000
01000000
00000000
01000000
00100000
00000000
00100000
00010000
00000000
00010000
,
00001000
00000100
00000010
00001000
00000100
00000010
00000001
00000100
00000010
00000001
00001000
00000100
,
00000020
00000000
00010000
00000000
00000000
00010000
00000000
00000000
00001000
00000000
00000000
00001000
,
00000000
00000000
00000100
00000000
00000000
00000100
00000000
00000000
00001000
00000000
00000000
00001030
,
02000000
00000000
00100000
00000000
00000000
00100000
00000000
00000000
10000000
00000000
00000000
10000000
,
00000000
00000000
00010000
00000000
00000000
00010000
00000000
00000000
10000000
00000000
00000000
13000000
,
00100000
00000000
00000000
01100000
00000000
00000000
01000000
00000000
00000000
01001000
00000000
00001000
,
00010000
00000000
00000000
00011000
00000000
00001000
00010000
00000000
00000000
00010100
00000000
00010000
,
00000100
00000000
00000100
00000010
00000000
00000010
00000001
00000000
00000001
00000100
00000000
00000100
,
00000010
00001000
00000100
00010000
00000000
00010000
00001000
01000000
00100000
10000000
01000000
00100000
,
00010000
00000000
00010000
01000000
00000000
01000000
00100000
00000000
00100000
10000000
00000000
10000000
,
01000000
00000000
01000000
00100000
00010000
00001000
01000000
00100000
00010000
00001000
00000000
00000000
,
00000100
00000000
00000100
00000010
00000000
00000010
00000001
00000000
00000001
00000100
00000000
00000100
,
00000010
00000000
00000010
00010000
00000010
00000100
00000001
00010000
00000010
00000100
00000000
00000000
,
00000010
00000000
00010000
00001000
00000000
00000000
01000000
00000000
00010000
00100000
00000000
00000000
,
01000000
00000000
10000000
00100000
01000000
00010000
10000000
01000000
00100000
00010000
00000000
00010000
,
01000000
00000000
01000000
00100000
01000000
00100000
10000000
00000000
00010000
10000000
01000000
00100000
,
00001000
00010000
00000100
00000010
00000100
00010000
00001000
00100000
01000000
10000000
00000000
00000000
,
11000000
00000000
00000000
01000000
00000000
00100000
00001000
00000000
00000000
00011000
00000000
00000000
,
00010000
00000000
00000100
00000010
00000000
00000000
00000011
00000000
00000000
00000001
00000100
00000010
,
00001000
00000000
00000000
00001100
00000000
00000000
00000100
00000000
00010000
00001000
00000000
00000000
,
01001000
00000000
00000000
01000000
00000000
00100000
10000000
00000000
00000000
11000000
00000000
00000000
,
01000000
00000000
00010000
00001000
00000000
00000000
00001100
00000000
00000000
00000100
00000000
00000010
,
00010000
00000000
00010000
01000000
00000000
01000000
00100000
00010000
01000000
00100000
00000000
00000000
,
10100000
00000000
00000000
10000000
00000000
00010000
01000000
00000000
00000000
01001000
00000000
00000000
,
00001000
00000000
00010000
00000100
00000000
00000000
00000110
00000000
00000000
00000010
00000001
00000100
,
00000010
00001000
00000100
00000002
00000000
00000000
00000103
00000000
00010000
00001000
00000000
00000000
,
01001000
00000000
00000000
01000000
00000000
00100000
10000000
00000000
00000000
11000000
00000000
00000000
,
01000000
00000000
00010000
00001000
00000000
00000010
00000001
00000000
00000100
00001000
00000000
00010000
,
01000000
10000000
00100000
00010000
00001000
00000010
00000100
00010000
00001000
00000200
00000000
00000000
,
00000000
00000000
00000000
00000300
;

//---------------dance-double - ----------------
#NOTES:
     dance-double:
     :
     Medium:
     11:
     0.482,0.525,0.000,0.146,0.490:
00000000
00000000
00000000
00000000
,
00000000
00000000
00000000
00000000
,
00000000
00000000
00000000
00000000
,
00000000
00000000
00000000
00000000
,
00000000
00000000
00000000
00000000
,
00010000
00000100
00010000
00000100
,
00001000
00000010
00001000
00000010
,
00000100
00000000
00000100
00000001
00000000
00000000
00001000
00000000
00001000
00000100
00000000
00000000
,
00010000
00000000
00010000
00001000
00000000
00001000
01000000
00000000
01000000
00100000
10000000
00010000
,
00200000
00000000
00000000
00000000
,
00300000
00000000
00000000
00000000
,
01000000
00000000
00000000
01000000
00000000
00000000
10000000
00000000
00000000
10000000
00000000
00010000
,
01000000
00000000
00000000
00001000
00000000
00000000
00010000
00000000
00000000
00000100
00000000
00000100
,
00001000
00000000
00000000
00001000
00000000
00000000
00000010
00000000
00000010
00000100
00000000
00000100
,
00000001
00000000
00000000
00001000
00000000
00000000
00001000
00000000
00000000
00000100
00000000
00000100
,
00010000
00000000
00000000
00001000
00000000
00000000
01000000
00000000
01000000
00010000
00000000
00000000
,
00010000
00000000
00000000
10000000
00000000
10000000
01000000
00000000
00000000
00100000
00000000
00000000
,
00001000
00000000
00000000
00001000
00000000
00000000
00010000
00000000
00010000
00000100
00000000
00000000
,
00000010
00000001
00000100
00000020
,
00010030
00000000
00000000
00010000
00000000
00000000
00001000
00000000
00000000
00001000
00000000
01000000
,
00001000
00000000
00000000
00010000
00000000
00000000
00000100
00000000
00000000
00000010
00000000
00000010
,
00000001
00000000
00000000
00000001
00000000
00000000
00001000
00000000
00001000
00000010
00000000
00000010
,
00000100
00000000
00000000
00001000
00000000
00000000
00010000
00000000
00000000
00100000
00000000
01000000
,
00010000
00000000
00000000
00010000
00000000
00000000
00010000
00000000
10000000
01000000
00000000
01000000
,
10000000
00000000
00000000
10000000
00000000
00010000
01000000
00000000
00000000
00001000
00000000
00010000
,
00000100
00000000
00000000
00000100
00000000
00000000
00000010
00000000
00000010
00000001
00000000
00000001
,
00002000
00000010
00000001
00003100
,
00001000
00000000
00000100
00010000
00000000
00000000
00001000
00000000
01000000
00010000
00000000
00000000
,
20000000
32000000
03200000
00320000
,
10030000
00100000
01000000
00001000
,
00010000
00000000
00000000
00000100
00000000
00000100
00000020
00000000
00000000
00000000
00000000
00000000
,
00000031
00000100
00001000
00010000
,
00100000
00000000
00000000
10000000
00000000
00000000
01000000
00000000
00000000
00100000
00000000
00100000
,
00001000
00000000
00000000
00001000
00000000
00001000
00010000
00000000
00000000
00010000
00000000
00010000
,
00000100
00000000
00000000
00000010
00000000
00000001
00000100
00000000
00000010
00000100
00000000
00000010
,
00000100
00000000
00000100
00000001
00000000
00000000
00000001
00000000
00000001
00001000
00000000
00000000
,
00000200
00020300
00032000
00203000
,
00310000
10000000
01000000
00010000
,
00001000
00000000
00000000
00000010
00000000
00000010
00000002
00000000
00000000
00000000
00000000
00000000
,
00000103
00000000
00000000
00000010
00000000
00000010
00010000
00000000
00000000
00001000
00000000
00001000
,
01000000
00010000
00100000
00001000
,
00010000
00000000
00010000
01000000
00000000
01000000
10000000
00000000
10000000
00100000
00000000
00100000
,
01000000
00000000
01000000
00001000
00000000
00001000
00010000
00000100
00010000
00000100
00010000
00000100
,
00002000
00000000
00000100
00000000
,
00000100
00000000
00000100
00000000
,
00023000
00000000
00100000
00000000
,
00100000
00000000
00100000
00000000
,
10030000
00000000
00000000
01000000
00000000
00000000
00100000
00000000
00000000
00001000
00000000
00001000
,
00010000
00000000
00000000
00000100
00000000
00000100
00000010
00000000
00000000
00000001
00000000
00000001
,
00000100
00000000
00000100
00000010
00000000
00000010
00001000
00000000
00001000
00000001
00000000
00000001
,
00000010
00000100
00000010
00000100
00000000
00001000
00000000
00000001
00000000
00000100
00000010
00000100
,
00000010
00000000
00000010
00010000
00000000
00000000
00001000
00000000
00001000
01000000
00000000
00000000
,
00010000
00000000
00010000
10000000
00000000
10000000
01000000
00000000
01000000
00100000
00000000
00000000
,
00001000
00000000
00001000
00010000
00000000
00000000
00000100
00000000
00000100
00000010
00000000
00000000
,
00000001
00000000
00000001
00000100
00000000
00000100
00000010
00000000
00000010
00010000
00000000
00000000
,
00001000
00000000
00001000
01000000
00000000
00000000
00100000
00000000
00100000
10000000
00000000
00000000
,
01000000
00000000
01000000
00100000
00000000
00100000
00001000
00000000
00001000
00010000
00000000
00000000
,
00000100
00000000
00000100
00000010
00000000
00000000
00000001
00000000
00000001
00001000
00000000
00000001
,
00001000
00000000
00000010
00000100
00000010
00000100
00000010
00000100
00000010
00001000
00000000
00000000
,
00001000
00000000
00000000
00001000
00000000
00001000
00000100
00000000
00000000
00000100
00000000
00000000
,
00010000
00000000
00001000
01000000
00000000
00000000
01000000
00000000
00000000
00100000
00000000
10000000
,
00010000
00000000
00000000
00010000
00000000
00000000
00100000
00000000
01000000
10000000
00000000
00000000
,
10000000
00000000
00000000
00010000
00000000
01000000
00001000
00000000
00000000
00001000
00000000
00000000
,
00010000
00000000
00000100
00000010
00000000
00000000
00000010
00000000
00000000
00000001
00000000
00000001
,
00000100
00000000
00000000
00000100
00000000
00000000
00000100
00000010
00000100
00000001
00000000
00000000
,
00000001
00000000
00000000
00001000
00000000
00000100
00010000
00000000
00000000
00010000
00000000
00000000
,
00001000
00000000
00100000
01000000
00000000
00000000
01000000
00000000
00000000
10000000
00000000
10000000
,
00100000
00000000
00000000
00100000
00000000
00000000
01000000
00000000
00001000
00010000
00000000
00000000
,
00010000
00000000
00000000
00000010
00000000
00000100
00000001
00000000
00000000
00000001
00000000
00000000
,
00000010
00000000
00000100
00010000
00000000
00010000
00001000
00000000
00001000
01000000
00000000
01000000
,
00010000
00000000
00010000
00100000
00000000
00100000
01000000
00000000
10000000
00020000
00000000
00000000
,
00000000
00000000
00000000
00030000
;

//---------------dance-double - ----------------
#NOTES:
     dance-double:
     :
     Easy:
     4:
     0.235,0.263,0.009,0.064,0.000: // measure 1
00000000
00000000
00000000
00000000
,  // measure 2
00000000
00000000
00000000
00000000
,  // measure 3
00000000
00000000
00000000
00000000
,  // measure 4
00000000
00000000
00000000
00000000
,  // measure 5
00000000
00000000
00000000
00000000
,  // measure 6
01000000
00000000
00001000
00000000
,  // measure 7
00100000
00100000
00100000
00000000
,  // measure 8
00001000
00000000
00000100
00000000
,  // measure 9
00000010
00000010
00000010
00000000
,  // measure 10
00002000
00000000
00000000
00000000
,  // measure 11
00003000
00000000
00000000
00000000
,  // measure 12
00000100
00000010
00000100
00000000
,  // measure 13
00000010
00000001
00000010
00000000
,  // measure 14
00000100
00001000
00000010
00000100
,  // measure 15
00000010
00000000
00010000
00000000
,  // measure 16
00001000
01000000
00001000
00000000
,  // measure 17
00100000
01000000
00100000
00000000
,  // measure 18
00001000
00000000
00001000
00010000
,  // measure 19
01000000
00000000
10000000
00000000
,  // measure 20
00010000
01000000
00001000
00000000
,  // measure 21
00010000
00000100
00001000
00000000
,  // measure 22
00000100
00000010
00000001
00000100
,  // measure 23
00000010
00000000
00010000
00000000
,  // measure 24
00000010
00001000
00000100
00000000
,  // measure 25
00010000
00001000
00100000
00000000
,  // measure 26
00001000
01000000
00100000
10000000
,  // measure 27
01000000
00100000
00001000
00000000
,  // measure 28
00100000
00000000
00100000
00000000
,  // measure 29
00001000
00010000
00000100
00000000
,  // measure 30
00000100
00000010
00000001
00000000
,  // measure 31
00000100
00000000
00000010
00000000
,  // measure 32
00001000
00000000
00001000
00000000
,  // measure 33
00000100
00010000
00001000
00000000
,  // measure 34
00100000
00010000
01000000
00000000
,  // measure 35
00100000
00100000
00100000
00000000
,  // measure 36
10000000
00000000
10000000
00000000
,  // measure 37
01000000
00010000
00001000
00000000
,  // measure 38
01000000
00100000
01000000
00000000
,  // measure 39
00010000
00000000
10000000
00000000
,  // measure 40
01000000
00000000
01000000
00000000
,  // measure 41
00100000
00001000
00010000
00000000
,  // measure 42
00000100
00010000
00001000
00000000
,  // measure 43
01000000
01000000
01000000
00000000
,  // measure 44
00200000
00000000
00300000
00000000
,  // measure 45
20000000
00000000
30000000
00000000
,  // measure 46
02000000
00000000
03000000
00000000
,  // measure 47
00020000
00000000
00030000
00000000
,  // measure 48
00001000
00001000
00001000
00000000
,  // measure 49
00000010
00000010
00000010
00000000
,  // measure 50
00000001
00000100
00000010
00000000
,  // measure 51
00001000
00000100
00000010
00000000
,  // measure 52
00000000
00000000
00000000
00000001
,  // measure 53
00001000
00000100
00010000
00001000
,  // measure 54
00000000
00100000
00000000
00100000
,  // measure 55
00001000
00010000
00001000
01000000
,  // measure 56
00000000
00100000
00000000
00100000
,  // measure 57
10000000
01000000
00010000
01000000
,  // measure 58
00100000
00001000
00100000
00010000
,  // measure 59
00000000
00010000
00000000
01000000
,  // measure 60
01000000
00000000
00001000
00001000
,  // measure 61
00000000
00010000
00010000
00000000
,  // measure 62
00000100
00000100
00000000
00000010
,  // measure 63
00000010
00000000
00000001
00000001
,  // measure 64
00000000
00000100
00000100
00000000
,  // measure 65
00001000
00001000
00000000
00010000
,  // measure 66
00100000
00000000
00100000
10000000
,  // measure 67
00000000
10000000
01000000
00000000
,  // measure 68
01000000
00010000
00000000
00010000
,  // measure 69
00001000
00000000
00001000
00000100
,  // measure 70
00000000
00000100
00000010
00000000
,  // measure 71
00000010
00010000
00000000
00022000
,  // measure 72
00000000
00000000
00000000
00033000
;
