#TITLE:TAKE THE FUN;
#SUBTITLE:;
#ARTIST:Anemo=Aspel by MLREC.;
#TITLETRANSLIT:;
#SUBTITLETRANSLIT:;
#ARTISTTRANSLIT:;
#GENRE:;
#CREDIT:Silverhawke;
#MENUCOLOR:;
#METERTYPE:DDR;
#BANNER:TAKE THE FUN.png;
#BACKGROUND:TAKE THE FUN-bg.png;
#LYRICSPATH:;
#CDTITLE:cdtitle.png;
#MUSIC:TAKE THE FUN.mp3;
#OFFSET:-0.028;
#SAMPLESTART:54.424;
#SAMPLELENGTH:15.000;
#SELECTABLE:YES;
#LISTSORT:;
#BPMS:0.000=140.000;
#STOPS:;
#BGCHANGES:;
#ATTACKS:;

//---------------dance-single - ----------------
#NOTES:
     dance-single:
     :
     Hard:
     12:
     0.595,0.576,0.309,0.634,0.553:
0000
0000
0000
0000
,
0000
0000
0000
0000
,
0000
0000
0000
0000
,
0000
0000
0000
0000
,
1100
0000
0001
0100
0010
0000
0101
0000
,
1100
0000
1000
0100
0010
0000
1100
0001
,
0100
0000
0010
0000
2000
0000
0000
0000
3100
0000
0000
0000
1000
0000
0001
0010
,
0001
0000
0000
0000
1000
0000
0100
0000
0110
0000
0001
0000
1000
0020
0000
0000
,
0230
0000
0000
0302
0000
0000
1003
0000
,
0001
0000
0010
0100
0000
1000
0000
0002
0000
0000
0000
0000
0103
0000
0000
0000
,
0010
0000
1000
0000
0001
0100
0000
0020
0000
0000
0000
0000
2030
0000
0000
0000
,
3001
0000
0000
1100
0000
0000
1001
0000
0000
0000
1000
0000
0001
0020
0000
0000
,
0230
0000
0000
2300
0000
0000
3001
0000
,
1000
0000
0010
0100
0000
0001
0000
2000
0000
0000
0000
0000
3100
0000
0000
0000
,
0010
0000
0001
0000
1000
0100
0000
0020
0000
0000
0000
0000
0032
0000
0000
0000
,
1003
0010
1000
0010
0000
0100
0001
0100
0000
0000
0000
0000
0110
0000
0000
0000
,
1001
0000
0000
0000
0000
0010
0000
0001
2000
0000
0000
0000
3010
0000
0100
0000
,
0001
0000
0000
1000
0000
0000
1001
0000
0000
0000
1000
0000
0100
0000
0000
0000
,
1001
0000
0000
0000
0002
0000
0000
0000
2003
0000
0000
3010
0000
0000
0100
0010
,
0100
0000
0000
0000
0001
0000
0010
0000
0000
0000
0100
0000
1000
0001
0000
0000
,
0110
0000
0000
0110
0000
1000
0000
0001
0020
0000
0000
0000
0130
0000
1000
0000
,
0010
0000
0000
0100
0000
0000
0110
0000
0000
0000
0001
0000
0000
0010
0100
0010
,
0001
0000
0000
1000
0000
0000
2002
0000
0000
0000
3003
0000
1000
0000
0100
0000
,
0010
0000
0001
0010
0000
0100
0000
2000
0000
0000
0000
0000
3001
0000
0000
0000
,
1020
0000
0000
0000
0032
0000
0000
0000
0203
0000
0000
0000
1300
0000
0000
0020
,
0000
0000
0000
0000
0030
0100
0001
0100
0001
0000
1000
0000
0100
0010
0000
0000
,
0021
0000
0000
0000
2030
0000
0000
0000
3200
0000
0000
0000
0301
0000
0000
0020
,
0000
0000
0000
0000
0030
0100
1000
0100
1000
0000
0001
0000
0100
0010
0000
0000
,
1200
0000
0000
0000
0302
0000
0000
0000
0023
0000
0000
0000
1030
0000
0000
0200
,
0000
0000
0000
0000
0320
0000
0000
0000
0032
0000
0000
0000
0103
0000
0000
0110
,
0000
0001
1000
0100
1000
0001
0100
0010
,
0000
0000
1000
0000
0001
0000
1000
0000
0001
0000
0100
0000
0000
0000
0000
0120
0000
0000
1000
0000
0000
1030
0000
0000
,
0001
0000
0000
0101
0000
0000
1001
0000
0000
0000
1000
0000
0100
0000
1000
0010
,
0000
0000
0100
0000
0000
0000
0000
0000
0001
0010
0000
0100
0000
1000
0000
0010
,
0200
0000
1300
0200
0000
0301
0200
0000
,
0310
0000
0100
0000
0001
1000
0001
1000
0000
0000
0210
0000
0001
0000
0301
0000
,
1000
0000
0000
1100
0000
0000
1001
0000
0000
0000
0001
0000
0100
0000
0001
0010
,
0000
0000
0100
0000
0000
0000
0000
0000
1000
0010
0000
0100
0000
0001
0000
0010
,
0200
0000
0000
0000
2300
0000
0000
0000
3002
0000
0000
0000
0003
0100
0000
0010
,
1000
0000
0001
0000
0010
0100
0010
0100
0000
0000
2002
0000
0000
0000
3003
0000
,
1000
0000
0000
0010
0000
0000
0210
0000
0000
0000
0301
0000
0100
0000
0001
0100
,
0000
0020
0000
0000
1030
0000
0001
0000
,
0010
0100
0010
0100
0000
1000
0000
0001
0000
0001
0000
0001
0100
0000
0010
0000
,
0100
0000
0001
1000
0001
0000
1000
0100
0000
0000
0220
0000
0000
0000
0330
0000
,
0001
0000
0001
0100
0000
0010
0000
1000
0000
1000
0000
1000
0100
1000
0001
0000
,
0100
0000
0000
0001
0000
0000
2002
0000
0000
0000
3003
0000
0000
1000
0100
1000
,
0002
0000
0000
0000
0203
0000
0000
0000
0310
0000
1000
0000
0001
0010
0000
0100
,
0000
0000
1000
0000
0001
0000
0100
0010
0000
0000
1002
0000
0100
0000
0103
0000
,
0010
0000
0000
1000
0000
0000
1200
0000
0000
0000
0310
0000
0001
0000
0100
0010
,
0000
0000
1000
0000
0000
0000
0000
0000
0001
0010
0000
0100
0000
1000
0000
0010
,
0200
0000
1300
0200
0000
0301
0200
0000
,
1300
0000
0100
0000
0001
1000
0001
1000
0000
0000
0210
0000
0001
0000
0301
0000
,
0010
0000
0000
0001
0000
0000
0201
0000
0000
0000
0310
0000
1000
0000
0100
0010
,
0000
0000
0001
0000
0000
0000
0000
0000
1000
0010
0000
0100
0000
0001
0000
0010
,
0200
0000
0000
0000
2300
0000
0000
0000
3002
0000
0000
0000
0003
0100
0000
0010
,
0000
0000
0000
0000
1000
0000
0000
0000
0001
0000
0000
0000
1000
0000
0000
0000
0001
0000
0000
0000
0010
0000
0000
0000
0000
0000
0000
0000
0000
0000
1001
0000
0000
0000
0000
0000
0001
0000
0000
0020
0000
0000
0000
0000
0000
0000
0000
0000
,
0230
0000
0000
2300
0000
0000
3001
0000
,
1000
0000
0010
0100
0000
0001
0000
2000
0000
0000
0000
0000
3100
0000
0000
0000
,
0010
0000
0001
0000
1000
0100
0000
0020
0000
0000
0000
0000
0032
0000
0000
0000
,
1003
0000
0000
0101
0000
0000
1001
0000
0000
0000
0001
0000
1000
0020
0000
0000
,
0230
0000
0000
0302
0000
0000
1003
0000
,
0001
0000
0010
0100
0000
1000
0000
0002
0000
0000
0000
0000
0103
0000
0000
0000
,
0010
0000
1000
0000
0001
0100
0000
0020
0000
0000
0000
0000
2030
0000
0000
0000
,
3001
0010
0001
0010
0000
0100
1000
0100
0000
1000
0010
1000
0000
0001
0100
0010
;

//---------------dance-single - ----------------
#NOTES:
     dance-single:
     :
     Medium:
     8:
     0.345,0.439,0.120,0.189,0.021:
0000
0000
0000
0000
,
0000
0000
0000
0000
,
0000
0000
0000
0000
,
0000
0000
0000
0000
,
0001
0000
0010
0001
0200
0000
0300
0000
,
0010
0000
1000
0001
0200
0000
0300
0001
,
1000
0000
0200
0000
0300
0000
0010
0001
,
1000
0000
0010
0100
0001
0000
0110
0000
,
1000
0000
0001
0100
0010
0000
0100
0000
,
0001
0000
1000
0100
0010
0000
0001
0000
,
1000
0010
0100
0001
,
1001
0000
0110
0000
,
0010
0000
1000
0001
0100
0000
0010
0000
,
0100
0000
0001
0010
0100
0000
1000
0000
,
0001
0100
0010
0000
1000
0000
0001
0000
,
1001
0000
0000
1000
0000
0000
0001
0000
0000
0000
0000
0000
0000
0000
0000
0000
,
1000
0100
0010
0100
,
1000
0010
0100
0010
,
1000
0000
0100
0010
0001
0000
0100
0000
,
0010
1000
0001
1001
,
1000
0000
0000
1000
0000
0000
0000
0000
0001
0000
0000
0000
0010
0000
0000
0000
,
0100
0000
1000
0000
0001
0000
0100
0100
,
0100
0001
1000
0100
,
0010
0010
0110
0000
,
0002
0203
0320
2030
,
3100
0010
0001
1000
,
0002
0023
0230
2300
,
3010
0100
0001
1000
,
0200
0320
0032
2003
,
3010
0200
0302
2003
,
3100
0010
0010
0010
,
2002
0000
3003
0000
,
0001
0100
1000
0100
,
0001
0000
1000
0000
0100
0010
0001
0000
,
1000
0010
0001
0010
,
1000
0001
1001
1001
,
1000
0100
0001
0100
,
1000
0000
0010
0000
0100
0000
0001
1000
,
0100
0010
0001
0100
,
0010
0010
0110
0000
,
1000
0001
0100
0010
,
0100
0000
0001
0000
1000
0100
0010
0000
,
0100
0000
1000
0000
0001
0000
1000
0001
,
0100
0010
0110
0000
,
0100
0000
0100
0000
0001
1000
0100
0000
,
0010
0000
0100
0000
1000
0000
0001
0100
,
0001
0000
1000
0000
0010
0100
0001
0000
,
1001
0000
0000
0100
,
0100
0001
1000
0100
,
0010
0000
0100
0000
1000
0001
1000
0000
,
0010
0100
0001
1000
,
0010
0100
0001
0000
1001
0000
0000
0000
,
1000
0100
0010
0001
,
0100
0000
0010
0000
0100
0001
1000
0000
,
0100
0010
0001
1000
,
2002
0000
0000
0000
0000
3003
0000
0000
,
0001
0100
1000
0100
,
0001
1000
0100
0000
0010
0000
0001
0000
,
1000
0100
0001
0100
,
1000
0000
0000
1000
0000
0000
1000
0000
0000
0000
0000
0000
0000
0000
0000
0000
,
0001
0010
1000
0010
,
0001
0100
0010
0000
0100
0000
0001
0000
,
1000
0010
0001
0010
,
1000
0000
0000
0100
0000
0000
0010
0000
0000
0000
0001
0000
0000
0000
0000
0100
;

//---------------dance-single - ----------------
#NOTES:
     dance-single:
     :
     Easy:
     5:
     0.178,0.189,0.034,0.000,0.000:
0000
0000
0000
0000
,
0000
0000
0000
0000
,
0000
0000
0000
0000
,
0000
0000
0000
0000
,
1000
0001
0100
0000
,
0001
1000
0100
0000
,
0010
0001
0000
1000
,
0100
0000
1001
0000
,
0001
0000
0100
0000
,
0010
0100
0001
0000
,
1000
0000
0100
0000
,
0010
0100
1000
0000
,
0001
0000
0100
0000
,
0010
0100
0001
0000
,
1000
0000
0100
0000
,
0001
0100
0010
0000
,
0001
0000
0001
0000
,
0001
0000
0001
0000
,
1000
0001
1000
0001
,
1000
0000
0100
0000
,
0010
0000
0010
0000
,
0010
0100
0010
0000
,
0100
1000
0100
0000
,
1000
0001
1000
0000
,
0001
0001
1000
1000
,
0100
0000
0010
0000
,
0001
0001
1000
1000
,
0100
0000
0010
0000
,
0001
0001
0100
0100
,
0010
0000
1000
0000
,
0100
0000
0100
0000
,
0000
0000
0000
0000
,
0001
0000
0001
0000
,
1000
0000
0000
0000
,
1000
0000
0100
0000
,
1000
0100
0010
0000
,
0001
0000
0001
0000
,
0100
0000
0000
0000
,
0001
0000
0010
0100
,
1000
0000
0000
0000
,
0001
0000
0100
0000
,
0010
0000
0100
0000
,
0001
1000
0100
0000
,
1000
0000
1001
0000
,
0001
0100
0001
0000
,
1000
0000
0100
0000
,
0010
0001
0100
0000
,
0110
0000
0000
0000
,
0010
0000
1000
0000
,
0100
0000
1000
0000
,
0010
0100
0001
0100
,
0010
0000
0000
0000
,
0100
0000
0001
0000
,
1000
0000
0001
0000
,
0010
0100
1000
0001
,
0100
0000
0000
0000
,
0001
0000
0100
0000
,
0010
0100
0001
0000
,
1000
0000
0100
0000
,
0010
0100
1000
0000
,
0001
0000
0100
0000
,
0010
0100
0001
0000
,
1000
0000
0100
0000
,
1001
0000
0000
0000
;

//---------------dance-single - ----------------
#NOTES:
     dance-single:
     :
     Beginner:
     2:
     0.109,0.135,0.009,0.000,0.000:
0000
0000
0000
0000
,
0000
0000
0000
0000
,
0000
0000
0000
0000
,
0000
0000
0000
0000
,
1000
0000
1000
0000
,
1000
0000
1000
0000
,
0001
0000
0001
0000
,
0001
0000
0001
0000
,
0100
0000
0000
0000
,
0010
0000
0010
0000
,
0000
0100
0000
0000
,
0001
0000
0001
0000
,
0001
0000
0000
0000
,
1000
0000
1000
0000
,
0000
0100
0000
0000
,
0010
0000
0010
0000
,
0000
0000
0001
0000
,
0001
0000
0000
0000
,
1000
0000
1000
0000
,
1000
0000
0000
0000
,
0100
0000
0100
0000
,
0100
0000
0000
0000
,
0010
0000
0000
0000
,
0010
0010
0010
0000
,
0010
0000
0000
0000
,
0001
0000
0001
0000
,
0001
0000
0000
0000
,
0100
0000
0100
0000
,
0100
0000
0000
0000
,
1000
0000
0000
0000
,
0001
0000
0000
0000
,
1001
0000
0000
0000
,
0100
0000
0000
0000
,
0100
0000
0000
0000
,
1000
0000
1000
0000
,
1000
0000
0000
0000
,
0001
0000
0000
0000
,
0100
0000
0100
0000
,
0100
0000
0000
0000
,
0010
0000
0000
0000
,
1000
0000
1000
0000
,
1000
0000
0000
0000
,
0001
0000
0001
0000
,
0001
0000
0000
0000
,
0100
0000
0100
0000
,
0010
0000
0000
0000
,
0010
0000
0010
0000
,
0100
0000
0000
0000
,
1000
0000
1000
0000
,
1000
0000
0000
0000
,
0100
0000
0100
0000
,
0100
0000
0000
0000
,
0001
0000
0001
0000
,
0001
0000
0000
0000
,
0010
0000
0010
0000
,
0010
0000
0000
0000
,
0010
0000
0010
0000
,
0100
0000
0000
0000
,
0001
0000
0001
0000
,
0001
0000
0000
0000
,
1000
0000
1000
0000
,
0100
0000
0000
0000
,
0010
0000
0010
0000
,
0001
0000
0000
0000
;

//---------------dance-double - ----------------
#NOTES:
     dance-double:
     :
     Hard:
     12:
     0.544,0.576,0.146,0.609,0.476:
00000000
00000000
00000000
00000000
,
00000000
00000000
00000000
00000000
,
00000000
00000000
00000000
00000000
,
00000000
00000000
00000000
00000000
,
00010000
00000000
01000000
00100000
10000000
00000000
01000000
00000000
,
00100000
00000000
00001000
00010000
00000100
00000000
00001000
00000010
,
00000001
00000000
00000010
00000000
00000200
00000000
00000000
00000000
00000300
00000000
00000000
00000000
00000000
00000000
00001000
00010000
,
00001000
00000000
00000000
00000000
00010000
00000000
01000000
00000000
01100000
00000000
00010000
00000000
10000000
02000000
00000000
00000000
,
03200000
00000000
00000000
00302000
00000000
00003000
00010000
00000000
,
00000010
00000000
00000100
00001000
00000000
00000100
00000000
00000002
00000000
00000000
00000000
00000000
00001003
00000000
00000000
00000000
,
00000100
00000000
00010000
00000000
00001000
00100000
00000000
02000000
00000000
00000000
00000000
00000000
13000000
00000000
00000000
00000000
,
00100000
00000000
00000000
01100000
00000000
00000000
01001000
00000000
00000000
00000000
00010000
00000000
00000100
00002000
00000000
00000000
,
00003020
00000000
00000000
00000230
00000000
00000000
00000301
00000000
,
00001000
00000000
00000100
00010000
00000000
00001000
00000000
00000200
00000000
00000000
00000000
00000000
00000310
00000000
00000000
00000000
,
00010000
00000000
00001000
00000000
00100000
01000000
00000000
20000000
00000000
00000000
00000000
00000000
30020000
00000000
00000000
00000000
,
01030000
00001000
01000000
00001000
00000000
00010000
00000100
00010000
00000000
00000000
00000000
00000000
00011000
00000000
00000000
00000000
,
00001000
00000000
00000100
00000000
00000000
00000010
00000000
00000100
00000001
00000000
00000000
00000000
00001000
00000000
00000100
00000000
,
00010000
00000000
00000000
00001000
00000000
00000000
02000000
00000000
00000000
00000000
03100000
00000000
10000000
00000000
00000000
00000000
,
00010000
00100000
00001000
00000000
00010000
00000010
00001000
00000000
,
00000100
00000000
00010000
00000000
00001000
00000000
00010000
00000000
01000000
00000000
10000000
00000000
00010000
10000000
00000000
00000000
,
10010000
00000000
00000000
10010000
00000000
10000000
00000000
01000000
00200000
00000000
00000000
00000000
00301000
00000000
00010000
00000000
,
00000010
00000000
00000000
00000100
00000000
00000000
00002000
00000000
00000000
00000000
00013000
00000000
00000000
00001000
00010000
00001000
,
00010000
00000000
00000000
00100000
00000000
00000000
20000000
00000000
00000000
00000000
00000000
00000000
31000000
00000000
00010000
00000000
,
00001000
00000000
00000010
00000001
00000000
00001000
00000000
00000001
00000000
00000000
00000000
00000000
00000100
00000000
00000000
00000000
,
00000002
00000000
00000000
00000000
00000023
00000000
00000000
00000000
00000230
00000000
00000000
00000000
00002300
00000000
00000000
00013000
,
00000000
00000000
00100000
01000000
10000000
00010000
10010000
00000000
,
20000000
00000000
00000000
00000000
30200000
00000000
00000000
00000000
02300000
00000000
00000000
00000000
03020000
00000000
00000000
00031000
,
00000000
00000000
00000010
00000100
00000001
00001000
00001001
00000000
,
00000002
00000000
00000000
00000000
00000203
00000000
00000000
00000000
00002300
00000000
00000000
00000000
00023000
00000000
00000000
00130000
,
00000000
00000000
00000000
00000000
20000000
00000000
00000000
00000000
32000000
00000000
00000000
00000000
03020000
00000000
00000000
00031000
,
00000000
00000000
00000100
00000000
00000010
00001000
00000001
00001000
,
00000000
00000000
00000010
00000000
00000100
00000000
00000010
00000000
00000100
00000000
00000010
00000000
00000000
00000000
00000000
00002002
00000000
00000000
00000000
00000000
00000000
00003003
00000000
00000000
,
00000001
00000000
00000000
00001000
00000000
00000000
00000100
00000000
00000000
00000000
00010000
00000000
00001000
00000000
01000000
00000000
,
00010000
00000000
00000000
00000000
10000000
00000000
00000000
00000000
01000000
00100000
00000000
00010000
00000000
00001000
00000000
00000000
,
00020000
00000000
00130000
02000000
00000000
13000000
02000000
00000000
,
03010000
00000000
00001000
00000000
00010000
00000100
00010000
00000100
00000000
00000000
00002200
00000000
00000000
00000000
00003300
00000000
,
00010000
00000000
00000000
00001000
00000000
00000000
01000000
00000000
00000000
00000000
00100000
00000000
10000000
00000000
00010000
00000000
,
00100000
00000000
00000000
00000000
01000000
00000000
00000000
00000000
10000000
00100000
00000000
00010000
00000000
00001000
00000000
00000000
,
00020000
00000000
00000000
00000000
00030200
00000000
00000000
00000000
00002300
00000000
00000000
00000000
00003000
00000010
00000000
00000100
,
00000000
00000000
00000001
00000000
00001000
00000000
00000001
00000010
00000000
00000000
00000220
00000000
00000000
00000000
00000330
00000000
,
00000100
00000000
00000000
00010000
00000000
00000000
00002000
00000000
00000000
00000000
01003000
00000000
00010000
00000000
01000000
00100000
,
00000000
20000000
00000000
00000000
01000000
00000000
31000000
00000000
,
00100000
00001000
00100000
00001000
00000000
00010000
00000000
00000100
00000000
00000100
00000000
00001000
00000010
00000000
00000100
00000000
,
00000001
00000000
00000010
00000100
00000010
00000000
00000001
00001000
00000000
00000000
00002002
00000000
00000000
00000000
00003003
00000000
,
00000001
00000000
00000100
00000010
00000000
00010000
00000000
00001000
00000000
00001000
00000000
00100000
01000000
00000000
10000000
00000000
,
00010000
00000000
00000000
01000000
00000000
00000000
00200000
00000000
00000000
00000000
00300000
00000000
00000000
10000000
00010000
10000000
,
00020000
00000000
00000000
00000000
00230000
00000000
00000000
00000000
00301000
00000000
00010000
00000000
00000010
00000100
00000000
00000001
,
00000000
00000000
00000100
00000000
00001000
00000000
00010000
01000000
00000000
00000000
20020000
00000000
00000000
00000000
30030000
00000000
,
10000000
00000000
00000000
00010000
00000000
00000000
01000000
00000000
00000000
00000000
00001000
00000000
00010000
00000000
00000100
00000000
,
00001000
00000000
00000000
00000000
00000001
00000000
00000000
00000000
00000100
00000010
00000000
00001000
00000000
00010000
00000000
00000000
,
00002000
00000000
00003010
00000200
00000000
00000301
00000200
00000000
,
00001300
00000000
00010000
00000000
00001000
01000000
00001000
01000000
00000000
00000000
02020000
00000000
00000000
00000000
03030000
00000000
,
00001000
00000000
00000000
00010000
00000000
00000000
00000100
00000000
00000000
00000000
00000010
00000000
00000001
00000000
00001000
00000000
,
00000010
00000000
00000000
00000000
00000100
00000000
00000000
00000000
00000001
00000010
00000000
00001000
00000000
00010000
00000000
00000000
,
00002000
00000000
00000000
00000000
02003000
00000000
00000000
00000000
03020000
00000000
00000000
00000000
00030000
00100000
00000000
01000000
,
00000000
00000000
00000000
00000000
10000000
00000000
00000000
00000000
00010000
00000000
00000000
00000000
10000000
00000000
00000000
00000000
00010000
00000000
00000000
00000000
10000000
00000000
00000000
00000000
00000000
00000000
00000000
00000000
00000000
00000000
01100000
00000000
00000000
00000000
00000000
00000000
01000000
00000000
00000000
00020000
00000000
00000000
00000000
00000000
00000000
00000000
00000000
00000000
,
00030020
00000000
00000000
00020030
00000000
00030000
00001000
00000000
,
00100000
00000000
01000000
00010000
00000000
01000000
00000000
20000000
00000000
00000000
00000000
00000000
30010000
00000000
00000000
00000000
,
01000000
00000000
00001000
00000000
00010000
00000010
00000000
00000200
00000000
00000000
00000000
00000000
00000301
00000000
00000000
00000000
,
00000010
00000000
00000000
00000110
00000000
00000000
00010100
00000000
00000000
00000000
00001000
00000000
01000000
00020000
00000000
00000000
,
00230000
00000000
00000000
02300000
00000000
00000000
13000000
00000000
,
00010000
00000000
01000000
00001000
00000000
00010000
00000000
02000000
00000000
00000000
00000000
00000000
03100000
00000000
00000000
00000000
,
00001000
00000000
00010000
00000000
00000010
00000100
00000000
00000002
00000000
00000000
00000000
00000000
00002003
00000000
00000000
00000000
,
00003100
00010000
00000100
00010000
00000000
00001000
01000000
00001000
00000000
01000000
00100000
01000000
00000000
00100000
10000000
00010000
;

//---------------dance-double - ----------------
#NOTES:
     dance-double:
     :
     Medium:
     8:
     0.353,0.329,0.086,0.086,0.060: // measure 1
00000000
00000000
00000000
00000000
,  // measure 2
00000000
00000000
00000000
00000000
,  // measure 3
00000000
00000000
00000000
00000000
,  // measure 4
00000000
00000000
00000000
00000000
,  // measure 5
00010000
00000100
00001000
00000010
,  // measure 6
00000100
00000001
00000100
00000010
,  // measure 7
00010000
00001000
00010000
00000000
00000000
00000000
00000000
01000000
,  // measure 8
00100000
00000000
00000000
00010000
10000000
00000000
10010000
00000000
,  // measure 9
00010000
00000000
01000000
00002000
00000000
00003000
00010000
00000000
,  // measure 10
00000100
00001000
00000010
00001000
00000100
00000000
00000010
00000000
,  // measure 11
00000001
00000000
00000100
00000010
00000100
00000000
00000001
00000000
,  // measure 12
00001000
00000000
00000000
00001000
00000000
00000000
00001000
00000000
00000000
00000000
00000000
00000000
00001100
00000000
00000000
00000000
,  // measure 13
00000100
00000000
00010000
00002000
00000000
00003000
01000000
00000000
,  // measure 14
00010000
00100000
01000000
00100000
00010000
00000000
10000000
00000000
,  // measure 15
00100000
00000000
10000000
00010000
10000000
00000000
01000000
00000000
,  // measure 16
00010000
00000000
00000000
00001000
00000000
00010000
00000000
00001000
00000000
00000000
00000000
00000000
00000000
00000000
00000000
00000000
,  // measure 17
00010000
00000000
00000100
00000000
00000010
00000000
00000001
00000100
,  // measure 18
00000010
00001000
00000100
00010000
,  // measure 19
00001000
00001000
01000000
01000000
,  // measure 20
00010000
00000000
00100000
00000000
01000000
10000000
00010000
00000000
,  // measure 21
10000000
00000000
00000000
10000000
00000000
00000000
00000000
00000000
00010000
00000000
00000000
00000000
01000000
00000000
00000000
00000000
,  // measure 22
00001000
00000000
00010000
00000000
00000100
00000000
00001000
00000010
,  // measure 23
00001000
00000000
00000010
00000000
00000100
00000001
00001000
00000000
,  // measure 24
00000001
00000010
00000100
00010000
,  // measure 25
00001000
00001000
01000000
01000000
,  // measure 26
00100000
10000000
01000000
10000000
00100000
00000000
10000000
00000000
,  // measure 27
00010000
10000000
01000000
00010000
,  // measure 28
00001000
00010000
00000100
00010000
00001000
00000000
00000100
00000000
,  // measure 29
00000010
00001000
00000001
00000010
,  // measure 30
00000100
00010000
01000000
10000000
,  // measure 31
00010000
00000000
01000000
00000000
00100000
10000000
00010000
00000000
,  // measure 32
20020000
00000000
00000000
30030000
00000000
10010000
00000000
00000000
,  // measure 33
00010000
00000000
10000000
00000000
01000000
00000000
00100000
00001000
,  // measure 34
00010000
00000000
00000100
00000000
00001000
00000010
00001000
00000000
,  // measure 35
00000001
00000000
00000100
00000010
00000000
00000100
00000010
00000000
,  // measure 36
00000100
00000020
00000000
00000030
00000000
00000000
00001000
00000001
,  // measure 37
00001000
00000000
00000100
00000000
00010000
00000000
00001000
01000000
,  // measure 38
00010000
10000000
01000000
00010000
,  // measure 39
00001000
00000000
00000000
00000000
00000100
00000000
00000000
00000000
00000010
00000000
00000000
00000000
00000000
00001000
00000000
00000001
,  // measure 40
00000000
00001000
00000100
00000110
,  // measure 41
00000001
00000100
00001000
00010000
,  // measure 42
00100000
10000000
01000000
00100000
,  // measure 43
00001000
01000000
00001000
00000000
00010000
00000000
00100000
00000000
,  // measure 44
01000000
00001000
00010000
00000100
,  // measure 45
00000010
00000001
00000100
00000000
00001000
00000000
00000100
00000000
,  // measure 46
00000001
00001000
00010000
10000000
,  // measure 47
01000000
00100000
01000000
00000000
10000000
00000000
00100000
01000000
,  // measure 48
00001000
00000000
00010000
00000000
00000000
00011000
00000000
00000000
,  // measure 49
00001000
00000000
00010000
00000000
00000100
00000000
00001000
00000010
,  // measure 50
00000100
00000001
00000010
00000100
,  // measure 51
00010000
00000000
00001000
01000000
00000000
00001000
01000000
00000000
,  // measure 52
00001000
02000000
00000000
03000000
00000000
00000000
00010000
10000000
,  // measure 53
00010000
01000000
00001000
00010000
,  // measure 54
00001000
00000100
00000010
00001000
,  // measure 55
00000001
00000000
00000000
00000000
00000010
00000000
00000000
00000000
00000100
00000000
00000000
00000000
00000000
00001000
00000000
00000001
,  // measure 56
00000000
00000000
00002002
00000000
00000000
00000000
00000000
00000000
00000000
00003003
00000000
00000000
00000000
00000000
00000000
00001001
00000000
00000000
00000000
00000000
00000000
00000000
00000000
00000000
,  // measure 57
00000001
00000000
00000100
00002000
00000000
00003000
00010000
00000000
,  // measure 58
00100000
10000000
00010000
10000000
01000000
00000000
00010000
00000000
,  // measure 59
00001000
00000000
00000010
00000001
00001000
00000000
00000010
00000000
,  // measure 60
00000100
00000000
00000000
00000100
00000000
00000000
00000100
00000000
00000000
00000000
00000000
00000000
00001001
00000000
00000000
00000000
,  // measure 61
00000001
00000000
00000100
00002000
00000000
00003000
00010000
00000000
,  // measure 62
00100000
10000000
00010000
10000000
01000000
00000000
00100000
00000000
,  // measure 63
00001000
00010000
01000000
00000000
00010000
00000000
00000010
00000000
,  // measure 64
00001000
00000000
00000000
00000100
00000000
00000000
00000010
00000000
00000000
00000000
00000000
00000001
00000000
00000000
00000000
00001001
;

//---------------dance-double - ----------------
#NOTES:
     dance-double:
     :
     Easy:
     5:
     0.206,0.247,0.043,0.034,0.009: // measure 1
00000000
00000000
00000000
00000000
,  // measure 2
00000000
00000000
00000000
00000000
,  // measure 3
00000000
00000000
00000000
00000000
,  // measure 4
00000000
00000000
00000000
00000000
,  // measure 5
00010000
00001000
00010000
00000000
,  // measure 6
00001000
00010000
00001000
00000000
,  // measure 7
00010000
01000000
00000000
01000000
,  // measure 8
10000000
00000000
10010000
00000000
,  // measure 9
00010000
01000000
00001000
00001000
,  // measure 10
00010000
00000100
00001000
00000000
,  // measure 11
00000010
00000100
00000001
00001000
,  // measure 12
00000001
00000000
00001001
00000000
,  // measure 13
00001000
00000100
00010000
00001000
,  // measure 14
01000000
01000000
00010000
00000000
,  // measure 15
00100000
01000000
10000000
00000000
,  // measure 16
00100000
00000000
01100000
00000000
,  // measure 17
00000000
10000000
00000000
00010000
,  // measure 18
01000000
00001000
00000000
00010000
,  // measure 19
00000000
00000100
00001000
00000010
,  // measure 20
00000000
00000100
00000000
00000001
,  // measure 21
00001000
00001000
00000100
00010000
,  // measure 22
00001000
01000000
00010000
00000000
,  // measure 23
10000000
01000000
00100000
00000000
,  // measure 24
00010000
00001000
00000100
00000000
,  // measure 25
00000010
00000001
00000100
00000000
,  // measure 26
00001000
00000000
00010000
00000000
,  // measure 27
00100000
10000000
01000000
00000000
,  // measure 28
00010000
00000000
00001000
00000000
,  // measure 29
00000100
00000001
00000010
00000000
,  // measure 30
00001000
00000000
00010000
00000000
,  // measure 31
00100000
10000000
00010000
00000000
,  // measure 32
00000000
00000000
20020000
00000000
00000000
00000000
00000000
00000000
00000000
00000000
00000000
00000000
00000000
00000000
00000000
30030000
00000000
00000000
00000000
00000000
00000000
00000000
00000000
00000000
,  // measure 33
10000000
01000000
01000000
00000000
,  // measure 34
00100000
00000000
00001000
00000000
,  // measure 35
00010000
00000100
00000100
00000000
,  // measure 36
00001000
00000000
00000010
00000000
,  // measure 37
00000100
00000001
00001000
00000000
,  // measure 38
00000100
00000000
00010000
00000000
,  // measure 39
00001000
00100000
01000000
00000000
,  // measure 40
10000000
00000000
00000000
00000000
,  // measure 41
00100000
00000000
00100000
00000000
,  // measure 42
00100000
01000000
00001000
00000000
,  // measure 43
00010000
00000000
00000100
00000000
,  // measure 44
00001000
00000010
00000100
00000000
,  // measure 45
00000001
00000000
00001000
00000000
,  // measure 46
00000001
00000010
00000100
00000000
,  // measure 47
00001000
00000000
00010000
00000000
,  // measure 48
00100000
01000000
10000000
00000000
,  // measure 49
00010000
01000000
00001000
00000000
,  // measure 50
00010000
00000000
00000100
00000000
,  // measure 51
00001000
00000010
00000100
00000000
,  // measure 52
00000001
00000000
00001000
00000000
,  // measure 53
00000001
00000100
00001000
00000000
,  // measure 54
00010000
00000000
00100000
00000000
,  // measure 55
10000000
00010000
10000000
00010000
,  // measure 56
00000000
00000000
20020000
00000000
00000000
00000000
00000000
00000000
00000000
00000000
00000000
00000000
00000000
00000000
00000000
30030000
00000000
00000000
00000000
00000000
00000000
00000000
00000000
00000000
,  // measure 57
10000000
00000000
01000000
00000000
,  // measure 58
00010000
00001000
00010000
00000000
,  // measure 59
00001000
00000000
00000100
00000000
,  // measure 60
00000001
00001000
00000001
00000000
,  // measure 61
00000010
00000000
00001000
00000000
,  // measure 62
00010000
00001000
00010000
00000000
,  // measure 63
00100000
00000000
10000000
00000000
,  // measure 64
00010000
10000000
01000000
00010000
,  // measure 65
00001000
00000000
00000000
00000000
;
