#TITLE:Stop Violence!;
#SUBTITLE:;
#ARTIST:Herbie Hammock & His Band;
#TITLETRANSLIT:;
#SUBTITLETRANSLIT:;
#ARTISTTRANSLIT:;
#GENRE:;
#CREDIT:Silverhawke & The Mirror of UM2;
#MENUCOLOR:;
#METERTYPE:DDR;
#BANNER:Stop Violence!.png;
#BACKGROUND:Stop Violence!-bg.png;
#LYRICSPATH:;
#CDTITLE:;
#MUSIC:Stop Violence!.mp3;
#OFFSET:-0.028;
#SAMPLESTART:67.443;
#SAMPLELENGTH:15.000;
#SELECTABLE:YES;
#LISTSORT:;
#DISPLAYBPM:113.000;
#BPMS:0.000=113.000;
#STOPS:;
#BGCHANGES:0.000=Stop Violence!.avi=1.000=1=0=0,
99999=-nosongbg-=1.000=0=0=0 // don't automatically add -songbackground-
;
#ATTACKS:;

//---------------dance-single - ----------------
#NOTES:
     dance-single:
     :
     Hard:
     10:
     0.361,0.406,0.107,0.289,0.294:
0000
0000
0000
0000
,
0000
0000
0000
0000
,
0000
0000
0000
0000
,
0000
0000
0000
0000
,
1000
0000
0001
2000
0000
0000
0010
0000
,
0010
0000
3010
0001
0010
0100
1000
0100
,
0020
0000
0130
0020
0030
0200
0000
0000
,
0301
0000
1000
0001
1000
0000
0000
0000
,
0101
0001
1000
0100
1000
1000
1000
1000
,
0110
0010
1000
0001
0010
0010
0010
0010
,
0001
0001
0100
1000
0020
0000
0000
0030
,
1000
0010
0100
0010
0022
0000
0000
0000
,
0033
0000
0000
0000
0001
0010
0000
0100
0000
1000
0000
0010
0000
0200
0000
0000
,
0020
0300
0000
0000
0000
0000
0000
0000
0000
0000
0000
0000
0000
0000
0000
0000
0000
0000
0000
0000
0000
0000
0000
0000
0000
0000
0000
0000
0000
0000
0000
0000
0000
0000
0000
0000
0030
0000
0000
0000
0000
0000
0000
0000
0000
0000
0000
0000
1000
0000
0000
0000
0000
0000
0000
0000
0000
0000
0000
0000
0010
0000
0000
0000
0000
0000
0000
0000
0000
0000
0000
0000
1000
0000
0000
0000
0000
0000
0000
0000
0000
0000
0000
0000
0010
0000
0000
0000
0000
0000
0000
0000
0000
0000
0000
0000
1000
0000
0000
0000
0000
0000
0000
0000
0000
0000
0000
0000
0020
0000
0000
0000
0000
0000
0000
0000
0000
0000
0000
0000
0000
0000
0000
0000
0000
0000
0000
0000
0000
0000
0000
0000
0000
0000
0000
0000
0000
0000
0000
0000
0000
0000
0000
0000
0000
0000
0000
0000
0000
0000
0000
0000
0000
0000
0000
0000
0000
0000
0000
0000
0000
0000
0000
0000
0000
0000
0000
0000
0000
0000
0000
0000
0000
0000
0000
0000
0000
0000
0000
0000
0030
0000
0000
0000
0000
0000
0000
0000
0000
0000
0000
0000
,
0000
0000
1000
0000
0001
0000
1100
0000
0010
0000
0000
1000
0010
0000
0000
0000
,
0220
0000
0000
0330
1000
0000
0100
0000
0010
0000
0002
0000
0000
0000
0000
0000
,
0000
0000
0000
0003
1000
0100
0000
0010
0000
0001
0000
0010
0000
0200
0000
0000
,
0000
0000
0000
0300
1000
0000
1000
0000
0010
0000
0010
0000
0000
0000
0000
0000
,
1000
0001
0100
0010
1000
0001
0100
0010
,
1000
0010
0000
0010
0000
0010
0000
0010
0000
0010
0000
0010
0100
0000
0100
0000
,
0220
0000
0000
0000
0000
0000
0000
0000
0000
0000
0000
0000
0000
0000
0030
0300
,
1000
0000
0000
0000
0100
0000
0002
0000
0000
0003
2000
0000
0000
0000
0000
0000
,
0000
0000
3000
0000
0001
0010
0000
0100
0000
1000
0000
0010
0000
0200
0000
0000
,
0000
0000
0000
0000
0300
0000
1000
0020
,
0000
0000
0000
0000
0000
0000
0000
0030
1000
0000
0001
0000
1000
0000
0001
0000
,
1000
0000
0001
0000
0100
0001
0000
0000
0100
0001
0000
0000
0100
0000
0200
0000
,
0000
0300
0000
0000
1000
0100
0000
0100
0000
0010
0000
0001
0000
0020
0000
0000
,
0000
0000
0000
0000
0000
0000
0000
0030
0001
0010
0001
0010
0001
0010
0000
0000
,
0200
0000
0000
0000
0000
0000
0000
0000
0000
0000
0000
0000
0000
0000
0000
0300
,
1000
0100
1000
0100
1000
0000
0000
0000
0100
0001
0100
0001
0100
0001
0100
0000
,
1001
0000
0000
0000
0010
0000
1001
0000
0000
1001
0000
0000
0000
0000
0000
0000
,
0100
0010
0100
0010
0100
0000
0000
0000
1000
0000
0000
0001
0000
0000
0000
0000
,
2000
0000
0000
0000
0000
0000
0000
3000
,
0010
0000
0100
0000
0100
0010
0100
0010
,
0200
0000
0301
0000
0001
0000
1000
0001
,
1000
0001
1000
0001
1000
0000
0000
0000
1001
0000
0000
0000
1000
0000
0001
2000
,
0000
0000
0000
0000
0000
0000
0000
0000
0000
0000
3000
0000
0010
0000
0010
0200
,
0000
0000
0000
0000
0000
0000
0000
0000
0000
0000
0000
0000
0000
0300
0000
0000
,
1000
0000
0010
0000
0100
0000
0010
0000
1000
0000
0010
1000
0010
0000
1000
0000
,
0010
1000
0000
1000
0000
1000
0000
1000
0000
1000
0000
1000
0001
0000
1000
0000
;

//---------------dance-double - ----------------
#NOTES:
     dance-double:
     :
     Easy:
     5:
     0.159,0.213,0.043,0.011,0.027: // measure 1
00000000
00000000
00000000
00000000
,  // measure 2
00000000
00000000
00000000
00000000
,  // measure 3
00000000
00000000
00000000
00000000
,  // measure 4
00000000
00000000
00000000
00000000
,  // measure 5
10000000
00000000
10000000
00000000
,  // measure 6
00010000
00000000
00000010
00000100
,  // measure 7
00001000
00000000
00001000
00000000
,  // measure 8
00011000
00000000
00000000
00000000
,  // measure 9
00100000
00100000
00100000
00000000
,  // measure 10
00001000
00001000
00001000
00000000
,  // measure 11
00010000
00000100
00000100
00000000
,  // measure 12
00001000
00000010
00000010
00000000
,  // measure 13
00000000
00000000
00010000
00001000
00000010
00001000
00000000
00000000
,  // measure 14
00010000
00000000
00000000
00000000
,  // measure 15
00000001
00000010
00000100
00001000
,  // measure 16
00000100
00000000
00000000
00000000
,  // measure 17
00000000
00000000
00010000
00000100
00000010
00000001
00000010
00000000
,  // measure 18
00000000
00001000
00000000
00010000
,  // measure 19
00000000
00100000
00000000
00000100
,  // measure 20
00000000
00000000
00100000
00000000
00000000
00000000
00000100
00000100
,  // measure 21
00010000
00000000
00000000
00000000
,  // measure 22
00000010
00000100
00000000
00100000
,  // measure 23
00010000
00000000
00001000
00000000
00000000
00000000
00000001
00000001
,  // measure 24
00000000
00010000
00000000
00010000
,  // measure 25
00001000
00000000
00010000
00000000
,  // measure 26
00010000
00011000
00010100
00011000
,  // measure 27
00000000
00000000
00010000
00000000
00001000
00000010
00000001
00000000
,  // measure 28
00000000
00000000
00000000
00000000
00001000
00001000
00001000
00001000
,  // measure 29
00000002
00000000
00000000
00000000
,  // measure 30
00000000
00000000
00000000
00000000
00000000
00000000
00000000
00000003
,  // measure 31
00100000
00000000
00000000
01000000
00000000
00000000
00000000
00000000
,  // measure 32
10000000
10000000
10000000
10000000
10000000
00000000
00000000
00000000
,  // measure 33
00010000
00000000
10000000
00000000
,  // measure 34
00100000
00100000
00100000
00000000
,  // measure 35
01000000
00000000
01000000
00000000
,  // measure 36
10000000
10000000
10000000
00000000
,  // measure 37
00010000
00000000
00010000
00000000
,  // measure 38
00000010
00001000
00010000
00000000
,  // measure 39
10000000
00000000
01000000
00100000
,  // measure 40
00010000
00001000
00000000
00001000
00000000
00001000
00000000
00001000
00000000
00001000
00000000
00000000
00010000
00000000
00000000
00000000
;

//---------------dance-double - ----------------
#NOTES:
     dance-double:
     :
     Medium:
     8:
     0.266,0.363,0.139,0.150,0.064: // measure 1
00000000
00000000
00000000
00000000
,  // measure 2
00000000
00000000
00000000
00000000
,  // measure 3
00000000
00000000
00000000
00000000
,  // measure 4
00000000
00000000
00000000
00000000
,  // measure 5
01000000
00010000
01000000
00010000
00000000
00000000
00001000
00010000
,  // measure 6
00001000
00010000
00001000
00000000
00100000
00100000
00001000
00001000
,  // measure 7
00000110
00000000
00000000
00000110
00000000
00000000
00000000
00000000
,  // measure 8
10010000
00000000
00000000
00000000
,  // measure 9
10000000
01000000
10000000
01000000
10000000
01000000
10000000
01000000
,  // measure 10
00100000
00010000
00100000
00010000
00100000
00010000
00100000
00010000
,  // measure 11
00100000
00010000
00100000
00010000
00000020
00000000
00000000
00000030
,  // measure 12
00000100
00000000
00010000
00000000
00022000
00000000
00000000
00033000
,  // measure 13
00100000
00000000
00010000
00010000
00001000
00001000
00000010
00000000
,  // measure 14
00000000
00000000
00000100
00001000
00110000
00000000
00000000
00000000
,  // measure 15
00010000
00100000
10000000
01000000
,  // measure 16
00020000
00000000
00000100
00000000
00000100
00000100
00030000
00000000
,  // measure 17
00001000
00000100
00000010
00000002
,  // measure 18
00000000
00000003
00100000
00000000
00001000
00001000
00000000
00000000
,  // measure 19
00010100
00001000
00000110
00000001
,  // measure 20
00000010
00000100
00000000
00000100
00000000
00000100
00000000
00000100
00000000
00000100
00000000
00001000
00000100
00000000
00001000
00000000
,  // measure 21
00011000
00000000
00000000
00000000
,  // measure 22
00100000
00100000
00010000
00010000
,  // measure 23
00001000
00000000
00000000
00000000
00000100
00000100
00000100
00000200
,  // measure 24
00000000
00000000
00001000
00001300
,  // measure 25
00002000
00000000
00000000
00003000
00100000
00000000
00001000
00000000
,  // measure 26
00010000
00011000
00011000
00011000
,  // measure 27
00000000
00100000
00000000
00010000
,  // measure 28
00000000
00000000
00000000
00000000
00001000
00000100
00001000
00000100
,  // measure 29
00002200
00000000
00000000
00000000
,  // measure 30
00000000
00000000
00000000
00000000
00000000
00000000
00000000
00003300
,  // measure 31
00001000
00000000
00000000
00001000
00000000
00000000
00000000
00000000
,  // measure 32
00100000
00010000
00000010
00010000
01000000
00100000
10000000
00000000
,  // measure 33
20020000
00000000
00000000
00000000
00000000
00000000
00000000
30030000
,  // measure 34
01000000
01000000
00100000
00100000
10000000
00000000
00010000
00000000
,  // measure 35
20000000
00000000
00000000
00000000
00010000
00000000
01000000
30000000
,  // measure 36
00020000
00000000
00100000
01000000
,  // measure 37
00230000
00000000
00000000
00300000
00010000
00000000
00000000
00000000
,  // measure 38
00000010
00000000
00000100
00000000
00010000
00010000
00010000
00000000
,  // measure 39
00010000
00000000
00001000
00000000
00010000
00001000
00010000
00001000
,  // measure 40
10000000
01000000
00000000
00010000
00000000
00000100
00000000
00010000
00000000
01000000
00000000
10000000
01000000
00000000
10000000
00000000
;

//---------------dance-double - ----------------
#NOTES:
     dance-double:
     :
     Hard:
     10:
     0.379,0.406,0.032,0.107,0.118: // measure 1
00000000
00000000
00000000
00000000
,  // measure 2
00000000
00000000
00000000
00000000
,  // measure 3
00000000
00000000
00000000
00000000
,  // measure 4
00000000
00000000
00000000
00000000
,  // measure 5
00011000
00000000
00010000
01000000
10000000
01000000
00010000
00001000
,  // measure 6
00000010
00000000
00000001
00000100
00000010
00001000
00000100
00010000
,  // measure 7
00001000
00000000
00000000
00001000
00000000
00000000
01000000
00000000
00000000
01000000
00000000
00000000
00100000
00000000
10000000
00000000
,  // measure 8
00010000
01000000
00000000
01000000
,  // measure 9
00100000
10000000
00010000
00000000
01000000
00001000
00010000
00000000
,  // measure 10
01000000
00010000
00001000
00000010
00000001
00000100
00000010
00000000
,  // measure 11
00001000
00000100
00010000
00000000
00001000
00100000
01000000
10000000
,  // measure 12
10000000
00100000
00010000
00000000
00001000
00000001
00000010
00001000
,  // measure 13
00000100
00000000
00010000
00001000
01000000
01000000
00100000
10000000
,  // measure 14
02000000
00000000
00010000
00000000
13000000
01000000
00001000
00010000
,  // measure 15
00000020
00000000
00000000
00000000
00000031
00000000
00000100
00000000
00000010
00000000
00000000
00000010
00010000
00000000
00000000
00010000
,  // measure 16
00001000
00000000
01000000
00001000
01001000
00000000
00010100
00000000
,  // measure 17
00001000
01000000
10000000
01000000
00010000
00000100
00000001
00000000
,  // measure 18
00000001
00000010
00001000
00100000
00010000
10000000
00100000
00000000
,  // measure 19
01000000
00000000
00010000
00000000
00100000
00000000
00000000
00000000
00001000
00000000
00000000
00001000
00010000
00000000
00000000
00000000
,  // measure 20
00010000
00000100
00000000
00000010
00000000
00000100
00000000
00000010
00000000
00000100
00000000
00000000
00001000
00000000
00000010
00000100
,  // measure 21
00020000
01000000
10000000
00100000
,  // measure 22
00032000
00000100
00000001
00000010
,  // measure 23
00013000
01000000
10000000
01000000
00010000
00001000
00000010
00000000
,  // measure 24
00001000
00000100
00000001
00000100
00001000
00010000
00100000
00000000
,  // measure 25
00020000
00000000
01000000
00000000
00001000
00000000
10030000
00100000
,  // measure 26
00002000
00000000
00000100
00000000
00000001
00000000
00013000
00000010
,  // measure 27
00000100
00000000
00001000
00010000
00100000
01000000
00001000
00010000
,  // measure 28
02000000
00000000
10000000
00000000
03100000
00001000
00010000
00001000
,  // measure 29
00000200
00000000
00000010
00000000
00000000
00000010
00000310
00000000
,  // measure 30
00020000
00000000
00000000
00000000
00001000
00000000
00000000
00000000
00031000
00010000
00001000
00010000
00001000
00000000
00000000
00000000
,  // measure 31
02000000
00000000
00100000
00000000
00000000
00100000
03100000
00000000
,  // measure 32
00010000
00001000
00010000
00001000
00010000
00001000
00010000
00000000
00001000
00000000
00000100
00000000
00000001
00000000
00000000
00000000
,  // measure 33
00000001
00000010
00000100
00001000
00010000
00000010
00000100
00000000
,  // measure 34
00010000
00001000
01000000
00100000
00010000
00001000
01000000
00000000
,  // measure 35
00100000
10000000
01000000
00010000
00001000
00010000
01000000
00000000
,  // measure 36
00100000
00001000
00010000
00001000
00000100
00000010
00001000
00000000
,  // measure 37
00000001
00001000
00010000
01000000
00100000
01000000
00010000
00000000
,  // measure 38
10000000
00010000
00001000
00000100
00000010
00000100
00001000
00000000
,  // measure 39
00000001
00000000
00000100
00000000
00001000
00000000
00010000
00000000
00100000
00000000
10000000
00010000
10000000
00000000
00000000
00000000
,  // measure 40
10000000
01000000
00000000
01000000
00010000
00000000
00010000
00001000
00000000
00001000
00000010
00000000
00000001
00000000
00001000
00000100
;

//---------------dance-single - ----------------
#NOTES:
     dance-single:
     :
     Medium:
     8:
     0.306,0.298,0.096,0.064,0.000:
0000
0000
0000
0000
,
0000
0000
0000
0000
,
0000
0000
0000
0000
,
0000
0000
0000
0000
,
1000
0000
0010
0000
0100
0001
0010
0000
,
0100
0000
1000
0000
0010
0100
1000
0000
,
0100
0000
0001
0000
0010
1000
0001
0000
,
0100
1000
0001
0100
,
0010
0000
0010
0000
0100
0001
1000
0000
,
0100
0000
0100
0000
0010
0001
1000
0000
,
0010
0000
0010
0000
0110
0000
0100
0001
,
1000
0000
1000
0000
0110
0000
0010
0001
,
0100
0000
0010
0000
1000
0100
0001
0100
,
1000
0000
0010
0000
0100
1000
0100
0000
,
0001
0000
1000
0100
0010
0000
0001
0000
,
1000
0000
0010
0000
0100
0100
0001
1000
,
0100
0000
0010
0000
0001
0010
0100
0000
,
1000
0000
0001
0000
0100
1000
0100
0000
,
0001
0000
0010
0000
0100
1000
0100
0000
,
0020
0000
0000
0000
0100
0100
0130
0000
,
1000
0002
0100
0000
0010
0000
0103
0000
,
0001
2000
0010
0000
0100
0000
3010
0000
,
1000
0001
0010
0000
0100
0010
0001
0000
,
0100
0000
0010
0000
0100
0100
0100
0000
,
0010
2000
0001
0000
0010
0000
3100
0000
,
0010
0002
1000
0000
0100
0000
0013
0000
,
0001
1000
0100
1000
0010
0000
0100
0001
,
0020
1000
0100
0031
,
1000
0000
1100
0000
0000
0001
0001
0000
,
0001
0000
0101
0000
0000
1000
1000
0000
,
0010
0000
1010
0000
0000
0100
0100
0000
,
0001
0010
1000
0010
0001
0000
0100
0000
,
1010
0000
0100
0000
0001
0010
0100
0000
,
0011
0000
0100
0000
1000
0010
0100
0000
,
0101
0000
1000
0000
0010
0100
0001
0000
,
1100
0000
0001
0000
0010
0100
1000
0000
,
0001
0100
1000
0000
0100
0001
1000
0000
,
1000
0100
0001
0000
0100
1000
0001
0000
,
0010
1000
0100
0000
0100
0001
0010
0000
,
0100
1000
0001
1000
0100
0010
0100
0000
;

//---------------dance-single - ----------------
#NOTES:
     dance-single:
     :
     Easy:
     3:
     0.156,0.170,0.011,0.032,0.000:
0000
0000
0000
0000
,
0000
0000
0000
0000
,
0000
0000
0000
0000
,
0000
0000
0000
0000
,
1000
0001
0000
0100
,
0001
0010
0000
0100
,
1000
0010
1000
0010
,
0100
0001
0010
0000
,
0100
0000
0100
0000
,
1000
1000
0001
0000
,
0100
0000
0100
0000
,
0001
0001
1000
0000
,
0010
1000
0100
0001
,
0020
0000
0030
0000
,
0100
0001
0010
1000
,
0200
0000
0300
0000
,
0010
1000
0001
0000
,
0010
0001
1000
0000
,
0100
1000
0001
0000
,
0100
0000
0000
0000
,
0010
0010
0010
0000
,
0100
0000
0001
0000
,
1000
0100
0001
0100
,
1000
0000
0001
0000
,
0100
0000
0010
0000
,
0100
0001
0010
0000
,
0100
1000
0001
1000
,
0100
0000
0010
0001
,
0100
0000
0010
0000
,
0100
0010
0100
0000
,
0010
0000
0100
0000
,
0010
0100
0010
0000
,
1001
0000
0100
0010
,
0100
0000
0001
1000
,
0001
0000
0010
0100
,
1000
0000
0010
0100
,
0001
0000
0100
1000
,
0100
0000
0010
1000
,
0010
0000
0100
0001
,
2000
0000
0000
3000
;

//---------------dance-single - ----------------
#NOTES:
     dance-single:
     :
     Beginner:
     1:
     0.080,0.106,0.000,0.011,0.000:
0000
0000
0000
0000
,
0000
0000
0000
0000
,
0000
0000
0000
0000
,
0000
0000
0000
0000
,
0100
0000
0000
0000
,
0010
0000
0000
0000
,
1000
0000
0001
0000
,
1000
0000
0000
0000
,
0100
0000
1000
0000
,
0010
0000
0001
0000
,
0100
0000
1000
0000
,
0001
0000
1000
0000
,
0001
0000
0000
0000
,
0010
0000
0000
0000
,
0010
0000
0000
0000
,
1000
0000
0000
0000
,
0001
0000
0010
0000
,
0100
0000
0100
0000
,
0010
0000
0010
0000
,
0010
0000
0000
0000
,
0010
0000
0000
0000
,
0100
0000
0000
0000
,
0010
0000
0000
0000
,
0100
0000
0000
0000
,
0100
0000
0010
0000
,
0100
0000
0000
0000
,
0100
0000
1000
0000
,
0010
0000
0000
0000
,
1000
0000
0100
0000
,
0100
0000
0000
0000
,
1000
0000
0010
0000
,
0100
0000
0000
0000
,
0010
0000
0000
0000
,
1000
0000
0000
0000
,
0010
0000
0000
0000
,
0010
0000
0000
0000
,
0001
0000
1000
0000
,
0010
0000
1000
0000
,
0100
0000
1000
0000
,
2000
0000
0000
3000
;
