#TITLE:少年は空を辿る;
#SUBTITLE:;
#ARTIST:Power Of Nature;
#TITLETRANSLIT:Shounen wa sora wo tadoru;
#SUBTITLETRANSLIT:;
#ARTISTTRANSLIT:;
#GENRE:;
#CREDIT:Silverhawke;
#MENUCOLOR:;
#METERTYPE:DDR;
#BANNER:Shounen wa sora wo tadoru.png;
#BACKGROUND:Shounen wa sora wo tadoru-bg.png;
#LYRICSPATH:;
#CDTITLE:cdtitle.png;
#MUSIC:Shounen wa sora wo tadoru.mp3;
#OFFSET:-0.028;
#SAMPLESTART:57.228;
#SAMPLELENGTH:15.000;
#SELECTABLE:YES;
#LISTSORT:;
#BPMS:0.000=140.000;
#STOPS:;
#BGCHANGES:;
#ATTACKS:;

//---------------dance-single - ----------------
#NOTES:
     dance-single:
     :
     Hard:
     14:
     0.619,0.661,0.226,0.117,0.587:
0000
0000
0000
0000
,
0000
0000
0000
0000
,
0000
0101
0000
0000
1100
0000
0000
0000
0000
1010
0000
0000
0011
0000
0000
0000
,
0000
1001
0000
0000
0110
0000
0000
0000
0000
1010
0000
0000
0101
0000
0000
0000
,
0000
0011
0000
0000
1100
0000
0000
0000
0000
0110
0000
0000
1001
0000
0000
0000
,
1000
0100
0000
0100
0010
0000
0001
0100
0000
0100
0010
1000
0100
0000
0100
0010
,
0000
0001
0100
0010
1000
0100
0010
0000
0010
0001
0000
1000
0010
0000
0010
0100
,
0001
0000
0001
0000
0000
1000
0000
0100
0000
0010
0000
0000
0001
0100
0010
0000
,
0010
0000
0000
1000
0000
0100
0000
0010
0000
0000
0100
1000
0002
0000
0000
0000
,
0000
0000
0000
0000
2000
0000
0000
0000
0000
0000
3003
0000
0001
0000
1000
0100
,
1000
0010
0100
0001
0010
0100
1000
0010
,
0100
0000
0001
1000
0001
0000
0010
0000
0100
0000
1000
0001
1000
0000
0010
0000
,
0110
0100
0101
0001
,
0011
0010
0110
1001
,
1000
0100
0010
0001
,
0010
0000
0100
1000
0010
0100
0001
0011
,
0000
0010
0000
0110
0000
0100
0000
1100
,
0000
1000
0000
1010
0000
0101
0000
0001
,
0000
0010
0000
0100
0000
1000
0000
0100
,
0000
0010
0001
0100
0010
1000
0100
0100
,
0000
0010
0000
0010
0000
0001
0000
0000
1000
0000
1000
0010
0100
0000
0100
0000
,
0000
0001
0000
0001
0000
0000
1000
0000
1000
0000
0100
0010
0001
0000
0100
0000
,
1000
0100
0001
0010
1000
0010
0001
0100
,
0010
0000
1000
0000
0100
0010
0100
0000
1000
0000
0100
0000
0001
0000
0100
0000
,
1000
0010
0001
0010
1000
0100
0010
0001
,
0100
0010
0100
0000
0001
0010
0001
0000
1000
0000
0010
0100
0000
0000
0001
0000
,
1000
0000
0100
0010
0100
0000
0010
0000
0001
1000
0000
0000
1000
0000
0100
0000
,
1000
0010
1000
0000
0001
0000
0010
0100
0000
0000
1000
0000
0001
0000
0100
0010
,
0100
0000
0010
0000
1000
0001
0000
0000
0010
0100
0010
0000
0001
0000
0100
0000
,
0100
0000
0010
0000
0010
0000
1000
0000
1000
0000
0100
0010
0100
0010
0001
0000
,
0001
0100
0000
2002
0000
0000
0000
0000
,
0000
0000
0000
3003
0000
0000
0000
0000
,
0000
0000
0000
0000
,
0000
0000
0000
0000
0000
0000
0001
0010
0001
0000
1000
0000
0100
0010
0000
0010
,
0001
0000
0100
0000
0010
1000
0000
1000
0100
0000
0010
0000
0001
0100
0000
0000
,
0001
0000
0000
1000
0000
0000
0001
0000
1000
0000
0100
0000
1000
0000
0010
0000
1000
0000
0000
0000
0001
0000
0000
0000
0100
0000
0010
0000
0000
0000
0010
0000
,
1000
0000
0100
0000
0010
0001
0000
0001
0100
0000
0010
0000
1000
0100
0000
0000
,
1000
0000
0000
0001
0000
0000
1000
0000
0001
0000
0100
0000
0002
0000
0000
0000
0000
0000
0000
0000
0000
0000
0000
0000
0000
0000
0000
0000
0000
0000
0000
0000
,
0000
0000
0000
0000
0003
0000
1000
0000
0001
0010
0001
0000
1000
0100
0000
0000
,
1000
0000
0000
0010
0000
0000
0100
0000
0001
0000
1000
0000
0001
0000
0010
0000
0001
0000
0000
0000
0100
0000
0000
0000
0010
0000
1000
0000
0000
0000
1000
0000
,
0100
0000
0010
0000
0001
0100
0000
0100
0010
0000
1000
0000
0100
0010
0000
0000
,
0001
0000
0000
0010
0000
0000
0100
0000
1000
0000
0001
0000
1000
0000
0000
0000
1000
0000
0000
0000
0000
0000
0100
0000
0000
0000
0100
0000
0000
0000
0010
0000
,
0000
0000
0001
0100
0010
0000
0010
0000
0000
1000
0000
1000
0000
0100
0000
0000
,
0010
0001
1000
0000
0100
0000
0001
0000
1000
0000
0010
0000
0001
0000
0010
0000
,
1000
0001
0100
1000
0010
0001
1000
0100
,
0001
1000
0100
0010
0001
1000
0100
0020
,
0032
0203
0310
1000
0001
0020
0130
1000
,
0001
2000
3010
0100
0001
1000
0010
0200
,
0301
0200
0310
1000
0001
0020
0130
2002
,
3003
0000
0001
0100
0000
0100
0001
0000
1000
0000
0100
0010
0000
0010
0100
0000
,
1000
0000
0010
0100
0000
0100
0010
0000
1000
0000
0001
0010
0000
0010
0001
0000
,
0100
0000
0000
0000
0000
0000
0010
0000
0000
1000
0000
0000
0000
0000
0000
1000
0000
0000
0100
0000
0000
0000
0000
0000
0010
0000
0000
0000
0000
0000
0001
0000
0000
0000
0010
0000
0000
0000
0100
0000
0000
0000
1000
0000
0000
0000
0000
0000
,
0001
0000
0000
1000
0000
0000
0010
0000
0000
0100
0000
0000
0001
0000
0000
1000
0000
0100
0000
0010
0000
0001
0000
0010
,
0000
0100
0000
1000
0000
0010
0000
1000
0000
0010
0000
0100
0000
0100
0000
0001
0000
0010
0000
0001
0000
0010
0000
0100
,
0000
0100
0000
1000
0000
0010
0000
1000
0000
0010
0000
0100
0000
0100
0000
0001
0000
0010
0000
0001
0000
0010
0000
0100
,
0000
0100
0000
1000
0000
0100
0000
0010
0000
0001
0000
0100
0000
0100
0000
0001
0000
0010
0000
0100
0000
1000
0000
0010
,
0000
0010
0000
1000
0000
0010
0000
0100
0000
0001
0000
0010
0000
0010
0000
0001
0000
0100
0000
0010
0000
1000
0000
0100
,
0000
0100
0000
1000
0000
0001
0000
1000
0000
0001
0000
0010
0000
0010
0000
0001
0000
1000
0000
0001
0000
1000
0000
0100
,
0000
0100
0000
1000
0000
0001
0000
1000
0000
0001
0000
0100
0000
0100
0000
0001
0000
1000
0000
0001
0000
1000
0000
0010
,
0000
0010
0000
1000
0000
0100
0000
0010
0000
0001
0000
0100
0000
0010
0000
1000
0000
0001
0000
0010
0000
0100
0000
1000
,
0000
0001
0000
0100
0000
0000
0100
0000
0000
1000
0000
0000
0100
0000
0000
0100
0000
0000
0001
0000
0000
0010
0000
0000
,
0010
0100
1000
0100
1000
0010
0100
0001
,
1000
0010
0010
0001
0010
0010
1000
0100
,
0100
0010
0001
0010
0001
0100
0010
1000
,
0100
0010
0010
1000
0010
0010
0001
0100
,
0100
0010
1000
0010
1000
0001
0010
0100
,
1000
0100
0100
0001
0100
0100
1000
0010
,
0010
0100
0001
0010
1000
0010
0001
0100
,
0010
1001
0000
0000
0000
0010
0000
0001
,
1000
1100
0000
0000
0000
0101
0000
0000
,
0000
1001
0000
0000
0000
0100
0000
0110
,
0000
0110
0000
0000
0000
1001
0000
0000
,
0000
0020
0000
0030
0000
0000
0000
1000
,
0001
0100
0000
0000
0000
0010
0000
0000
,
0000
1000
0000
0000
0000
0000
0000
0100
,
0000
0100
0000
0000
0000
0010
0000
0000
;

//---------------dance-single - ----------------
#NOTES:
     dance-single:
     :
     Challenge:
     16:
     0.775,0.914,0.087,0.211,0.966:
0000
0000
0000
0000
,
0000
0000
0000
0000
,
0001
0010
0000
0010
0100
0000
1000
0000
0010
0100
0000
0100
0001
0000
0010
0000
,
0001
0100
0000
0100
0010
0000
1000
0000
0100
0010
0000
0010
0001
0000
0100
0000
,
0010
1000
0000
1000
0100
0000
0010
0000
0001
0100
0000
0100
0010
0000
1000
0000
,
0001
0100
0000
0010
1000
0000
0100
0010
0000
0001
0100
0010
1000
0000
0100
0010
,
0000
0001
0100
0010
1000
0100
0010
0000
0100
1000
0000
0010
0100
0000
0001
1000
,
0100
0000
0100
0000
0000
0010
0000
0010
0000
0001
0000
0000
0100
0010
1000
0000
,
1000
0000
0000
0100
0000
0100
0000
0010
0000
0000
0001
1000
0200
0000
0000
0000
,
0000
0000
0000
0000
1300
0000
0010
0000
1000
0000
0010
0000
0100
0000
0001
0010
,
0001
0000
0100
0000
0010
0000
1000
0000
0100
0000
0010
0000
0001
0000
0100
0010
,
0100
0000
0001
1000
0001
0000
0010
0000
0100
0000
1000
0001
1000
0000
0010
0000
,
0101
0100
0000
1000
0100
0000
0001
0100
,
0001
0010
0100
0000
0011
0000
1100
0100
,
0010
0000
0001
0100
0000
1000
0100
0000
,
0001
0010
0000
1000
0010
0000
0001
0101
,
0000
1000
0100
0010
0001
0100
0000
1000
,
0100
0000
0001
0101
0000
1010
1000
0000
,
0001
0010
0000
1000
0010
0000
0001
0100
,
0000
1000
0100
0000
0001
1000
0010
0010
,
0000
0100
0000
0100
0000
0001
0000
0000
0010
0000
0010
0100
1000
0000
1000
0000
,
0000
0010
0000
0010
0000
0000
0100
0000
0100
0000
0001
1000
0001
0100
0010
0100
,
0000
0001
1000
0001
0000
0010
0100
0010
0000
0100
1000
0100
0000
1000
0010
1000
,
0010
0000
0100
0001
0100
0001
0010
0100
0000
1000
0100
1000
0000
0001
0100
0001
,
0000
1000
0010
1000
0000
0001
0010
0001
0000
0100
0010
0100
0010
0000
1000
0001
,
1000
0001
0010
0100
1000
0010
1000
0010
0100
0000
0001
0010
0000
0000
0001
0000
,
0100
0000
0010
1000
0010
1000
0001
0000
0010
0100
0000
0000
1000
0000
0010
0000
,
1000
0100
1000
0100
0010
0000
0001
0100
0000
0000
0010
1000
0010
1000
0001
0010
,
0100
1000
0001
0000
1000
0100
0000
0000
0010
0001
0010
0000
0100
0000
0001
0000
,
0001
0000
0100
0000
0100
0000
1000
0000
1000
0000
0010
0100
0010
0100
0001
0000
,
0001
0010
0000
2002
0000
0000
0000
0000
,
0000
0000
0000
3003
0000
0000
0000
0000
,
0000
0000
0000
0000
,
1000
0000
0000
0100
0000
0000
1000
0000
0001
0000
0000
0000
1000
0000
0100
0000
1000
0000
0000
0000
0001
0000
0100
0000
0010
0000
0100
0000
0000
0000
0100
0000
,
0001
0000
1000
0100
0010
0100
0000
0100
1000
0000
0010
0100
0001
1000
0000
0000
,
0001
0000
0000
0010
0000
0000
0001
0000
1000
0000
0100
0000
1000
0000
0010
0000
1000
0000
0000
0000
0001
0000
0100
0000
0001
0000
0010
0000
0000
0000
0010
0000
,
0100
0000
1000
0010
1000
0100
0000
0100
0010
0000
0001
0010
0100
1000
0000
0000
,
0010
0000
0000
1000
0000
0000
0001
0000
0010
0000
0001
0000
0000
0000
0000
0000
0000
0000
0000
0000
0000
0000
0000
0000
0000
0000
0000
0000
0000
0000
0000
0000
,
0000
0000
0000
0000
0000
0000
1000
0000
0001
0010
0001
0010
0100
1000
0000
0000
,
0001
0000
0000
0100
0000
0000
0010
0000
1000
0000
0001
0000
1000
0000
0100
0000
0010
0000
0000
0000
0100
0000
1000
0000
0001
0000
1000
0000
0000
0000
1000
0000
,
0010
0000
0100
0001
1000
0001
0000
0001
0010
0000
0100
1000
0010
0100
0000
0000
,
0001
0000
0000
0010
0000
0000
0100
0000
1000
0000
0001
0000
1000
0000
0000
0000
1000
0000
0000
0000
0000
0000
0010
0000
0000
0000
0010
0000
0000
0000
0100
0000
,
0000
0000
0001
0010
0100
0000
0100
0000
0000
1000
0000
1000
0000
0010
0000
0000
,
0100
0001
1000
0000
0100
0000
1000
0000
0100
0000
0010
0000
0001
0000
0010
0000
,
0001
0100
1000
0100
1000
0010
0001
0010
,
0001
0100
0010
1000
0001
0100
0010
2000
,
3002
0203
0310
1000
0001
0020
0130
1000
,
0001
2000
3100
0010
0001
1000
0010
0200
,
0310
0200
0310
1000
0001
0020
0130
2002
,
3003
0000
0001
0010
0000
0010
0100
0000
1000
0010
0100
0001
0000
0001
0010
0000
,
0100
1000
0010
0100
0000
0100
0001
0000
0010
0100
1000
0010
0000
0010
0100
0000
,
0001
0000
0000
0010
0000
0000
0100
0000
0000
1000
0000
0000
0000
0000
0000
1000
0000
0000
0010
0000
0000
0000
0000
0000
0100
0000
0000
0001
0000
0000
0010
0000
0000
0000
0100
0000
0000
0000
1000
0000
0000
0000
0001
0000
0000
0000
0000
0000
,
0100
0000
0000
0001
0000
0000
0010
0000
0000
0100
0000
0000
1000
0000
0000
0001
0000
0100
0000
0010
0000
1000
0000
0010
,
0000
0100
0000
0001
0000
0010
0000
0001
0000
0010
0000
0100
1000
0100
0000
1000
0000
0010
0000
1000
0000
0010
0000
0100
,
0001
0100
0000
0010
0000
1000
0000
0010
0000
1000
0000
0100
0010
0100
0000
0010
0000
0001
0000
0010
0000
0001
0000
0100
,
0010
0100
0000
0010
0000
1000
0000
0001
0000
0010
0000
0001
1000
0001
0000
0010
0000
0001
0000
1000
0000
0010
0000
1000
,
0001
1000
0000
0100
0000
1000
0000
0001
0000
0010
0000
0001
1000
0001
0000
0010
0000
0001
0000
1000
0000
0100
0000
1000
,
0001
1000
0000
0010
0000
1000
0000
0100
0000
0010
0000
0001
0100
0001
0100
0010
0000
0100
0000
0001
0000
0010
0000
0100
,
1000
0100
1000
0001
0000
0100
0000
0001
0000
0010
0000
0001
0100
0001
0100
0010
0000
1000
0000
0100
0000
0010
0000
0001
,
1000
0001
1000
0010
0000
0100
0000
0010
0000
1000
0000
0010
0100
0010
0100
0001
0000
0010
0000
0100
0000
1000
0000
0001
,
0010
0000
0001
0000
0010
0000
0100
0000
0000
1000
0000
0000
0000
0000
0000
1000
0000
0000
0010
0000
0000
0000
0000
0000
0010
0000
0000
0100
0000
0000
0000
0000
0000
0100
0000
0000
0001
0000
0000
0000
0000
0000
0001
0000
0000
0010
0000
0000
,
0001
0000
1000
0010
0000
0010
0100
0000
0100
0001
0000
0001
0010
0000
0010
0100
,
0010
0000
0001
0100
0000
0100
0010
0000
0010
1000
0000
1000
0100
0000
0100
0010
,
0001
0000
1000
0010
0000
0010
0100
0000
0100
0001
0000
0001
0010
0000
0010
0100
,
1000
0000
0001
0100
0000
0010
1000
0000
0100
0010
0000
0100
1000
0000
0001
0100
,
0010
0000
1000
0100
0000
0001
0100
0000
1000
0010
0000
0100
0001
0000
0010
0100
,
1000
0000
0001
0100
0001
1000
0100
1000
0001
0010
0001
1000
0010
1000
0001
0010
,
0100
0000
1000
0100
1000
0001
0100
0001
1000
0010
1000
0001
0010
0001
1000
0010
,
0100
0000
1001
0000
0001
0000
0001
0000
0010
0000
0010
0000
0010
0000
0200
0300
,
2000
3000
0020
0030
0010
0000
0010
0000
1000
0000
2000
3000
1000
0000
0100
0000
,
0100
0000
0020
0030
0010
0000
0010
0000
0001
0000
0001
0000
0001
0000
2000
3000
,
1000
0000
0020
0030
0010
0000
0010
0000
0100
0000
0200
0300
0100
0000
0001
0000
,
0001
0000
1001
0000
1000
0000
0000
0000
0010
0000
0010
0000
0000
0000
0200
0300
,
0002
0003
0020
0030
0010
0000
0000
0000
0100
0000
0200
0300
0000
0000
1001
0000
,
0000
0000
0120
0030
0100
0000
0000
0000
0001
0000
0001
0000
0000
0000
2000
3000
,
0000
0000
2000
3000
1000
0000
0000
0000
0100
0000
0020
0030
0010
0000
0010
0000
,
0010
0000
0000
0000
;

//---------------dance-single - ----------------
#NOTES:
     dance-single:
     :
     Medium:
     10:
     0.409,0.442,0.124,0.102,0.295:
0000
0000
0000
0000
,
0000
0000
0000
0000
,
0000
0001
0000
0000
0001
0000
0000
0000
0000
1000
0000
0000
1000
0000
0000
0000
,
0000
0010
0000
0000
0010
0000
0000
0000
0000
0100
0000
0000
0100
0000
0000
0000
,
0000
0001
0000
0000
0001
0000
0000
0000
0000
0010
0000
0000
0010
0000
0000
0000
,
0001
0000
0000
1000
0000
0000
0001
0000
0000
1000
0000
0001
0000
0000
1000
0000
,
0000
0001
0000
1000
0000
0001
0000
0000
1000
0000
0000
0001
0000
0000
1000
0000
,
0001
0000
0001
0000
0000
0100
0000
0010
0000
0010
0000
0000
1000
0000
0100
0000
,
0100
0000
0000
0010
0000
0001
0000
0001
0000
0000
0100
0000
0020
0000
0000
0000
,
0030
0000
2000
0000
3002
0000
0013
0100
,
1000
0000
0010
0100
0001
0000
0100
0010
,
1000
0000
0100
0010
0001
0000
0010
0100
,
1000
0100
0001
0010
,
1000
0010
0001
0100
,
0010
0001
0100
0001
,
0010
0000
0001
0000
0100
0000
0010
1000
,
0000
0100
0000
0001
0000
0010
0000
1000
,
0000
0010
0000
0001
0000
0100
0000
0010
,
0000
0001
0000
0100
0000
0010
0000
0100
,
0000
0001
0000
0010
0000
0100
1000
1000
,
0000
0001
0000
0001
0000
0100
0000
0000
0010
0000
0010
0000
1000
0000
1000
0000
,
0000
0100
0000
0100
0000
0000
0010
0000
0010
0000
0001
0000
1000
0000
0000
0000
,
1100
0000
0001
0000
0101
0100
0010
0000
,
1100
0000
1000
0001
0100
0000
1010
0000
,
0100
0000
0011
0001
0100
0000
1010
0000
,
0100
0000
0000
0000
0010
0000
0001
0000
0010
0000
0000
0010
0000
0000
0010
0000
,
0100
0000
1000
0000
0001
0000
1000
0000
0000
1000
0000
0000
1000
0000
0001
0000
,
0100
0000
0010
0000
0100
0000
0000
0100
0000
0000
0100
0000
0001
0000
1000
0000
,
0100
0000
0010
0000
0000
0010
0000
0000
0010
0000
0001
0000
0010
0000
0100
0000
,
1000
0010
0100
0001
0010
0100
0100
1000
,
1000
0001
0000
2002
0000
0000
0000
0000
,
0000
0000
0000
3003
0000
0000
0000
0000
,
0000
0000
0000
0000
,
0000
0000
0000
0000
0000
0000
1000
0000
0000
1000
0000
0000
1000
0000
0000
0000
,
0001
0010
0100
0000
1000
0010
0100
0000
,
0001
0000
0000
0000
1001
0000
0001
0000
0000
0001
0000
0000
0001
0000
0000
0000
,
0010
0100
1000
0000
0010
0100
0001
0000
,
1000
0000
1001
0200
0000
0000
0000
0000
,
0000
0300
0000
0000
0001
0010
0100
0000
,
1000
0000
0000
0000
1001
0000
0001
0000
0000
0001
0000
0000
0001
0000
0000
0000
,
0100
0010
0001
0000
0010
1000
0001
0000
,
0010
0000
0000
0000
0110
0000
1000
0000
1000
0000
0000
0100
0000
0100
0000
0010
,
0000
0000
0001
0000
0100
0000
0100
0000
0000
0010
0000
0010
0000
1000
0000
0000
,
0001
1002
0000
0100
0000
0100
0000
0103
,
0000
0002
0000
0023
0000
2030
0000
3200
,
0000
0301
0100
0010
0000
0001
0100
0010
,
0000
0001
0100
0010
0000
0100
0000
0101
,
0000
1000
0100
0010
0000
1000
0100
0010
,
0000
1000
0100
0010
0000
0100
0000
1100
,
0000
0001
0100
0001
0100
0010
1000
0100
,
0000
1000
0100
1000
0100
0010
0001
0100
,
0000
0001
0100
1000
0100
0001
1000
0100
,
0000
0020
0000
0032
0000
1003
1000
0001
,
0000
0000
0000
1000
0000
0000
0000
1000
0000
0000
0000
1000
0000
0000
0000
0100
0000
0000
0000
0100
0000
0000
0000
0100
,
0000
0000
0000
0010
0000
0000
0000
0010
0000
0000
0000
0010
0000
0000
0000
0001
0000
0000
0000
0001
0000
0000
0000
0001
,
0000
0000
0000
0100
0000
0000
0000
0100
0000
0000
0000
0100
0000
0000
0000
0010
0000
0000
0000
0010
0000
0000
0000
0010
,
0000
0000
0000
1000
0000
0000
0000
1000
0000
0000
0000
1000
0000
0000
0000
0001
0000
0000
0000
0001
0000
0000
0000
0001
,
0000
0000
0000
1000
0000
0000
0000
0100
0000
0000
0000
1000
0000
0000
0000
0001
0000
0000
0000
0100
0000
0000
0000
0001
,
0000
0000
0000
1000
0000
0000
0000
0010
0000
0000
0000
1000
0000
0000
0000
0001
0000
0000
0000
0010
0000
0000
0000
0001
,
0000
0000
0000
1000
0000
0000
0000
0100
0000
0000
0000
0010
0000
0000
0000
0001
0000
0000
0000
0100
0000
0000
0000
0010
,
0000
0000
1000
0000
0000
0100
0000
0000
0010
0000
0000
0001
0000
0000
0010
0000
,
0000
0000
0100
0000
0000
1000
0000
0000
0001
0000
0000
0100
0000
0000
0010
0000
,
0000
0000
1000
0000
0000
0010
0000
0000
0100
0000
0000
0001
0000
0000
0100
0000
,
0000
0000
0001
0000
0000
0010
0000
0000
0100
0000
0000
1000
0000
0000
0001
0000
,
0000
0000
1000
0000
0000
0100
0000
0000
0001
0000
0000
0100
0000
0000
1000
0000
,
0000
0000
0001
0000
0000
0100
0000
0000
1000
0000
0000
0100
0000
0000
0001
0000
,
0000
0000
1000
0000
0000
0100
0000
0000
0010
0000
0000
0001
0000
0000
1001
0000
,
0000
0000
0001
0000
0000
0100
0000
0000
0010
0000
0000
1000
0000
0000
1001
0000
,
0000
0110
0000
0000
0000
1000
0000
0000
,
0000
0100
0000
0100
0000
0100
0000
0000
,
0000
0010
0000
0000
0000
0001
0000
0000
,
0000
1000
0000
0010
0000
0100
0000
0000
,
0000
0002
0000
0003
0000
1000
0000
0000
,
0000
0001
0000
0000
0000
0100
0000
0000
,
0000
0010
0000
0000
0000
1000
0000
0000
,
0000
0100
0000
0010
0000
0001
0000
0100
;

//---------------dance-single - ----------------
#NOTES:
     dance-single:
     :
     Beginner:
     2:
     0.120,0.149,0.007,0.022,0.000:
0000
0000
0000
0000
,
0000
0000
0000
0000
,
0000
0001
0000
0001
,
0000
1000
0000
1000
,
0000
0001
0000
1000
,
1000
0000
0000
0000
,
0000
0000
0000
0000
,
0001
0000
0000
0000
0001
0000
0000
1000
,
0000
0000
0000
1000
0000
0000
0100
0000
,
0000
0000
0000
0010
,
0000
0010
0000
0001
,
0000
0001
0000
1000
,
1000
0000
1000
0000
,
0100
0000
0100
0100
,
0000
0000
0000
0000
,
0000
0000
0000
0000
0000
0000
0000
0001
,
0000
0000
0000
0001
0000
0000
0000
0100
,
0000
0000
0000
0100
0000
0100
0000
0000
,
0000
0000
0000
0000
,
0000
0000
0000
1000
,
0000
0000
0000
0001
,
0000
0000
0000
0100
,
0100
0100
0000
0000
,
0000
0010
0010
0010
,
0010
0000
0000
0000
,
1000
1000
0000
0000
,
0000
0000
0000
0000
,
1000
0000
0000
0000
,
0000
0000
0000
0000
0000
0000
0000
0100
,
0000
0000
0000
0100
0000
0000
0000
0010
,
0000
0000
0000
0020
0000
0000
0000
0000
,
0000
0000
0000
0030
0000
0000
0000
0000
,
0000
0000
0000
0000
,
0000
0000
0000
0001
0000
0001
0000
0000
,
0000
1000
0000
0000
0000
1000
0000
0000
,
0000
0000
0000
0010
0000
0010
0000
0000
,
0000
0010
0000
0000
0000
0001
0000
0000
,
0000
0001
0000
0000
0000
0000
0000
0000
,
0000
0000
0000
0000
0000
1000
0000
0000
,
0000
0000
0000
0001
0000
0001
0000
0000
,
0000
0001
0000
0000
0000
1000
0000
0000
,
0000
1000
0000
1000
0000
0000
0000
0000
,
0000
0100
0000
0000
,
0000
0020
0000
0000
0000
0000
0000
0000
,
0000
0030
0000
0000
0000
0000
0000
0000
,
0000
0001
0000
0000
0000
0001
0000
0000
,
0000
1000
0000
0000
0000
1000
0000
0000
,
0000
0001
0000
0000
0000
1000
0000
0000
,
0000
0001
0000
0000
0000
1000
0000
0000
,
0000
0100
0000
0000
0000
0100
0000
0000
,
0000
0010
0000
0000
0000
0010
0000
0000
,
0000
0100
0000
0000
0000
0010
0000
0000
,
0000
0200
0000
0000
0000
0300
0000
0000
,
0000
0001
0000
0000
0000
1000
0000
0000
,
0000
0010
0000
0000
0000
0010
0000
0000
,
0000
1000
0000
0000
0000
0001
0000
0000
,
0000
0010
0000
0000
0000
0010
0000
0000
,
0000
0001
0000
0000
0000
1000
0000
0000
,
0000
0100
0000
0000
0000
0100
0000
0000
,
0000
1000
0000
0000
0000
0010
0000
0000
,
0000
0100
0000
0000
0000
0100
0000
0000
,
0000
0001
0000
0001
0000
0001
0000
0000
,
0000
0010
0000
0000
0000
0010
0000
0000
,
0000
0100
0000
0100
0000
0100
0000
0000
,
0000
1000
0000
0000
0000
0001
0000
0000
,
0000
0100
0000
0100
0000
0100
0000
0000
,
0000
0001
0000
0000
0000
1000
0000
0000
,
0000
0100
0000
0010
0000
0100
0000
0000
,
0000
1001
0000
0000
0000
0000
0000
0000
;

//---------------dance-single - ----------------
#NOTES:
     dance-single:
     :
     Easy:
     6:
     0.285,0.304,0.080,0.066,0.066:
0000
0000
0000
0000
,
0000
0000
0000
0000
,
0000
1001
0000
0110
,
0000
1001
0000
0110
,
0000
1001
0000
0110
,
0100
0000
0000
0000
0000
0000
0100
0000
0000
0000
0000
0100
0000
0000
0000
0000
,
0000
0100
0000
0000
0000
0100
0000
0000
0000
0000
0000
0100
0000
0000
0000
0000
,
0100
0000
0001
0000
1000
0000
0100
0010
,
0000
0100
0000
1000
0000
0001
0100
0000
,
0000
0020
0030
1000
,
0100
0010
0100
1000
,
0100
0010
0001
0010
,
0100
0000
1000
0000
,
0010
0000
0100
1001
,
0000
0000
0000
0010
,
0010
0000
0010
0000
0000
0000
0000
0100
,
0000
0000
0000
0001
0000
0000
0000
0010
,
0000
0000
0000
0100
0000
1001
0000
0000
,
0000
0000
0000
0000
0000
0010
0000
0010
,
0000
0010
0000
0000
0000
0000
1000
0000
,
0100
0001
0100
1000
,
0100
0010
0001
0100
,
0000
0000
0100
0000
0100
0010
0100
0000
,
0001
1000
0000
0100
,
0100
0010
0100
0000
1000
0000
0001
0000
,
0100
0000
0010
0000
1000
0001
0000
0100
,
0001
0000
0010
0000
0001
1000
0000
0000
,
0010
0000
1000
0100
0000
1000
0010
0000
,
0100
0000
0001
0000
1000
0001
1000
0001
,
0000
0010
0000
0100
0000
1000
0000
0001
,
0000
1000
0000
2002
0000
0000
0000
0000
,
0000
0000
0000
3003
0000
0000
0000
0000
,
0000
0000
0000
0000
,
0000
0000
0000
1000
0000
0000
0000
0001
,
0000
0000
0000
1000
0000
0100
0000
0010
,
0001
0010
0001
1000
0000
0000
0000
0001
,
0000
0000
0000
0010
0000
0100
0000
1000
,
0010
1000
0010
0200
0000
0000
0000
0000
,
0000
0300
0000
0001
0000
1000
0000
0001
,
0010
0001
0010
0100
0000
1000
0000
0010
,
0000
0100
0000
0001
0000
0010
0000
0100
,
1000
0100
1000
0001
0000
0010
0000
0100
,
0000
1000
0001
0000
1000
0000
0100
0000
,
0010
0001
0000
0100
0000
1000
0000
0010
,
0000
0001
0000
0010
0000
1000
0000
0100
,
0000
0001
0000
1000
0000
0001
0000
0001
,
1000
0001
0000
1000
0000
0001
0000
0000
,
0000
1000
0000
0001
0000
1000
0000
1000
,
0001
1000
0000
0001
0000
1000
0000
0000
,
0000
0010
0000
1000
0000
0100
0000
0010
,
0100
0010
0000
0100
0000
1000
0000
0010
,
0000
0100
0000
0001
0000
0010
0000
0100
,
0010
0100
0000
0010
0000
0001
0000
0000
,
0000
0000
0000
1000
0000
0000
0000
0000
0000
0000
0000
1000
0000
0000
0000
0100
0000
0000
0000
0000
0000
0000
0000
0100
,
0000
0000
0000
0010
0000
0000
0000
0000
0000
0000
0000
0010
0000
0000
0000
0001
0000
0000
0000
0000
0000
0000
0000
0001
,
0000
0000
0000
0100
0000
0000
0000
0000
0000
0000
0000
0100
0000
0000
0000
0010
0000
0000
0000
0000
0000
0000
0000
0010
,
0000
0000
0000
1000
0000
0000
0000
0000
0000
0000
0000
1000
0000
0000
0000
0001
0000
0000
0000
0000
0000
0000
0000
0001
,
0000
0000
0000
0010
0000
0000
0000
0000
0000
0000
0000
0010
0000
0000
0000
0100
0000
0000
0000
0000
0000
0000
0000
0100
,
0000
0000
0000
1000
0000
0000
0000
0000
0000
0000
0000
1000
0000
0000
0000
0010
0000
0000
0000
0000
0000
0000
0000
0010
,
0000
0000
0000
0100
0000
0000
0000
0000
0000
0000
0000
0100
0000
0000
0000
0001
0000
0000
0000
0000
0000
0000
0000
0001
,
0000
1000
0000
0100
0000
0100
0000
0010
,
0000
0100
0000
0100
0000
1000
0000
0000
,
0000
0001
0000
0100
0000
0100
0000
0010
,
0000
0100
0000
0100
0000
0001
0000
0000
,
0000
1000
0000
0010
0000
0010
0000
0100
,
0000
0010
0000
0010
0000
1000
0000
0000
,
0000
0001
0000
0010
0000
0010
0000
0100
,
0000
0010
0000
0010
0000
0001
1000
0001
,
1000
0010
0000
0000
0000
0100
0000
0100
,
0010
0100
0000
0000
0000
0010
0000
0000
,
0000
1000
0000
0000
0000
0000
0000
0001
,
0000
1000
0000
0000
0000
2002
3003
0000
,
0000
0020
0000
0030
0000
0000
0000
1000
,
0001
1000
0000
0000
0000
0001
0000
0000
,
0000
0010
0000
0000
0000
0000
0000
1000
,
0000
0001
0000
0000
0000
2002
3003
0000
;

//---------------dance-double - ----------------
#NOTES:
     dance-double:
     :
     Hard:
     14:
     0.570,0.799,0.168,0.051,0.536:
00000000
00000000
00000000
00000000
,
00000000
00000000
00000000
00000000
,
00010000
00000000
00000000
01000000
00000000
00000000
00010000
00000000
00001000
00000000
00000000
00000100
00000000
00000000
00001000
00000000
,
00010000
00000000
00000000
00100000
00000000
00000000
00010000
00000000
00001000
00000000
00000000
00000010
00000000
00000000
00000001
00000000
,
00000100
00000000
00000000
00001000
00000000
00000000
00010000
00000000
00100000
00000000
00000000
10000000
00000000
00000000
00010000
00000000
,
10000000
01000000
00000000
01000000
00100000
00000000
00010000
01000000
00000000
01000000
00001000
00010000
00000100
00000000
00000100
00001000
,
00000000
00000010
00000100
00000001
00000010
00000100
00001000
00000000
00001000
00000100
00000000
00010000
00001000
00000000
00001000
00010000
,
01000000
00000000
01000000
00000000
00000000
10000000
00000000
10000000
00000000
00100000
00000000
00000000
01000000
00010000
00100000
00000000
,
00100000
00000000
00000000
00001000
00000000
00001000
00000000
00010000
00000000
00000000
00000100
00001000
00000002
00000000
00000000
00000000
,
00000000
00000000
00000103
00001000
00010000
00001000
00000100
00000000
,
00001100
00011000
00110000
01100000
,
10010000
01010000
00101000
00010100
,
00001100
00000100
00000110
00000010
,
00000011
00000001
00000101
00001100
,
00001000
00000000
00010000
00000000
01000000
00000000
00100000
00010000
,
01000000
00000000
00100000
10000000
01000000
00000000
00100000
00110000
,
00000000
00010000
00000000
01010000
00000000
01000000
00000000
01001000
,
00000000
00001000
00000000
00011000
00000000
00010100
00000000
00000100
,
00000000
00001000
00000000
00000010
00000000
00000100
00000001
00000010
,
00000000
00000100
00001000
00010000
00000000
00100000
00010000
00010000
,
00000000
10000000
00000000
10000000
00000000
00100000
00000000
00000000
01000000
00000000
01000000
00010000
00100000
00000000
00100000
00000000
,
00000000
00001000
00000000
00001000
00000000
00000000
00010000
00000000
00010000
00000000
00000100
00000010
00000100
00000000
00001000
00000000
,
00000001
00000100
00001000
00010000
00100000
01000000
10000000
01000000
,
00100000
00010000
00100000
00100000
01000000
00010000
10000000
01000000
,
00010000
00001000
00000010
00000100
00000001
00000100
00000010
00001000
,
00000010
00000000
00000010
00000000
00000001
00000000
00000100
00000000
00001000
00000000
00010000
00001000
00000000
00000000
00010000
00000000
,
01000000
00000000
10000000
00000000
00010000
00000000
01000000
00000000
00100000
10000000
00000000
00000000
00100000
00000000
01000000
00000000
,
00001000
00000000
00010000
00000000
00001000
00000000
00000100
00000010
00000000
00000000
00010000
00000000
00001000
00000000
00100000
00000000
,
01000000
00000000
00010000
00000000
00001000
00000100
00000000
00000000
00000010
00000000
00001000
00000000
00000001
00000000
00000010
00000000
,
00000010
00000000
00000100
00000000
00000100
00000000
00010000
00000000
00010000
00000000
00001000
01000000
00001000
01000000
00100000
00000000
,
00100000
10000000
00000000
20020000
00000000
00000000
00000000
00000000
,
00000000
00000000
00000000
30030000
00000000
00000000
00000000
00000000
,
00000000
00000000
00000000
00000000
,
00000000
00000000
00000000
00000000
00000000
00000000
00010000
01000000
00010000
00000000
00100000
00000000
00001000
00010000
00000000
00000000
,
00000100
00000000
00001000
00000000
00000010
00000100
00000000
00000000
00000001
00000000
00000010
00000000
00000100
00010000
00000000
00000000
,
00001000
00000000
00000000
01000000
00000000
00000000
00001000
00000000
00010000
00000000
00010000
00000000
00001000
00000000
01000000
00000000
00001000
00000000
00000000
00000000
00100000
00000000
00000000
00000000
01000000
00000000
10000000
00000000
00000000
00000000
00000000
00000000
,
01000000
00000000
00010000
00000000
00001000
00000100
00000000
00000000
00000010
00000000
00001000
00000000
00000001
00000010
00000000
00000000
,
00000100
00000000
00000000
00010000
00000000
00000000
00001000
00000000
01000000
00000000
01000000
00000000
00000000
00000000
00000000
00000000
00000000
00000000
00000000
00000000
00000000
00000000
00000000
00000000
00000000
00000000
00000000
00000000
00000000
00000000
00000000
00000000
,
00000000
00000000
00000000
00000000
00000000
00000000
00000000
00000000
00010000
10000000
00010000
00000000
10000000
01000000
00000000
00000000
,
00100000
00000000
00000000
00001000
00000000
00000000
00010000
00000000
00000100
00000000
00000100
00000000
00001000
00000000
00000010
00000000
00001000
00000000
00000000
00000000
00000010
00000000
00000000
00000000
00000100
00000000
00000001
00000000
00000000
00000000
00000000
00000000
,
00000010
00000000
00000100
00000000
00010000
00001000
00000000
00000000
00010000
00000000
01000000
00000000
10000000
00010000
00000000
00000000
,
10000000
00000000
00000000
00100000
00000000
00000000
01000000
00000000
00010000
00000000
00010000
00000000
00100000
00000000
00000000
00000000
00100000
00000000
00000000
00000000
00000000
00000000
00001000
00000000
00000000
00000000
00001000
00000000
00000000
00000000
00010000
00000000
,
00000000
00000000
00000010
00000100
00000001
00000000
00000001
00000000
00000000
00001000
00000000
00001000
00000000
00010000
00000000
00000000
,
10000000
00010000
20000000
00000000
00000000
00000000
00000000
00000000
00000000
00000000
00000000
00000000
00000000
00000000
00000000
00000000
,
30000000
01000000
00100000
00010000
00001000
00000100
00001000
00010000
,
00100000
01000000
10000000
00010000
00000000
01000000
00000000
01001000
,
00000000
00001000
00010000
00000100
00000000
00000010
00000000
00000011
,
00000000
00000001
00000100
00000010
00000000
00010000
00000000
00011000
,
00000000
00001000
00100000
01000000
00000000
10000000
00000000
20020000
,
30030000
01000000
00010000
00100000
00001000
01000000
00010000
00100000
,
00001000
00010000
00000100
00001000
00000010
00010000
00000100
00001000
,
00000010
00000000
00000000
00000100
00000000
00000000
00000001
00000000
00000000
00001000
00000000
00000000
00000010
00000000
00000000
00000100
00000000
00000001
00000000
00001000
00000000
00000010
00000000
00000000
,
00000100
00000000
00000000
00001000
00000000
00000000
00010000
00000000
00000000
00100000
00000000
00000000
01000000
00000000
00000000
00010000
00000000
00100000
00000000
01000000
00000000
10000000
00000000
01000000
,
00000000
00100000
00000000
00010000
00000000
01000000
00000000
00010000
00000000
01000000
00000000
00100000
00000000
00100000
00000000
10000000
00000000
01000000
00000000
10000000
00000000
01000000
00000000
00100000
,
00000000
00100000
00000000
00001000
00000000
00010000
00000000
00001000
00000000
00010000
00000000
00000100
00000000
00000100
00000000
00000010
00000000
00000001
00000000
00000010
00000000
00000001
00000000
00000100
,
00000000
00000100
00000000
00000010
00000000
00010000
00000000
00000010
00000000
00010000
00000000
00001000
00000000
00001000
00000000
01000000
00000000
00010000
00000000
01000000
00000000
00010000
00000000
00100000
,
00000000
00100000
00000000
01000000
00000000
10000000
00000000
01000000
00000000
10000000
00000000
00010000
00000000
00010000
00000000
01000000
00000000
00001000
00000000
01000000
00000000
00001000
00000000
00010000
,
00000000
00010000
00000000
00000100
00000000
00001000
00000000
00000010
00000000
00000100
00000000
00000001
00001000
00000001
00000000
00000100
00000000
00000010
00000000
00001000
00000000
00000100
00000000
00010000
,
00001000
00010000
00000000
00001000
00000000
01000000
00000000
00010000
00000000
00100000
00000000
01000000
10000000
01000000
00000000
10000000
00000000
00010000
00000000
01000000
00000000
00001000
00000000
00010000
,
00000010
00010000
00000000
00000100
00000000
00000010
00000000
00000100
00000000
00010000
00000000
00001000
00100000
00001000
00000000
00010000
00000000
01000000
00000000
10000000
00000000
00100000
00000000
01000000
,
00010000
01000000
00000000
00100000
00000000
00000000
00100000
00000000
00000000
10000000
00000000
00000000
01000000
00000000
00000000
01000000
00000000
00000000
10000000
00000000
00000000
00010000
00000000
00000000
,
00010000
10000000
01000000
00100000
00010000
00001000
00000100
00000010
,
00000001
00001000
00001000
00000010
00000100
00000100
00000010
00001000
,
00001000
00000001
00000100
00000010
00001000
00010000
01000000
00100000
,
10000000
00000000
00010000
01000000
00010000
00000000
00100000
00000000
01000000
10000000
01000000
00000000
00100000
00000000
00010000
01000000
,
00010000
10000000
00100000
01000000
00010000
00001000
00000010
00000100
,
00000001
00000000
00001000
00000100
00001000
00000000
00000001
00000000
00000010
00000100
00000010
00000000
00000001
00000000
00000100
00000010
,
00000100
00000000
00000001
00000000
00000010
00000000
00000100
00000000
00001000
00000000
00010000
00000000
00100000
00000000
01000000
10000000
,
00010000
01000000
00100000
00000000
00000000
00100000
00000000
00000000
00000000
00000000
00000000
00000000
00000000
00000000
00000000
00000000
,
00000000
00000000
01000000
00000000
00000000
01000000
00000000
00000000
00000000
00000000
00000000
00000000
00000000
00000000
00000000
00000000
,
00000000
00000000
00000100
00000000
00000000
00000100
00000000
00000000
00000000
00000000
00000000
00000000
00000000
00000000
00000000
00000000
,
00000000
00000000
00000010
00000000
00000000
00000010
00000000
00000000
00000000
00000000
00000000
00000000
00000000
00000000
00000000
00000000
,
00000000
00000002
00000000
00000003
00000000
00000000
00000000
00000100
,
00001000
01000000
00000000
00000000
00000000
00100000
00000000
00000000
,
00000000
10000000
00000000
00000000
00000000
00000000
00000000
00010000
,
00000000
00001000
00000000
00000000
00000000
00000001
00000000
00000000
;

//---------------dance-double - ----------------
#NOTES:
     dance-double:
     :
     Challenge:
     17:
     0.739,0.997,0.058,0.073,0.991:
00000000
00000000
00000000
00000000
,
00000000
00000000
00000000
00000000
,
10000000
01000000
00000000
00000000
01100000
00000000
00000000
00000000
00100000
00010000
00000000
00000000
01010000
00000000
00000000
00000000
,
01000000
00001000
00000000
00000000
00011000
00000000
00000000
00000000
00010000
00000100
00000000
00000000
00000110
00000000
00000000
00000000
,
00000010
00000001
00000000
00000000
00000101
00000000
00000000
00000000
00000100
00000010
00000000
00000000
00010010
00000000
00000000
00000000
,
00010000
00001000
00000000
00001000
01000000
00000000
00010000
10000000
00000000
10000000
01000000
00100000
00001000
00000000
00001000
00010000
,
00000000
00000100
00001000
00001000
00000010
00000100
00000001
00000000
00000001
00000010
00000000
00000100
00010000
00000000
00010000
00001000
,
01000000
00000000
01000000
00000000
00000000
00100000
00000000
10000000
00000000
01000000
00000000
00000000
00010000
00001000
00000100
00000000
,
00000100
00000000
00000000
00000010
00000000
00001000
00000000
00000001
00000000
00000000
00000010
00000100
00020000
00000000
00000000
00000000
,
00000000
00000000
00000000
00000000
00031000
01000000
00001000
00010000
00000100
00010000
00001000
00100000
00000000
00100000
01000000
00000000
,
10000000
01000000
00010000
00001000
00000100
00000001
00001000
00000001
,
00000100
00000000
00001000
00000000
00010000
00000000
00100000
00000000
10000000
00010000
00100000
01000000
10000000
00000000
01000000
00000000
,
00010000
00001000
00000100
00000010
00001000
00000000
00000001
00000010
,
00000100
00010000
00001000
00000000
00100000
01000000
10000000
00010000
,
01000000
00000000
00001000
00010000
00000000
00000100
00001000
00000000
,
00000010
00000100
00000000
00000001
00000010
00000000
00001000
00010000
,
00000000
01000000
10000000
00010000
01000000
00001000
00000000
00010000
,
00000100
00001000
00000010
00000001
00000000
00001001
00001000
00000000
,
00000100
00010000
00000000
00001000
00100000
00000000
01000000
00010000
,
00000000
01000000
10000000
00000000
00010000
01000000
00001000
00001000
,
00000000
00010000
00000000
00000100
00000000
00001000
00000000
00000000
00000001
00000000
00000001
00000100
00001000
00000000
00001000
00000000
,
00000000
00010000
00000000
01000000
00000000
00000000
10000000
00000000
00010000
00000000
10000000
00100000
10000000
00000000
01000000
00000000
,
00010000
01000000
10000000
00100000
10000000
01000000
00010000
00001000
,
00000100
00000000
00000001
00000000
00000010
00000001
00001000
00000001
00000100
00000000
00001000
00000000
00010000
00000000
00100000
00000000
,
00010000
00001000
00010000
01000000
10000000
00100000
10000000
01000000
,
00010000
00001000
00100000
00001000
01000000
00010000
10000000
01000000
00100000
00000000
00010000
01000000
00000000
00000000
00001000
00000000
,
00010000
00000000
00000100
00010000
00000010
00001000
00000001
00000000
00000010
00000100
00000000
00000000
00000010
00000000
00000001
00000000
,
00001000
00000100
00010000
00001000
01000000
00000000
00100000
10000000
00000000
00000000
01000000
00100000
01000000
00100000
00001000
00010000
,
00001000
00000000
00000000
00000100
00000000
00000000
00000010
00000000
00000000
00000000
00000000
00000000
00001000
00000000
00000000
00000001
00000000
00000000
00000000
00000000
00000000
00000000
00000000
00000000
00000010
00000000
00000100
00000000
00000010
00000000
00000100
00000000
00000000
00010000
00000000
00000000
00000100
00000000
00000000
00010000
00000000
00000000
00001000
00000000
00000000
00000000
00000000
00000000
,
00001000
00000000
01000000
00000000
01000000
00000000
10000000
00000000
10000000
00000000
01000000
01000000
00010000
00010000
00100000
00000000
,
01000000
10000000
00000000
20020000
00000000
00000000
00000000
00000000
,
00000000
00000000
00000000
00000000
30030000
00000000
10000000
01000000
00000000
01000000
00100000
00000000
00100000
00010000
00000000
00010000
,
00001000
00000000
00001000
00000100
00000000
00000100
00000010
00000000
00000010
00000001
00000000
00000001
00001000
00000000
00000100
00000000
,
00010000
00000000
00000000
00001000
00000000
00000000
01000000
00000000
00100000
00000000
00000000
00000000
10000000
00000000
01000000
00000000
10000000
00000000
00000000
00000000
00010000
00000000
01000000
00000000
00001000
00000000
00010000
00000000
00000000
00000000
00010000
00000000
,
00000100
00000000
00001000
00000010
00000100
00000001
00000000
00000001
00001000
00000000
00000100
00010000
00001000
01000000
00000000
00000000
,
00010000
00000000
00000000
00100000
00000000
00000000
01000000
00000000
10000000
00000000
10000000
00000000
00010000
00000000
01000000
00000000
00010000
00000000
00000000
00000000
00100000
00000000
00001000
00000000
00010000
00000000
00000100
00000000
00000000
00000000
00000100
00000000
,
00001000
00000000
00000010
00000100
00000001
00000010
00000000
00000010
00000100
00000000
00000010
00000001
00000100
00001000
00000000
00000000
,
00010000
00000000
00000000
00100000
00000000
00000000
01000000
00000000
00001000
00000000
00001000
00000000
00000000
00000000
00000000
00000000
00000000
00000000
00000000
00000000
00000000
00000000
00000000
00000000
00000000
00000000
00000000
00000000
00000000
00000000
00000000
00000000
,
00000000
00000000
00000000
00000000
00000000
00000000
00000000
00000000
10000000
01000000
00100000
01000000
10000000
00010000
00000000
00000000
,
01000000
00000000
00000000
00001000
00000000
00000000
00010000
00000000
00000010
00000000
00000010
00000000
00001000
00000000
00000100
00000000
00001000
00000000
00000000
00000000
00000001
00000000
00000100
00000000
00000010
00000000
00001000
00000000
00000000
00000000
00001000
00000000
,
00000100
00000000
00010000
00001000
01000000
00100000
00000000
00100000
10000000
00000000
00010000
00100000
01000000
10000000
00000000
00000000
,
01000000
00000000
00000000
00010000
00000000
00000000
00001000
00000000
00000010
00000000
00000010
00000000
00000100
00000000
00000000
00000000
00000100
00000000
00000000
00000000
00000000
00000000
00010000
00000000
00000000
00000000
01000000
00000000
00000000
00000000
10000000
00000000
,
00000000
00000000
00100000
00010000
00001000
00000000
00001000
00000000
00000000
00000010
00000000
00000001
00000000
00000100
00000000
00000000
,
00001000
00010000
01000000
00000000
00000000
00000000
01000000
00000000
00000000
00000000
01000000
00000000
00000000
00000000
01000000
00000000
,
00000000
00000000
00000000
10000000
01000000
10000000
01000000
00000000
00000000
00100000
00010000
00100000
00010000
00000000
00000000
00001000
00000100
00001000
00000100
00000000
00000000
00000010
00000001
00000010
,
00000001
00001000
00000100
00010000
00000000
00001000
00010000
00000100
,
00000000
00001000
00000100
00010000
00000000
00001000
00010000
00000100
,
00000000
01000000
00001000
00010000
00000000
00001000
01000000
00010000
,
00000000
01000000
00001000
00010000
00000000
00001000
01000000
00020000
,
00030000
00000000
10000000
00000000
01000000
00000000
00100000
00000000
00001000
00010000
00001000
00010000
00000010
00000000
00000100
00000000
,
00000001
00000000
00000010
00000000
00000100
00000000
00010000
00000000
00001000
01000000
00001000
01000000
00100000
00000000
10000000
00000000
,
01000000
00000000
00000000
00000000
00000000
00000000
00010000
00000000
00000000
00000000
00000000
00000000
00001000
00000000
00000000
00000000
00000000
00000000
00000100
00000000
00000000
00000000
00000000
00000000
00000010
00000000
00000000
00001000
00000000
00000000
00000010
00000000
00000000
00000000
00001000
00000000
00000000
00000000
00010000
00000000
00000000
00000000
01000000
00000000
00000000
00000000
00000000
00000000
,
01000000
00000000
00000000
00100000
00000000
00000000
10000000
00000000
00000000
00010000
00000000
00000000
00100000
00000000
00000000
01000000
00000000
10000000
00000000
01000000
00000000
00010000
00000000
00001000
,
00000000
00000100
00000000
00000001
00000000
00000100
00000000
00000010
00000000
00001000
00000000
00000100
00010000
00000100
00010000
00001000
00000000
01000000
00000000
00010000
00000000
00100000
00000000
01000000
,
10000000
01000000
10000000
00010000
00000000
01000000
00000000
00001000
00000000
00010000
00000000
00000010
00001000
00000010
00001000
00000100
00000000
00000010
00000000
00000001
00000000
00000100
00000000
00001000
,
00010000
00001000
00010000
00100000
00000000
01000000
00000000
00010000
00000000
10000000
00000000
01000000
00100000
01000000
00100000
00001000
00000000
00010000
00000000
00000100
00000000
00001000
00000000
00000010
,
00000100
00000010
00000100
00000001
00000000
00000010
00000000
00000100
00000000
00010000
00000000
00001000
01000000
00001000
01000000
00010000
00000000
00100000
00000000
01000000
00000000
10000000
00000000
00010000
,
01000000
00010000
01000000
00100000
10000000
00100000
10000000
00100000
10000000
00100000
00000000
01000000
00000000
00001000
00000000
00010000
00000100
00010000
00000100
00010000
00000100
00010000
00000000
00000010
,
00000000
00000100
00000000
00000001
00000010
00000001
00000010
00000001
00000010
00000001
00000000
00000100
00000000
00001000
00000000
00010000
00001000
00010000
00001000
00010000
00001000
00010000
00000000
01000000
,
00000000
10000000
00000000
00100000
01000000
00100000
01000000
00100000
01000000
00100000
00000000
00010000
00000000
00001000
00000000
00000100
00000010
00000100
00000010
00000100
00000010
00000100
00000000
00000001
,
00000000
00000000
00000010
00000000
00000000
00000000
00000100
00000000
00000000
00010000
00000000
00000000
00000100
00000000
00000000
00000000
00000000
00000000
00010000
00000000
00000000
00001000
00000000
00000000
00010000
00000000
00000000
00000000
00000000
00000000
00001000
00000000
00000000
01000000
00000000
00000000
00001000
00000000
00000000
00000000
00000000
00000000
01000000
00000000
00000000
00100000
00000000
00000000
,
01000000
00000000
00100000
10000000
01000000
00100000
00010000
01000000
00100000
01000000
00010000
00100000
01000000
10000000
00100000
01000000
,
00010000
00000000
00100000
00001000
00100000
00000000
00001000
00010000
00001000
00000000
00010000
00000010
00010000
00000000
00000010
00000100
,
00000010
00000000
00000100
00000001
00000010
00000100
00001000
00000010
00000100
00000010
00001000
00000100
00000010
00000001
00000100
00000010
,
00001000
00000000
00000100
00001000
00000100
00000000
00001000
00010000
00001000
00000000
00010000
00100000
00010000
00000000
01000000
00100000
,
01000000
00000000
00100000
10000000
01000000
00100000
00010000
01000000
00100000
01000000
00010000
00100000
01000000
10000000
00010000
01000000
,
00100000
00000000
10000000
01000000
10000000
00010000
01000000
00010000
00100000
01000000
00100000
00001000
00010000
00001000
00000100
00000010
,
00000100
00000010
00001000
00000100
00001000
00000001
00000100
00000001
00000010
00000100
00000010
00001000
00010000
00001000
01000000
00100000
,
10000000
01000000
00100000
00000000
00000000
00200000
00300000
00000000
00000000
00000000
00000000
00000000
00000000
00000000
00000001
00000000
,
00000100
00000000
00001000
00000000
00000000
00002000
00003000
00000000
00000000
00000000
10000000
00000000
00000000
00000000
00000000
00000000
,
00000000
00000000
01000000
00000000
00000000
02000000
03000000
00000000
00000000
00000000
00000000
00000000
00000000
00000000
00000010
00000000
,
00000000
00000000
00000010
00000000
00000000
00000020
00000030
00000000
00000000
00000000
00000001
00000000
00000000
00000000
00000000
00000000
,
00000000
00020000
00000000
00030000
00000000
00000000
00000000
00000010
,
00010000
01000000
00000000
00000000
00000000
00001000
00000000
00000000
,
00000000
00000001
00000000
00000000
00000000
00000000
00000000
10000000
,
00000000
00010000
00000000
00000000
00000000
00000020
00000000
00000000
,
00000030
00000000
00000000
00000000
;

//---------------dance-double - ----------------
#NOTES:
     dance-double:
     :
     Medium:
     11:
     0.426,0.496,0.175,0.066,0.270:
00000000
00000000
00000000
00000000
,
00000000
00000000
00000000
00000000
,
00000000
01000000
00000000
00000000
01000000
00000000
00000000
00000000
00000000
00100000
00000000
00000000
00100000
00000000
00000000
00000000
,
00000000
10000000
00000000
00000000
10000000
00000000
00000000
00000000
00000000
01000000
00000000
00000000
01000000
00000000
00000000
00000000
,
00000000
00100000
00000000
00000000
00100000
00000000
00000000
00000000
00000000
00001000
00000000
00000000
00001000
00000000
00000000
00000000
,
00010000
00000000
00000000
00000100
00000000
00000000
00001000
00000000
00000000
00000001
00000000
00000100
00000000
00000000
00000010
00000000
,
00000000
00000100
00000000
00000001
00000000
00001000
00000000
00000000
00000100
00000000
00000000
00010000
00000000
00000000
00001000
00000000
,
01000000
00000000
01000000
00000000
00000000
00100000
00000000
00100000
00000000
10000000
00000000
00000000
00010000
00000000
01000000
00000000
,
01000000
00000000
00000000
00001000
00000000
00001000
00000000
00010000
00000000
00000000
00000100
00000000
00002000
00000000
00000000
00000000
,
00000000
00000002
00003003
00000001
,
00000100
00000110
00010010
00010000
,
00001000
01001000
01000000
00100000
,
10100000
10000000
01000000
00010000
,
00001000
00000010
00000001
00001001
,
00000000
00000000
00000000
00000001
,
00000001
00000000
00000001
00001000
00000100
00010000
00001000
01000000
,
00000000
00100000
00000000
00010000
00000000
00001000
00000000
00000100
,
00000000
00000010
00000000
00010000
00000000
00011000
00000000
00000000
,
00000000
00000000
00000000
00000000
00000000
00001000
00000000
00001000
,
00000000
00001000
01000000
00100000
10000000
01000000
00100000
00100000
,
00000000
00001000
00000000
00001000
00000000
00010000
00000000
00000000
00000100
00000000
00000100
00000000
00001000
00000000
00001000
00000000
,
00000000
00000001
00000000
00000001
00000000
00000000
00000100
00000000
00000100
00000000
00000010
00000000
00010000
00000000
00000000
00000000
,
00001000
00000000
01000000
00000000
00100000
10000000
00010000
00000000
,
00100000
00000000
00001000
00010000
00001000
00000000
00000100
00000000
,
00000010
00000000
00001000
00000001
00000010
00000000
00000100
00000000
,
00010000
00000000
00001000
00000000
00010000
00000000
01000000
00000000
10000000
00000000
00000000
10010000
00000000
00000000
00010000
00000000
,
01000000
00000000
00000000
00000000
00001000
00000000
00010000
00000000
00000000
00011000
00000000
00000000
00010000
00000000
00000100
00000000
,
00000010
00000000
00000000
00000000
00000001
00000000
00000000
00000101
00000000
00000000
00000100
00000000
00000010
00000000
00010000
00000000
,
00001000
00000000
01000000
00000000
00000000
01001000
00000000
00000000
01000000
00000000
00100000
00000000
10000000
00000000
00010000
00000000
,
00010000
10000000
10000000
01000000
00100000
00001000
00001000
00010000
,
00010000
00000100
00000000
00000220
00000000
00000000
00000000
00000000
,
00000000
00000000
00000000
00000330
00000000
00000000
00000000
00000000
,
00000000
00000000
00000000
00000000
,
00000000
00000000
00000000
00000001
00000100
00000010
00000000
00010000
,
00001000
00100000
00000000
00010000
01000000
00100000
00000000
10000000
,
01000000
00100000
01100000
10000000
00010000
01000000
00000000
00001000
,
00010000
00000100
00000000
00001000
00000010
00000100
00000000
00000001
,
00000010
00000100
00000110
00002000
00000000
00000000
00000000
00000000
,
00000000
00000000
00000000
00003000
00000001
00000100
00001000
00000000
,
00010000
00001000
00011000
01000000
00010000
10000000
00000000
01000000
,
00100000
00001000
00000000
00010000
00000100
00000010
00000000
00000001
,
00000100
00000000
00001000
00000000
00011000
00000000
00100000
00000000
00100000
00000000
00000000
00010000
00000000
00010000
00000000
01000000
,
00000000
00000000
00001000
00000000
00010000
00000000
00010000
00000000
00000000
00000100
00000000
00000100
00000000
00000010
00000000
00000000
,
00000001
00000200
00000000
00000000
00000000
00000000
00000000
00000000
,
00000000
00000300
00000000
00000000
00000000
00000000
00000000
00000000
,
00000000
00001000
00010000
01000000
00000000
00010000
00001000
00000100
,
00000000
00001000
00010000
01000000
00000000
00010000
00001000
00000100
,
00000000
00001000
00010000
00100000
00000000
00010000
00001000
00000010
,
00000000
00001000
00010000
00100000
00000000
00010000
00001000
00000020
,
00000000
00000031
00000100
00000010
00001000
00000100
00010000
00001000
,
00100000
00010000
01000000
00100000
10000000
01000000
00100000
00001000
,
00010000
00000000
00000000
00001000
00000000
00000000
01000000
00000000
00000000
00100000
00000000
00000000
10000000
00000000
00000000
00010000
00000000
10000000
00000000
00010000
00000000
20000000
00000000
00000000
,
00000000
00000000
00000000
31000000
00000000
00000000
00100000
00000000
00000000
00001000
00000000
00000000
00010000
00000000
00000000
00000100
00000000
00000010
00000000
00000100
00000000
00000010
00000000
00000100
,
00000000
00000010
00000000
00000100
00000000
00000000
00000000
00010000
00000000
00000000
00000000
00011000
00000000
00000000
00000000
00001000
00000000
00000000
00000000
01000000
00000000
00000000
00000000
01100000
,
00000000
00000000
00000000
00100000
00000000
00000000
00000000
10000000
00000000
00000000
00000000
10010000
00000000
00000000
00000000
00010000
00000000
00000000
00000000
00100000
00000000
00000000
00000000
00101000
,
00000000
00000000
00000000
00001000
00000000
00000000
00000000
00010000
00000000
00000000
00000000
00010100
00000000
00000000
00000000
00000100
00000000
00000000
00000000
00000010
00000000
00000000
00000000
00000011
,
00000000
00000000
00000000
00000001
00000000
00000000
00000000
00000100
00000000
00000000
00000000
00000110
00000000
00000000
00000000
00000010
00000000
00000000
00000000
00010000
00000000
00000000
00000000
00011000
,
00000000
00000000
00000000
00001000
00000000
00000000
00000000
01000000
00000000
00000000
00000000
00100000
00000000
10000000
00000000
00100000
00000000
00000000
00000000
01000000
00000000
00000000
00000000
00010000
,
00000000
00100000
00000000
00010000
00000000
00000000
00000000
01000000
00000000
00000000
00000000
00001000
00000000
00010000
00000000
00001000
00000000
00000000
00000000
00000100
00000000
00000000
00000000
00000010
,
00000000
00001000
00000000
00000010
00000000
00000000
00000000
00000100
00000000
00000000
00000000
00000001
00000000
00000010
00000000
00000001
00000000
00000000
00000000
00001000
00000000
00000000
00000000
00000100
,
00000000
00010000
00000000
00000100
00000000
00000000
00000100
00000000
00000000
00000000
00000000
00000000
00010000
00000000
00000000
00010000
00000000
00000000
00000000
00000000
00000000
00001000
00000000
00000000
,
00001000
01000000
01000000
00000000
00100000
00100000
00000000
10000000
,
00000000
00010000
00010000
00000000
01000000
01000000
00000000
00001000
,
00001000
00010000
00010000
00000000
00000100
00000100
00000000
00000010
,
00000000
00000001
00000001
00000000
00000100
00000100
00000000
00000010
,
00000010
00010000
00010000
00000000
00001000
00001000
00000000
00100000
,
00000000
01000000
01000000
10000000
01000000
01000000
00100000
01000000
,
01000000
00010000
00010000
00001000
00000100
00000100
00000010
00001000
,
00001000
00001001
00000000
00000000
00000000
00000000
00000000
00000001
,
00000100
00001000
00000000
00000000
00000000
00010000
00000000
00000000
,
00000000
00100000
00000000
00000000
00000000
00000000
00000000
10000000
,
00000000
10000000
00000000
00000000
00000000
00010000
00000000
00000000
,
00000000
02000000
00000000
03000000
00000000
00000000
00000000
00001000
,
00010000
00000100
00000000
00000000
00000000
00000010
00000000
00000000
,
00000000
00000001
00000000
00000000
00000000
00000000
00000000
00000100
,
00000000
00000100
00000000
00000000
00000000
00001000
00000000
00000000
;

//---------------dance-double - ----------------
#NOTES:
     dance-double:
     :
     Easy:
     6:
     0.241,0.273,0.044,0.036,0.040: // measure 1
00000000
00000000
00000000
00000000
,  // measure 2
00000000
00000000
00000000
00000000
,  // measure 3
00000000
00001000
00000000
00000100
,  // measure 4
00000000
00000010
00000000
00010000
,  // measure 5
00000000
00001000
00000000
00100000
,  // measure 6
01000000
00000000
00000000
00000000
00000000
00000000
00100000
00000000
00000000
00000000
00000000
01000000
00000000
00000000
00000000
00000000
,  // measure 7
00000000
00100000
00000000
00000000
00000000
01000000
00000000
00000000
00000000
00000000
00000000
00100000
00000000
00000000
00000000
00000000
,  // measure 8
01000000
01000000
10000000
10000000
,  // measure 9
00010000
01000000
00001000
00020000
,  // measure 10
00000000
00000000
00000000
00030000
,  // measure 11
00000100
00000010
00000001
00000100
,  // measure 12
00001000
00010000
00100000
10000000
,  // measure 13
00010000
00000000
00000000
01000000
00000000
00000000
00001000
00000000
,  // measure 14
00000000
00010000
00000000
00000000
00000100
00000000
00000000
00001000
,  // measure 15
00000000
00000000
00000001
00000000
00000000
00000010
00000000
00000000
,  // measure 16
00000100
00000000
00000000
00010000
00000000
00000000
00001000
00000000
,  // measure 17
00000000
00100000
00000000
00000000
01000000
00000000
00000000
10000000
,  // measure 18
00000000
00000000
00010000
00000000
00000000
01000000
00000000
00000000
,  // measure 19
00001000
00000000
00000000
00010000
00000000
00000000
00001000
00000000
,  // measure 20
00000000
00000100
00000000
00000000
00000010
00000000
00001010
00000000
,  // measure 21
00000000
00001100
00000000
00010100
,  // measure 22
00000000
00011000
00001000
01000000
,  // measure 23
00100000
10000000
01000000
00010000
,  // measure 24
00001000
00000100
00000001
00000010
,  // measure 25
00000100
00010000
00001000
00100000
,  // measure 26
01000000
10000000
00010000
01010000
,  // measure 27
01000000
00000000
00001000
00000000
00010000
00000000
00001000
00010000
,  // measure 28
00001000
00000100
00000110
00000010
,  // measure 29
00001000
00000000
00000001
00000000
00000010
00000100
00000000
00000010
,  // measure 30
00000000
00000100
00000000
00010000
00000000
00001000
00010000
00001000
,  // measure 31
00000000
01000000
00000000
00200000
00000000
00000000
00000000
00000000
,  // measure 32
00000000
00000000
00000000
00300000
00000000
00000000
00000000
00000000
,  // measure 33
00000000
00000000
00000000
00000000
,  // measure 34
00000000
00000000
00000000
10000000
00000000
00010000
00000000
00000000
,  // measure 35
00000000
01000000
00000000
00000000
00000000
00001000
00000000
00010000
,  // measure 36
00000000
00000100
00000000
00000010
00000000
00000001
00000000
00000000
,  // measure 37
00000000
00001000
00000000
00000000
00000000
00000100
00000000
00010000
,  // measure 38
00000000
00001000
00000000
00200000
00000000
00000000
00000000
00000000
,  // measure 39
00000000
00000000
00000000
00300000
00000000
00010000
00000000
00000000
,  // measure 40
00000000
10000000
00000000
00010000
00000000
01000000
00000000
00000000
,  // measure 41
00000000
00001000
00000000
00000000
00000000
00010000
00000000
00000100
,  // measure 42
00000000
00000010
00000000
00000001
00000000
00000001
00000000
00001000
,  // measure 43
00000000
00001000
00000000
00000100
00000000
00010000
00000000
00001000
,  // measure 44
00000000
02000000
00000000
00000000
00000000
00000000
00000000
00000000
,  // measure 45
00000000
03000000
00000000
00000000
00000000
00000000
00000000
00000000
,  // measure 46
00000000
00100000
00000000
10000000
00000000
01000000
00000000
10000000
,  // measure 47
00000000
00100000
00000000
10000000
00000000
01000000
00000000
10000000
,  // measure 48
00000000
00010000
00000000
00100000
00000000
00001000
00000000
00100000
,  // measure 49
00000000
00010000
00000000
00100000
00000000
00001000
00000000
00200000
,  // measure 50
00000000
00301000
00000000
00010000
00000000
00000100
00000000
00010000
,  // measure 51
00000000
00001000
00000000
00010000
00000000
00000100
00000000
00010000
,  // measure 52
00000000
00000010
00000000
00000100
00000000
00000001
00000000
00000100
,  // measure 53
00000000
00000010
00000000
00000100
00000000
00000001
00000000
00000001
,  // measure 54
00000000
00001000
00000000
00001000
00000000
00000100
00000000
00000100
,  // measure 55
00000000
00010000
00000000
00010000
00000000
00001000
00000000
00001000
,  // measure 56
00000000
01000000
00000000
01000000
00000000
00100000
00000000
00100000
,  // measure 57
00000000
10000000
00000000
10000000
00000000
00010000
00000000
00010000
,  // measure 58
00000000
00000000
00000000
10000000
00000000
00000000
00000000
01000000
00000000
00000000
00000000
10000000
00000000
00000000
00000000
01000000
00000000
00000000
00000000
00000000
00000000
00000000
00000000
00100000
,  // measure 59
00000000
00000000
00000000
00001000
00000000
00000000
00000000
00010000
00000000
00000000
00000000
00001000
00000000
00000000
00000000
00010000
00000000
00000000
00000000
00000000
00000000
00000000
00000000
00000000
,  // measure 60
00000000
00000000
00000000
00000100
00000000
00000000
00000000
00001000
00000000
00000000
00000000
00000100
00000000
00000000
00000000
00001000
00000000
00000000
00000000
00000000
00000000
00000001
00000000
00000000
,  // measure 61
00000000
00000100
00000000
00000010
00000000
00010000
00000000
00001000
,  // measure 62
00000000
00100000
00000000
01000000
00000000
10000000
00010000
10000000
,  // measure 63
00000000
01000000
00000000
00100000
00000000
00001000
00000000
00010000
,  // measure 64
00000000
00000010
00000000
00000100
00000000
00000001
00001000
00000001
,  // measure 65
00000000
00000100
00000000
00001000
00000000
00010000
00000000
00100000
,  // measure 66
00000000
10000000
00000000
00010000
00000000
00100000
01000000
00100000
,  // measure 67
00000000
00001000
00000000
00010000
00000000
00000100
00000000
00001000
,  // measure 68
00000000
00000010
00000000
00001000
00000000
00000100
00000010
00000100
,  // measure 69
00000000
00001000
00000000
00000000
00000000
00000000
00000000
00000000
;
